osu file format v14

[General]
AudioFilename: audio.mp3
AudioLeadIn: 1000
PreviewTime: 803
Countdown: 1
SampleSet: Soft
StackLeniency: 0.7
Mode: 0
LetterboxInBreaks: 0
WidescreenStoryboard: 1

[Editor]
Bookmarks: 1053,2053,14053,18053,30053,34053,37553
DistanceSpacing: 1
BeatDivisor: 4
GridSize: 4
TimelineZoom: 1.8

[Metadata]
Title:Equilibrium - Music Box Version -
TitleUnicode:Equilibrium - Music Box Version -
Artist:Lemon Hakurei
ArtistUnicode:白丽柠檬
Creator:Lan wings
Version:Hard
Source:FINAL FANTASY XIV: Heavensward
Tags:FFXIV FF14 女神 Sophia ソフィア 平衡 八音盒 祖堅正慶 Masayoshi Soken SQUARE ENIX Ayumi Murata 村田あゆみ Bilibili Douga THE FAR EDGE OF FATE: FINAL FANTASY XIV Original Soundtrack
BeatmapID:1462546
BeatmapSetID:691101

[Difficulty]
HPDrainRate:5
CircleSize:4
OverallDifficulty:6
ApproachRate:7
SliderMultiplier:1.6
SliderTickRate:1

[Events]
//Background and Video events
0,0,"bg.jpg",0,0
//Break Periods
//Storyboard Layer 0 (Background)
//Storyboard Layer 1 (Fail)
//Storyboard Layer 2 (Pass)
//Storyboard Layer 3 (Foreground)
//Storyboard Sound Samples

[TimingPoints]
2053,500,4,2,1,20,1,0

[Colours]
Combo1 : 176,255,255
Combo2 : 255,128,128
Combo3 : 255,255,128
Combo4 : 192,192,192

[HitObjects]
339,192,1053,6,0,P|255:263|172:192,1,240,2|0,0:0|0:0,0:0:0:0:
112,112,2053,6,0,P|106:151|79:180,1,80,2|0,3:2|0:0,0:0:0:0:
32,112,2553,2,0,P|37:72|64:43,1,80,0|0,0:0|0:0,0:0:0:0:
120,117,3053,2,0,B|124:160|88:184|88:184|68:228|90:262,1,160,6|0,0:0|0:0,0:0:0:0:
156,304,3803,1,2,0:0:0:0:
236,320,4053,6,0,P|275:315|303:287,1,80,2|0,0:0|0:0,0:0:0:0:
308,208,4553,2,0,P|268:212|240:240,1,80,2|0,0:0|0:0,0:0:0:0:
380,260,5053,1,4,0:0:0:0:
380,260,5553,1,2,0:0:0:0:
380,260,6053,6,0,P|417:272|456:264,1,80,2|0,3:2|0:0,0:0:0:0:
420,192,6553,2,0,P|382:179|344:188,1,80,0|0,0:0|0:0,0:0:0:0:
274,227,7053,2,0,P|201:244|156:184,1,160,6|0,0:0|0:0,0:0:0:0:
180,108,7803,1,2,0:0:0:0:
104,128,8053,6,0,P|64:132|28:116,1,80,2|0,3:2|0:0,0:0:0:0:
4,40,8553,2,0,P|43:35|79:51,1,80,0|0,0:3|0:0,0:0:0:0:
76,208,9053,1,4,0:0:0:0:
76,208,9553,1,2,0:0:0:0:
76,208,10053,6,0,P|72:247|52:281,1,80,2|0,3:2|0:0,0:0:0:0:
144,276,10553,2,0,P|147:315|167:349,1,80,0|0,0:0|0:0,0:0:0:0:
248,364,11053,1,6,0:0:0:0:
248,364,11303,1,0,0:0:0:0:
320,332,11553,1,2,0:0:0:0:
320,332,11803,1,0,0:0:0:0:
352,259,12053,6,0,P|356:220|342:182,1,80,2|0,0:0|0:0,0:0:0:0:
404,84,12553,2,0,P|400:123|413:161,1,80,2|0,0:0|0:0,0:0:0:0:
472,204,13053,1,4,0:0:0:0:
296,120,13553,1,2,0:0:0:0:
112,180,14053,6,0,P|72:188|16:180,1,80,2|0,3:2|0:0,0:0:0:0:
80,248,14553,2,0,P|49:274|-3:296,1,80,2|0,0:0|0:0,0:0:0:0:
168,272,15053,2,0,P|198:245|251:224,1,80,6|0,0:0|0:0,0:0:0:0:
252,304,15553,2,0,P|292:296|348:304,1,80,2|0,0:0|0:0,0:0:0:0:
456,216,16053,6,0,P|416:224|360:216,1,80,2|0,3:2|0:0,0:0:0:0:
420,132,16553,2,0,P|460:124|516:132,1,80,2|0,0:0|0:0,0:0:0:0:
304,176,17053,1,4,0:2:0:0:
240,40,17553,1,2,0:0:0:0:
143,180,18053,6,0,P|106:193|67:190,1,80,2|0,3:2|0:0,0:0:0:0:
100,104,18553,2,0,P|137:90|176:93,1,80,0|0,0:0|0:0,0:0:0:0:
143,180,19053,2,0,B|104:202|66:189|66:189|96:220|86:268,1,160,6|0,0:0|0:0,0:0:0:0:
32,344,19803,1,2,0:0:0:0:
168,272,20053,6,0,P|209:262|252:276,1,80,2|0,0:0|0:0,0:0:0:0:
284,344,20553,2,0,P|242:353|200:340,1,80,2|0,0:0|0:0,0:0:0:0:
352,272,21053,1,4,0:0:0:0:
352,272,21553,1,2,0:0:0:0:
352,272,22053,6,0,P|377:302|388:340,1,80,2|0,3:2|0:0,0:0:0:0:
356,192,22553,2,0,P|393:205|422:232,1,80,0|0,0:0|0:0,0:0:0:0:
408,120,23053,2,0,P|409:45|339:21,1,160,6|0,0:0|0:0,0:0:0:0:
264,48,23803,1,2,0:0:0:0:
228,120,24053,6,0,P|228:160|248:200,1,80,2|0,3:2|0:0,0:0:0:0:
328,220,24553,2,0,P|328:180|308:140,1,80
140,136,25053,1,4,0:0:0:0:
264,48,25553,1,2,0:0:0:0:
139,136,26053,6,0,P|101:144|61:136,1,80,2|0,3:2|0:0,0:0:0:0:
0,224,26553,2,0,P|38:215|78:223,1,80,0|0,0:0|0:0,0:0:0:0:
140,272,27053,1,6,0:0:0:0:
140,272,27303,1,0,0:0:0:0:
208,232,27553,1,2,0:0:0:0:
208,232,27803,1,0,0:0:0:0:
280,268,28053,6,0,P|319:272|357:258,1,80,2|0,0:0|0:0,0:0:0:0:
388,184,28553,2,0,P|427:180|465:194,1,80,2|0,0:0|0:0,0:0:0:0:
512,260,29053,1,4,0:0:0:0:
408,96,29553,1,2,0:0:0:0:
232,172,30053,6,0,P|192:180|136:172,1,80,2|0,0:0|0:0,0:0:0:0:
8,120,30553,2,0,P|48:128|104:120,1,80,2|0,0:0|0:0,0:0:0:0:
198,62,31053,2,0,P|185:100|150:145,1,80,6|0,0:0|0:0,0:0:0:0:
41,229,31553,2,0,P|68:199|89:146,1,80,2|0,0:0|0:0,0:0:0:0:
86,36,32053,2,0,P|113:66|134:119,1,80,2|0,0:0|0:0,0:0:0:0:
153,255,32553,2,0,P|140:217|105:172,1,80,2|0,0:0|0:0,0:0:0:0:
8,120,33053,1,4,0:2:0:0:
48,340,33553,1,2,0:0:0:0:
244,232,34053,6,0,P|283:228|322:236,1,80,2|0,0:0|0:0,0:0:0:0:
468,272,34553,2,0,P|428:268|389:276,1,80,2|0,0:0|0:0,0:0:0:0:
336,364,35053,2,0,P|332:324|340:285,1,80,6|0,0:0|0:0,0:0:0:0:
376,140,35553,2,0,P|372:179|380:218,1,80,2|0,0:0|0:0,0:0:0:0:
444,348,36053,5,2,0:0:0:0:
444,348,36428,1,0,3:0:0:0:
444,348,36803,1,2,0:0:0:0:
444,348,37178,1,2,0:0:0:0:
444,348,37553,1,6,0:0:0:0:
