osu file format v14

[General]
AudioFilename: ygzml.mp3
AudioLeadIn: 1700
PreviewTime: 331
Countdown: 0
SampleSet: Normal
StackLeniency: 0.6
Mode: 0
LetterboxInBreaks: 0
WidescreenStoryboard: 0

[Editor]
DistanceSpacing: 1.1
BeatDivisor: 4
GridSize: 4
TimelineZoom: 1

[Metadata]
Title:Yao Gun Zen Me Le!!
TitleUnicode:搖滾怎麼了!!
Artist:Leehom Wang
ArtistUnicode:王力宏
Creator:liangv587
Version:Hard
Source:
Tags:心跳 rock and so what 摇滚怎么了
BeatmapID:336374
BeatmapSetID:133635

[Difficulty]
HPDrainRate:6
CircleSize:4
OverallDifficulty:6
ApproachRate:7
SliderMultiplier:1.4
SliderTickRate:1

[Events]
//Background and Video events
0,0,"bg2.jpg",0,0
//Break Periods
//Storyboard Layer 0 (Background)
//Storyboard Layer 1 (Fail)
//Storyboard Layer 2 (Pass)
//Storyboard Layer 3 (Foreground)
//Storyboard Sound Samples

[TimingPoints]
331,352.941176470588,4,1,1,70,1,0
1742,352.941176470588,4,1,1,70,1,0
4477,-100,4,1,2,60,0,0
7300,-100,4,1,1,70,0,0
10124,-100,4,1,2,60,0,0
12947,-100,4,1,1,70,0,0
15771,-100,4,1,2,60,0,0
18594,-100,4,1,1,70,0,0
21418,-100,4,1,2,60,0,0
22830,-100,4,1,1,70,0,0
24330,375,4,1,1,70,1,0
24418,-125,4,3,1,70,0,0
25080,352.941176470588,4,3,1,70,1,0
25080,-125,4,3,1,70,0,0
25785,342.857142857143,4,3,1,70,1,0
25785,-125,4,3,1,70,0,0
26470,333.333333333333,4,3,1,70,1,0
26470,-125,4,3,1,70,0,0
27153,352.941176470588,4,1,1,70,1,0
27153,-125,4,3,1,90,0,0
28476,-125,4,3,1,70,0,0
28829,-125,4,3,1,60,0,0
29978,352.941176470588,4,1,1,70,1,0
29978,-83.3333333333333,4,1,1,70,0,1
39860,-100,4,1,1,70,0,0
40125,-125,4,1,2,60,0,0
40830,-100,4,1,1,70,0,0
41272,-100,4,1,2,60,0,1
41536,-83.3333333333333,4,1,1,70,0,1
52566,-100,4,1,1,70,0,0
63860,328.767123287671,4,1,2,60,1,0
63860,-133.333333333333,4,1,2,60,0,0
64188,352.941176470588,4,1,1,70,1,0
65246,352.941176470588,4,1,1,70,1,0
66657,361.44578313253,4,1,2,60,1,0
67831,-100,4,1,2,40,0,0
68102,352.941176470588,4,1,2,40,1,0
69072,-100,4,1,2,60,0,0
69513,352.941176470588,4,1,1,70,1,0
70924,337.078651685393,4,1,1,70,1,0
71598,357.142857142857,4,1,1,70,1,0
72312,352.941176470588,4,1,1,70,1,0
73635,-100,4,2,1,70,0,0
75148,352.941176470588,4,1,1,70,1,0
78676,375,4,1,1,70,1,0
79426,333.333333333333,4,1,1,70,1,0
80092,352.941176470588,4,1,1,70,1,0
80797,352.941176470588,4,1,1,70,1,1
80797,-83.3333333333333,4,1,1,70,0,1
90679,-100,4,1,1,60,0,0
90944,-125,4,1,2,60,0,0
92091,-83.3333333333333,4,1,1,70,0,1
100561,348.837209302326,4,1,1,70,1,1
100561,-83.3333333333333,4,1,1,70,0,1
102305,359.281437125748,4,1,1,70,1,0
102305,-83.3333333333333,4,1,1,70,0,1
103382,352.941176470588,4,1,1,70,1,0
103382,-100,4,1,1,70,0,0
106117,-100,4,1,2,60,0,0
108940,-100,4,1,1,70,0,0
111499,397.350993377483,4,1,1,70,1,0
111896,338.983050847458,4,1,2,60,1,0
112573,355.029585798817,4,1,2,60,1,0
112928,372.670807453416,4,1,2,60,1,0
113300,344.827586206897,4,1,1,70,1,0
114679,352.941176470588,4,1,1,70,1,0
116090,350.877192982456,4,1,1,70,1,0
117493,357.142857142857,4,1,2,70,1,0
118921,352.941176470588,4,1,2,70,1,0
119626,344.827586206897,4,1,2,70,1,0
120315,352.941176470588,4,1,1,70,1,0
125609,371.517027863777,4,1,1,70,1,0
125980,375,4,1,1,70,1,0
125980,-125,4,3,1,70,0,0
126730,352.941176470588,4,3,1,70,1,0
126730,-125,4,3,1,70,0,0
127435,342.857142857143,4,3,1,70,1,0
127435,-125,4,3,1,70,0,0
128120,333.333333333333,4,3,1,70,1,0
128120,-125,4,3,1,70,0,0
128786,352.941176470588,4,3,1,70,1,0
128786,-125,4,3,1,90,0,0
130109,-125,4,3,1,70,0,0
130462,-125,4,3,1,60,0,0
131168,-100,4,3,1,60,0,0
131609,352.941176470588,4,1,1,70,1,0
131609,-83.3333333333333,4,1,1,70,0,1
141491,-100,4,1,2,60,0,0
142903,-83.3333333333333,4,1,1,70,0,1
151373,359.281437125748,4,1,1,70,1,0
151373,-83.3333333333333,4,1,1,70,0,1
152810,-125,4,3,1,100,0,0
152989,-100,4,3,1,20,0,0

[Colours]
Combo1 : 128,32,223
Combo2 : 255,128,64
Combo3 : 128,128,64
Combo4 : 223,56,32

[HitObjects]
219,67,331,6,0,P|275:106|344:117,1,140,0|8,0:0|0:0,0:0:0:0:
419,100,860,1,8,0:3:0:0:
399,174,1036,2,0,P|392:243|410:310,1,140,0|8,0:0|0:3,0:0:0:0:
261,351,1742,2,0,P|191:351|124:330,1,140,4|8,0:2|0:0,0:0:0:0:
43,296,2271,1,0,0:0:0:0:
43,216,2447,1,0,0:0:0:0:
120,191,2624,1,0,0:0:0:0:
167,256,2800,1,8,0:0:0:0:
60,136,3153,6,0,P|124:109|193:103,1,140,0|8,0:0|0:0,0:0:0:0:
264,64,3683,1,0,0:0:0:0:
323,119,3859,1,0,0:0:0:0:
287,192,4036,1,0,0:0:0:0:
207,181,4212,1,8,0:0:0:0:
366,187,4565,6,0,P|369:226|366:261,2,70,0|0|8,0:0|0:0|0:0,0:0:0:0:
391,54,5271,2,0,P|433:54|467:57,2,70,0|0|8,0:0|0:0|0:0,0:0:0:0:
193,103,5977,1,0,0:0:0:0:
207,181,6153,1,0,0:0:0:0:
287,192,6330,2,0,P|289:240|287:271,1,70,8|0,0:0|0:0,0:0:0:0:
366,256,6683,2,0,P|360:298|353:326,2,70,0|0|8,0:0|0:0|0:0,0:0:0:0:
366,178,7212,1,0,0:0:0:0:
332,108,7389,6,0,P|268:99|189:104,1,140,0|8,0:0|0:0,0:0:0:0:
135,155,7918,1,0,0:0:0:0:
143,231,8094,2,0,P|116:252|82:270,2,70,0|0|8,0:0|0:0|0:0,0:0:0:0:
207,181,8624,1,0,0:0:0:0:
214,257,8800,2,0,P|168:303|101:341,1,140,0|8,0:0|0:0,0:0:0:0:
28,322,9330,1,0,0:0:0:0:
84,268,9506,2,0,P|82:227|71:185,1,70,0|0,0:0|0:0,0:0:0:0:
34,133,9859,1,8,0:0:0:0:
144,26,10212,6,0,P|215:17|293:19,1,140,0|8,0:0|0:0,0:0:0:0:
358,36,10741,1,0,0:0:0:0:
305,92,10918,2,0,P|305:171|314:232,1,140,0|8,0:0|0:0,0:0:0:0:
429,349,11536,1,0,0:0:0:0:
439,347,11624,2,0,P|444:313|445:277,1,70,0|0,0:0|0:0,0:0:0:0:
396,216,11977,2,0,P|402:182|406:146,2,70,8|0|0,0:0|0:0|0:0,0:0:0:0:
368,288,12506,1,8,0:3:0:0:
368,288,12683,1,8,0:0:0:0:
237,195,13036,6,0,P|167:187|99:200,1,140,0|8,0:0|0:0,0:0:0:0:
41,254,13565,1,0,0:0:0:0:
90,314,13741,2,0,P|121:338|149:356,1,70,0|0,0:0|0:0,0:0:0:0:
202,300,14094,2,0,P|171:276|143:258,1,70,8|0,0:0|0:0,0:0:0:0:
99,200,14447,2,0,P|110:131|144:65,1,140,0|8,0:0|0:0,0:0:0:0:
214,43,14977,1,0,0:0:0:0:
279,83,15153,1,0,0:0:0:0:
345,49,15330,1,0,0:0:0:0:
409,91,15506,2,0,P|403:124|384:167,1,70,8|0,0:0|0:0,0:0:0:0:
313,155,15859,6,0,P|286:220|276:291,1,140,0|8,0:0|0:0,0:0:0:0:
287,365,16389,1,0,0:0:0:0:
364,355,16565,2,0,P|401:349|438:332,2,70,0|0|8,0:0|0:0|0:0,0:0:0:0:
202,300,17271,2,0,P|201:336|204:373,2,70,0|0|8,0:0|0:0|0:0,0:0:0:0:
205,222,17800,1,0,0:0:0:0:
136,258,17977,2,0,P|102:266|62:268,1,70,0|0,0:0|0:0,0:0:0:0:
38,197,18330,2,0,P|71:188|112:187,1,70,8|0,0:0|0:0,0:0:0:0:
173,147,18683,6,0,P|165:73|190:7,1,140,4|8,0:0|0:0,0:0:0:0:
264,12,19212,1,0,0:0:0:0:
291,83,19389,2,0,P|269:114|232:146,2,70,0|0|8,0:0|0:0|0:0,0:0:0:0:
344,27,19918,1,0,0:0:0:0:
371,98,20094,2,0,P|330:158|273:209,1,140,0|8,0:0|0:0,0:0:0:0:
205,222,20624,1,0,0:0:0:0:
159,283,20800,2,0,P|159:317|174:349,1,70,0|0,0:0|0:0,0:0:0:0:
249,363,21153,2,0,P|248:328|233:296,1,70,8|0,0:0|0:0,0:0:0:0:
310,274,21506,5,0,0:0:0:0:
385,289,21683,1,0,0:0:0:0:
461,278,21859,1,8,0:0:0:0:
461,123,22212,1,0,0:0:0:0:
385,112,22389,1,0,0:0:0:0:
310,127,22565,1,8,0:0:0:0:
310,281,22918,5,0,0:0:0:0:
385,296,23094,1,0,0:0:0:0:
461,285,23271,2,0,P|467:244|464:201,1,70,8|0,0:0|0:0,0:0:0:0:
460,138,23624,1,0,0:0:0:0:
384,127,23800,2,0,P|380:163|382:198,2,70,8|8|0,0:3|0:0|0:0,0:0:0:0:
394,50,24330,5,4,0:0:0:0:
394,50,24517,2,0,P|337:53|265:39,1,112,0|0,0:0|0:0,0:0:0:0:
211,28,25080,2,0,P|193:84|193:137,1,112
205,209,25609,1,0,2:0:0:0:
262,164,25785,1,0,0:0:0:0:
262,164,25956,2,0,P|280:220|280:273,1,112
252,340,26470,2,0,P|195:337|123:351,1,112
71,369,26970,1,0,2:0:0:0:
23,314,27153,6,0,P|9:269|12:206,1,112
85,207,27682,1,0,2:0:0:0:
158,207,27858,2,0,P|162:151|147:97,1,112,0|0,0:0|0:0,0:0:0:0:
100,41,28388,1,0,2:0:0:0:
100,41,28564,1,8,0:2:0:0:
245,28,28917,6,0,P|250:59|249:98,1,56,0|0,3:0|2:0,0:0:0:0:
252,156,29270,1,8,3:0:0:0:
309,292,29623,2,0,P|303:257|304:218,1,70,0|0,1:0|2:0,0:0:0:0:
369,172,29976,5,4,0:0:0:0:
447,201,30154,1,0,0:0:0:0:
504,139,30330,2,0,P|504:87|499:42,1,83.9999974365235,8|0,0:0|0:0,0:0:0:0:
421,26,30683,2,0,P|369:25|324:31,2,83.9999974365235,0|0|8,0:0|0:0|0:0,0:0:0:0:
279,117,31389,6,0,P|237:120|195:119,1,83.9999974365235,0|0,0:0|0:0,0:0:0:0:
120,34,31742,2,0,P|120:85|115:131,1,83.9999974365235,8|0,0:0|0:0,0:0:0:0:
29,199,32095,2,0,P|70:195|112:196,1,83.9999974365235,0|0,0:0|0:0,0:0:0:0:
188,282,32448,2,0,P|187:230|193:185,1,83.9999974365235,8|0,0:0|0:0,0:0:0:0:
273,294,32801,5,0,0:0:0:0:
355,277,32978,1,0,0:0:0:0:
438,286,33154,2,0,P|448:330|449:379,1,83.9999974365235,8|0,0:0|0:0,0:0:0:0:
329,355,33507,1,0,0:0:0:0:
273,294,33683,1,0,0:0:0:0:
299,214,33860,2,0,P|339:197|381:188,1,83.9999974365235,8|0,0:0|0:0,0:0:0:0:
270,135,34213,6,0,P|253:95|244:53,1,83.9999974365235,0|0,0:0|0:0,0:0:0:0:
192,164,34566,2,0,P|152:181|110:190,1,83.9999974365235,8|0,0:0|0:0,0:0:0:0:
221,238,34919,2,0,P|238:278|247:320,1,83.9999974365235,0|0,0:0|0:0,0:0:0:0:
299,214,35272,2,0,P|339:197|381:188,1,83.9999974365235,8|0,0:0|0:0,0:0:0:0:
436,78,35625,6,0,P|462:158|449:245,1,167.999994873047,0|8,0:0|0:0,0:0:0:0:
394,302,36154,1,0,0:0:0:0:
310,299,36330,2,0,L|273:380,1,83.9999974365235,0|0,0:0|0:0,0:0:0:0:
235,260,36683,2,0,L|198:341,1,83.9999974365235,8|0,0:0|0:0,0:0:0:0:
139,257,37036,6,0,P|93:251|50:227,1,83.9999974365235,0|0,0:0|0:0,0:0:0:0:
15,124,37389,2,0,P|61:130|104:154,1,83.9999974365235,8|0,0:0|0:0,0:0:0:0:
210,166,37742,2,0,P|216:120|240:77,1,83.9999974365235,0|0,0:0|0:0,0:0:0:0:
343,42,38095,2,0,P|337:88|313:131,1,83.9999974365235,8|0,0:0|0:0,0:0:0:0:
213,173,38448,5,0,0:0:0:0:
288,210,38625,1,0,0:0:0:0:
348,267,38801,2,0,P|357:310|354:350,1,83.9999974365235,8|0,0:0|0:0,0:0:0:0:
426,239,39154,1,0,0:0:0:0:
410,156,39330,1,0,0:0:0:0:
421,72,39507,2,0,P|449:38|483:17,1,83.9999974365235,8|0,0:0|0:0,0:0:0:0:
343,42,39860,5,4,0:2:0:0:
216,42,40213,6,0,P|182:48|145:47,1,56,8|0,0:0|0:0,0:0:0:0:
87,44,40566,1,8,0:0:0:0:
134,219,40919,2,0,P|140:253|136:287,1,70,8|0,0:0|0:0,0:0:0:0:
84,362,41272,5,12,0:0:0:0:
301,346,41625,1,8,0:0:0:0:
460,196,41977,1,0,0:0:0:0:
368,210,42154,1,0,0:0:0:0:
277,226,42330,1,8,0:0:0:0:
74,172,42683,6,0,L|32:93,1,83.9999974365235,0|0,0:0|0:0,0:0:0:0:
148,67,43036,2,0,L|190:146,1,83.9999974365235,8|0,0:0|0:0,0:0:0:0:
300,106,43389,2,0,L|258:27,1,83.9999974365235,0|0,0:0|0:0,0:0:0:0:
374,1,43742,2,0,L|416:80,1,83.9999974365235,8|0,0:0|0:0,0:0:0:0:
387,189,44095,6,0,P|348:263|280:311,1,167.999994873047,0|8,0:0|0:0,0:0:0:0:
74,172,44801,1,0,0:0:0:0:
166,173,44977,1,0,0:0:0:0:
203,257,45154,2,0,P|206:292|199:345,1,83.9999974365235,8|0,0:0|0:0,0:0:0:0:
46,337,45507,6,0,P|35:295|35:253,1,83.9999974365235,0|0,0:0|0:0,0:0:0:0:
105,112,45860,2,0,P|116:154|116:196,1,83.9999974365235,8|0,0:0|0:0,0:0:0:0:
203,257,46213,2,0,P|244:256|285:245,1,83.9999974365235,0|0,0:0|0:0,0:0:0:0:
405,139,46566,2,0,P|363:139|322:150,1,83.9999974365235,8|0,0:0|0:0,0:0:0:0:
372,302,46919,5,0,0:0:0:0:
485,115,47272,1,8,0:0:0:0:
290,16,47625,1,0,0:0:0:0:
216,71,47801,1,0,0:0:0:0:
231,161,47977,2,0,P|250:199|277:232,1,83.9999974365235,8|0,0:0|0:0,0:0:0:0:
372,302,48330,6,0,B|303:310|303:310|271:314|254:345,1,125.999996154785,0|0,0:0|0:0,0:0:0:0:
237,368,48683,2,0,P|175:363|120:327,1,125.999996154785,8|0,0:0|0:0,0:0:0:0:
110,297,49036,2,0,B|118:256|118:256|142:226|142:226|155:172,1,125.999996154785,0|0,0:0|0:0,0:0:0:0:
118,179,49389,2,0,P|57:168|10:121,1,125.999996154785,8|0,0:0|0:0,0:0:0:0:
12,90,49742,6,0,P|26:48|50:8,2,83.9999974365235,0|0|8,0:0|0:0|0:0,0:0:0:0:
103,74,50272,1,0,0:0:0:0:
227,58,50448,2,0,P|269:72|309:96,2,83.9999974365235,0|0|8,0:0|0:0|0:0,0:0:0:0:
251,147,50977,1,0,0:0:0:0:
251,147,51154,1,0,0:0:0:0:
455,208,51507,6,0,P|388:257|306:268,1,167.999994873047,8|0,0:0|0:0,0:0:0:0:
231,229,52036,1,0,0:0:0:0:
220,314,52213,2,0,L|228:362,3,41.9999987182618,8|8|8|8,0:0|0:0|0:0|0:0,0:0:0:0:
220,314,52566,6,0,P|149:308|75:329,1,140,4|8,0:0|0:0,0:0:0:0:
17,365,53095,1,0,0:0:0:0:
17,287,53272,2,0,P|15:255|5:207,2,70,0|0|8,0:0|0:0|0:0,0:0:0:0:
161,227,53977,2,0,P|195:225|233:229,2,70,0|0|8,0:0|0:0|0:0,0:0:0:0:
86,245,54507,1,0,0:0:0:0:
69,169,54683,2,0,P|63:131|62:95,1,70,0|0,0:0|0:0,0:0:0:0:
66,22,55036,1,8,0:0:0:0:
220,19,55389,6,0,P|201:88|202:157,1,140,0|8,0:0|0:0,0:0:0:0:
230,228,55919,1,0,0:0:0:0:
297,265,56095,2,0,P|332:253|363:234,1,70,0|0,0:0|0:0,0:0:0:0:
416,183,56448,1,8,0:0:0:0:
318,63,56801,2,0,P|309:96|312:135,1,70,0|0,0:0|0:0,0:0:0:0:
382,103,57154,2,0,P|451:105|498:160,1,140,8|0,0:0|0:0,0:0:0:0:
478,230,57683,1,8,0:0:0:0:
425,286,57860,1,8,0:0:0:0:
285,351,58213,6,0,P|254:337|219:309,1,70,0|0,0:0|0:0,0:0:0:0:
180,378,58566,2,0,P|155:350|144:314,1,70,8|0,0:0|0:0,0:0:0:0:
73,348,58919,2,0,P|70:310|81:272,2,70,0|0|8,0:0|0:0|0:0,0:0:0:0:
149,213,59625,2,0,B|163:150|128:118|128:118|111:118|93:136,1,140,0|8,0:0|0:0,0:0:0:0:
56,200,60154,1,0,0:0:0:0:
87,270,60330,2,0,P|114:291|154:298,1,70,0|0,0:0|0:0,0:0:0:0:
215,259,60683,1,8,0:0:0:0:
369,179,61036,6,0,P|300:188|230:183,1,140,0|8,0:0|0:0,0:0:0:0:
170,134,61566,1,0,0:0:0:0:
223,78,61742,2,0,P|260:72|305:74,1,70,0|0,0:0|0:0,0:0:0:0:
365,98,62095,1,8,0:0:0:0:
424,239,62448,1,0,0:0:0:0:
348,257,62625,1,0,0:0:0:0:
272,244,62801,2,0,B|241:258|214:292|236:322|183:355,2,140,8|0|8,0:0|0:0|0:0,0:0:0:0:
307,322,63683,1,0,0:0:0:0:
307,322,63772,1,0,0:0:0:0:
307,322,63860,6,0,P|350:357|412:367,1,105.000004005432,4|8,0:0|0:0,0:0:0:0:
477,357,64364,5,0,0:0:0:0:
495,282,64540,2,0,P|501:246|497:209,1,70,0|0,0:0|0:0,0:0:0:0:
424,239,64893,2,0,P|397:216|380:185,1,70,8|0,0:0|0:0,0:0:0:0:
451,155,65246,2,0,B|475:120|472:78|472:78|435:80|401:57,1,140,0|8,0:0|0:0,0:0:0:0:
350,23,65775,1,0,0:0:0:0:
341,99,65951,2,0,P|309:110|267:107,1,70,0|0,0:0|0:0,0:0:0:0:
197,97,66304,1,8,0:0:0:0:
43,85,66657,6,0,P|108:41|168:28,1,140,0|8,0:0|0:0,0:0:0:0:
245,36,67199,1,0,0:0:0:0:
273,108,67379,2,0,P|230:168|169:170,1,140,0|8,0:0|0:0,0:0:0:0:
48,149,68012,1,0,0:0:0:0:
30,155,68102,2,0,P|25:197|29:234,1,70,0|0,0:0|0:0,0:0:0:0:
27,301,68454,1,8,0:0:0:0:
101,325,68631,1,0,0:0:0:0:
146,262,68807,1,0,0:0:0:0:
101,200,69160,5,8,0:0:0:0:
178,333,69513,6,0,P|253:344|318:333,1,140,4|8,0:2|0:0,0:0:0:0:
377,286,70042,1,0,0:0:0:0:
338,219,70218,2,0,L|391:173,1,70,0|0,0:0|0:0,0:0:0:0:
358,103,70571,2,0,L|304:147,1,70,8|0,0:0|0:0,0:0:0:0:
271,76,70924,2,0,B|339:22|339:22|403:33,1,140,0|8,0:0|0:0,0:0:0:0:
467,46,71429,1,0,0:0:0:0:
440,118,71598,2,0,L|475:186,2,70,0|0|8,0:0|0:0|0:0,0:0:0:0:
338,219,72312,6,0,P|310:240|271:251,2,70,0|0|8,0:0|0:0|0:0,0:0:0:0:
303,147,72841,1,0,0:0:0:0:
226,139,73017,2,0,P|187:136|152:118,2,70,0|0|8,0:0|0:0|0:0,0:0:0:0:
271,76,73547,1,0,0:0:0:0:
201,42,73723,2,0,P|166:33|128:38,1,70,2|0,0:0|0:0,0:0:0:0:
114,174,74076,2,0,P|142:154|159:122,1,70,2|0,0:0|0:0,0:0:0:0:
52,80,74429,2,0,L|82:104,4,35,2|0|2|0|2,0:0|0:0|0:0|0:0|0:0,0:0:0:0:
29,232,75148,6,0,P|54:257|93:271,1,70,4|0,0:0|0:0,0:0:0:0:
166,245,75500,2,0,P|216:258|251:296,1,105,8|0,0:0|0:0,0:0:0:0:
269,335,75853,2,0,L|305:247,1,70,0|0,0:0|0:0,0:0:0:0:
389,265,76206,2,0,L|366:193,1,70,8|0,0:0|0:0,0:0:0:0:
398,119,76559,2,0,P|363:116|327:123,1,70,0|0,0:0|0:0,0:0:0:0:
273,186,76912,2,0,P|223:172|188:134,1,105,8|0,0:0|0:0,0:0:0:0:
170,96,77265,2,0,L|134:184,1,70,0|0,0:0|0:0,0:0:0:0:
79,106,77618,2,0,L|57:39,1,70,8|0,0:0|0:0,0:0:0:0:
140,23,77971,6,0,P|172:17|211:27,1,70,0|0,0:0|0:0,0:0:0:0:
285,57,78324,2,0,P|295:92|316:120,1,70,8|0,0:0|0:0,0:0:0:0:
370,181,78676,2,0,P|371:216|366:254,1,70,0|0,0:0|0:0,0:0:0:0:
400,327,79051,2,0,P|434:334|468:334,2,70,8|0|0,0:0|0:0|0:0,0:0:0:0:
315,322,79592,2,0,P|284:335|252:359,2,70,8|0|0,0:3|0:0|0:0,0:0:0:0:
273,248,80092,2,0,P|264:214|267:175,1,70,8|0,0:3|0:0,0:0:0:0:
184,235,80444,2,0,P|146:240|109:238,1,70,8|0,0:3|0:0,0:0:0:0:
31,224,80797,5,4,0:0:0:0:
171,131,81149,1,8,0:0:0:0:
215,309,81502,2,0,P|177:313|131:314,1,83.9999974365235,0|0,0:0|0:0,0:0:0:0:
47,308,81855,1,8,0:0:0:0:
33,140,82208,6,0,P|65:113|106:93,1,83.9999974365235,0|0,0:0|0:0,0:0:0:0:
254,126,82561,2,0,P|212:123|170:130,1,83.9999974365235,8|0,0:0|0:0,0:0:0:0:
116,237,82914,2,0,P|152:217|198:203,1,83.9999974365235,0|0,0:0|0:0,0:0:0:0:
328,267,83267,2,0,P|286:260|244:264,1,83.9999974365235,8|0,0:0|0:0,0:0:0:0:
172,362,83620,5,0,0:0:0:0:
254,374,83797,1,0,0:0:0:0:
332,344,83973,2,0,P|376:348|422:361,1,83.9999974365235,8|0,0:0|0:0,0:0:0:0:
416,268,84326,2,0,P|419:227|431:186,2,83.9999974365235,0|0|8,0:0|0:0|0:0,0:0:0:0:
246,207,85032,6,0,P|243:158|258:116,1,83.9999974365235,0|0,0:0|0:0,0:0:0:0:
353,18,85385,2,0,P|356:67|341:109,1,83.9999974365235,8|0,0:0|0:0,0:0:0:0:
262,49,85738,2,0,L|179:57,1,83.9999974365235,0|0,0:0|0:0,0:0:0:0:
337,174,86091,2,0,L|420:166,1,83.9999974365235,8|0,0:0|0:0,0:0:0:0:
327,267,86444,6,0,P|252:289|166:266,1,167.999994873047,0|8,0:0|0:0,0:0:0:0:
104,210,86973,1,0,0:0:0:0:
41,265,87149,2,0,L|17:348,1,83.9999974365235,0|0,0:0|0:0,0:0:0:0:
145,348,87502,2,0,L|169:261,1,83.9999974365235,8|0,0:0|0:0,0:0:0:0:
169,133,87855,6,0,L|271:123,1,83.9999974365235,0|0,0:0|0:0,0:0:0:0:
337,174,88208,2,0,L|351:269,1,83.9999974365235,8|0,0:0|0:0,0:0:0:0:
414,114,88561,2,0,L|401:30,1,83.9999974365235,0|0,0:0|0:0,0:0:0:0:
304,21,88914,2,0,L|220:29,1,83.9999974365235,8|0,0:0|0:0,0:0:0:0:
105,40,89267,5,0,0:0:0:0:
41,97,89444,1,0,0:0:0:0:
51,182,89620,2,0,P|50:231|36:274,1,83.9999974365235,8|0,0:0|0:0,0:0:0:0:
167,266,89973,1,0,0:0:0:0:
248,247,90149,1,0,0:0:0:0:
238,163,90326,2,0,P|239:114|253:71,1,83.9999974365235,8|0,0:0|0:0,0:0:0:0:
337,174,90679,6,0,P|342:217|356:252,1,70,0|0,0:0|0:0,0:0:0:0:
431,254,91032,6,0,P|445:232|456:200,1,56,8|0,0:0|0:0,0:0:0:0:
473,133,91385,1,8,0:0:0:0:
425,76,91561,1,0,0:0:0:0:
356,102,91738,1,8,0:0:0:0:
395,327,92091,6,0,P|318:363|234:365,1,167.999994873047,12|8,0:0|0:0,0:0:0:0:
212,284,92620,1,0,0:0:0:0:
120,273,92797,2,0,P|128:313|125:355,1,83.9999974365235
33,319,93149,1,8,0:0:0:0:
21,121,93502,6,0,P|33:74|56:35,1,83.9999974365235,0|0,0:0|0:0,0:0:0:0:
233,114,93855,2,0,P|221:161|198:200,1,83.9999974365235,8|0,0:0|0:0,0:0:0:0:
125,14,94208,2,0,P|172:26|211:49,1,83.9999974365235,0|0,0:0|0:0,0:0:0:0:
129,225,94561,2,0,P|82:213|43:190,1,83.9999974365235,8|0,0:0|0:0,0:0:0:0:
203,191,94914,6,0,P|243:187|295:193,1,83.9999974365235,0|0,0:0|0:0,0:0:0:0:
377,209,95267,1,8,0:0:0:0:
488,356,95620,1,0,0:0:0:0:
396,346,95796,1,0,0:0:0:0:
304,358,95973,2,0,P|305:312|320:265,1,83.9999974365235,8|0,0:0|0:0,0:0:0:0:
397,179,96326,6,0,P|362:148|323:130,1,83.9999974365235,0|0,0:0|0:0,0:0:0:0:
237,113,96679,2,0,P|196:115|148:131,1,83.9999974365235,8|0,0:0|0:0,0:0:0:0:
47,56,97032,2,0,P|86:43|133:33,1,83.9999974365235,0|0,0:0|0:0,0:0:0:0:
221,27,97385,2,0,P|258:27|308:37,1,83.9999974365235,8|0,0:0|0:0,0:0:0:0:
328,131,97738,6,0,P|312:203|247:271,1,167.999994873047,0|8,0:0|0:0,0:0:0:0:
160,299,98267,1,0,0:0:0:0:
28,237,98444,1,0,0:0:0:0:
118,217,98620,1,0,0:0:0:0:
155,127,98796,2,0,P|113:124|70:133,1,83.9999974365235,8|0,0:0|0:0,0:0:0:0:
28,237,99149,6,0,B|49:270|97:268|97:268|108:289|127:305,1,125.999996154785,0|0,0:0|0:0,0:0:0:0:
160,299,99502,2,0,B|192:299|210:314|210:314|250:302|284:314,1,125.999996154785,8|0,0:0|0:0,0:0:0:0:
309,331,99855,2,0,P|373:350|418:307,1,125.999996154785,0|0,0:0|0:0,0:0:0:0:
398,285,100208,2,0,P|388:224|433:186,1,125.999996154785,8|0,0:0|0:0,0:0:0:0:
467,189,100561,5,0,0:0:0:0:
373,47,100822,1,8,0:0:0:0:
351,47,100909,2,0,L|316:125,1,83.9999974365235,8|4,0:0|0:2,0:0:0:0:
154,73,101345,1,8,0:0:0:0:
161,93,101433,2,0,L|246:84,1,83.9999974365235,8|4,0:0|0:2,0:0:0:0:
285,251,101869,1,8,0:0:0:0:
298,234,101956,2,0,L|247:164,1,83.9999974365235,8|4,0:0|0:2,0:0:0:0:
190,246,102305,6,0,L|145:259,3,41.9999987182618,8|0|0|0,0:0|0:0|0:0|0:0,0:0:0:0:
138,302,102664,2,0,L|96:284,3,41.9999987182618,0|0|0|0,0:0|0:0|0:0|0:0,0:0:0:0:
72,323,103023,2,0,L|51:284,3,41.9999987182618,0|0|0|0,0:0|0:0|0:0|0:0,0:0:0:0:
14,296,103382,6,0,B|28:225|28:225|90:175,1,140,4|8,0:0|0:0,0:0:0:0:
159,176,103911,1,0,0:0:0:0:
190,246,104087,1,0,0:0:0:0:
265,260,104264,1,0,0:0:0:0:
312,319,104440,2,0,L|368:273,1,70,8|0,0:0|0:0,0:0:0:0:
437,331,104793,6,0,B|448:260|448:260|409:190,1,140,0|8,0:0|0:0,0:0:0:0:
348,160,105323,1,0,0:0:0:0:
274,184,105499,1,0,0:0:0:0:
265,260,105676,1,0,0:0:0:0:
216,319,105852,2,0,L|142:304,1,70,8|0,0:0|0:0,0:0:0:0:
72,323,106205,6,0,L|60:363,3,35,0|0|0|0,0:0|0:0|0:0|0:0,0:0:0:0:
72,323,106558,2,0,P|61:281|40:246,1,70,8|0,0:0|0:0,0:0:0:0:
122,234,106911,2,0,P|145:206|161:168,2,70,0|0|8,0:0|0:0|0:0,0:0:0:0:
29,110,107617,1,0,0:0:0:0:
94,69,107793,1,0,0:0:0:0:
168,90,107970,2,0,P|236:101|305:89,1,140,8|0,0:0|0:0,0:0:0:0:
366,42,108499,1,0,0:0:0:0:
436,72,108676,2,0,P|431:109|439:143,1,70,8|0,0:0|0:0,0:0:0:0:
357,158,109029,6,0,P|291:182|221:185,1,140,0|8,0:0|0:0,0:0:0:0:
147,163,109558,1,0,0:0:0:0:
71,174,109734,2,0,P|46:202|30:238,1,70,0|0,0:0|0:0,0:0:0:0:
40,307,110087,1,8,0:0:0:0:
200,267,110440,2,0,P|269:269|338:256,1,140,0|8,0:0|0:0,0:0:0:0:
406,221,110970,1,0,0:0:0:0:
461,276,111146,1,0,0:0:0:0:
427,345,111323,1,0,0:0:0:0:
351,334,111499,1,8,0:0:0:0:
210,359,111896,6,0,B|165:373|123:356|123:356|116:328|135:301,1,140,0|8,0:0|0:0,0:0:0:0:
132,229,112404,1,0,0:0:0:0:
200,267,112573,2,0,P|221:203|219:132,1,140,0|8,0:0|0:0,0:0:0:0:
100,19,113207,1,0,0:0:0:0:
83,26,113300,2,0,P|82:65|90:104,1,70
162,78,113644,1,8,0:0:0:0:
218,131,113817,1,0,0:0:0:0:
295,126,113989,1,0,0:0:0:0:
355,173,114162,2,0,P|360:207|359:242,1,70,8|8,0:3|0:0,0:0:0:0:
452,364,114679,6,0,P|472:316|478:264,1,105,0|0,0:0|0:0,0:0:0:0:
449,238,115031,2,0,P|448:202|442:160,1,70,8|0,0:0|0:0,0:0:0:0:
437,91,115384,2,0,P|402:98|356:94,1,70,0|0,0:0|0:0,0:0:0:0:
295,126,115737,2,0,P|293:169|297:203,1,70,8|0,0:0|0:0,0:0:0:0:
231,281,116090,2,0,P|209:227|204:175,1,105,0|0,0:0|0:0,0:0:0:0:
170,161,116440,2,0,P|170:126|177:90,1,70,8|0,0:0|0:0,0:0:0:0:
109,29,116791,2,0,P|96:68|90:100,1,70,0|0,0:0|0:0,0:0:0:0:
87,173,117142,1,8,0:0:0:0:
155,311,117493,6,0,P|151:345|140:378,2,70,0|0|8,0:0|0:0|0:0,0:0:0:0:
309,301,118207,2,0,P|326:330|335:364,2,70,0|0|8,0:0|0:0|0:0,0:0:0:0:
397,174,118921,1,0,0:0:0:0:
321,189,119097,1,0,0:0:0:0:
263,240,119273,2,0,P|227:246|187:241,1,70,8|0,0:0|0:0,0:0:0:0:
76,170,119626,1,0,0:0:0:0:
151,154,119798,1,0,0:0:0:0:
227,167,119970,2,0,P|255:146|277:117,1,70,8|0,0:0|0:0,0:0:0:0:
172,75,120315,6,0,P|98:82|25:108,1,140,0|8,0:0|0:0,0:0:0:0:
76,170,120844,1,0,0:0:0:0:
37,236,121020,1,0,0:0:0:0:
95,286,121197,1,0,0:0:0:0:
74,360,121373,2,0,P|110:365|153:363,1,70,8|0,0:0|0:0,0:0:0:0:
190,301,121726,2,0,P|203:232|226:166,1,140,0|8,0:0|0:0,0:0:0:0:
307,257,122344,1,0,0:0:0:0:
303,274,122432,2,0,P|301:310|305:346,1,70,0|0,0:0|0:0,0:0:0:0:
377,368,122785,1,8,0:0:0:0:
458,237,123138,5,0,0:0:0:0:
425,167,123315,1,0,0:0:0:0:
353,137,123491,2,0,P|332:108|323:75,1,70,8|0,0:0|2:0,0:0:0:0:
224,32,123844,1,0,0:0:0:0:
164,80,124020,1,0,0:0:0:0:
88,96,124197,2,0,P|53:96|18:86,1,70,8|0,0:0|2:0,0:0:0:0:
41,170,124550,2,0,P|26:198|17:251,2,70,0|0|8,0:0|0:0|0:0,0:0:0:0:
134,292,125256,2,0,P|126:326|110:357,2,70,0|0|4,0:0|0:0|0:0,0:0:0:0:
191,148,125980,5,4,0:0:0:0:
191,148,126167,2,0,P|209:200|219:255,1,112,0|0,0:0|0:0,0:0:0:0:
281,348,126730,2,0,P|291:292|310:238,1,112
382,235,127259,1,0,0:0:0:0:
447,203,127435,1,0,0:0:0:0:
447,203,127606,2,0,P|437:147|418:95,1,112
328,16,128120,2,0,P|306:72|299:123,1,112
360,166,128620,1,0,0:0:0:0:
382,235,128786,6,0,P|374:289|350:348,1,112
281,348,129315,1,0,2:0:0:0:
213,319,129491,2,0,P|155:315|94:323,1,112
36,353,130021,1,0,2:0:0:0:
36,353,130197,1,8,0:2:0:0:
22,197,130550,6,0,P|51:201|83:202,1,56,0|0,0:0|2:0,0:0:0:0:
150,200,130903,1,0,0:0:0:0:
150,200,131080,1,0,0:0:0:0:
183,117,131256,2,0,P|143:122|105:118,1,70,0|0,1:0|2:0,0:0:0:0:
89,24,131609,6,0,B|126:42|168:37|168:37|217:29|249:67,1,167.999994873047,4|8,0:0|0:0,0:0:0:0:
238,248,132314,1,0,0:0:0:0:
157,293,132491,1,0,0:0:0:0:
150,200,132667,1,8,0:0:0:0:
309,320,133020,6,0,P|355:322|395:313,1,83.9999974365235,0|0,0:0|0:0,0:0:0:0:
427,200,133373,2,0,P|380:197|341:207,1,83.9999974365235,8|0,0:0|0:0,0:0:0:0:
214,282,133726,2,0,P|208:320|219:370,1,83.9999974365235,0|0,0:0|0:0,0:0:0:0:
243,152,134079,2,0,P|249:110|241:69,1,83.9999974365235,8|0,0:0|0:0,0:0:0:0:
155,179,134432,5,0,0:0:0:0:
62,181,134609,1,0,0:0:0:0:
26,266,134785,2,0,P|24:314|34:350,1,83.9999974365235,8|0,0:0|0:0,0:0:0:0:
126,348,135138,2,0,P|128:300|118:264,2,83.9999974365235,0|0|8,0:0|0:0|0:0,0:0:0:0:
261,208,135844,6,0,P|299:212|348:204,1,83.9999974365235,0|0,0:0|0:0,0:0:0:0:
382,108,136197,2,0,P|346:105|292:116,1,83.9999974365235,8|0,0:0|0:0,0:0:0:0:
402,280,136550,2,0,P|429:246|438:202,1,83.9999974365235,0|0,0:0|0:0,0:0:0:0:
242,39,136903,2,0,P|215:73|206:117,1,83.9999974365235,8|0,0:0|0:0,0:0:0:0:
189,227,137256,5,0,0:0:0:0:
342,330,137609,1,8,0:0:0:0:
438,172,137961,1,0,0:0:0:0:
402,87,138138,1,0,0:0:0:0:
317,123,138314,2,0,P|269:126|230:118,1,83.9999974365235,8|0,0:0|0:0,0:0:0:0:
127,56,138667,6,0,P|116:97|112:144,1,83.9999974365235,0|0,0:0|0:0,0:0:0:0:
19,214,139020,2,0,P|60:218|101:228,1,83.9999974365235,8|0,0:0|0:0,0:0:0:0:
262,211,139373,2,0,P|220:206|179:196,1,83.9999974365235,0|0,0:0|0:0,0:0:0:0:
173,289,139726,2,0,P|169:331|159:372,1,83.9999974365235,8|0,0:0|0:0,0:0:0:0:
282,314,140079,5,0,0:0:0:0:
365,357,140256,1,0,0:0:0:0:
437,316,140432,2,0,L|429:221,1,83.9999974365235,8|0,0:0|0:0,0:0:0:0:
474,119,140785,1,0,0:0:0:0:
407,54,140961,1,0,0:0:0:0:
335,112,141138,2,0,L|238:100,1,83.9999974365235,8|0,0:0|0:0,0:0:0:0:
174,39,141491,6,0,L|165:112,1,70,4|0,0:0|0:0,0:0:0:0:
97,180,141844,6,0,L|206:193,1,105,4|0,0:2|0:0,0:0:0:0:
228,185,142197,2,0,L|218:257,1,70,8|8,0:3|0:3,0:0:0:0:
141,329,142550,2,0,L|102:345,3,35,0|0|8|0,0:0|0:0|0:3|0:0,0:0:0:0:
141,329,142903,6,0,P|221:350|300:325,1,167.999994873047,4|8,0:0|0:0,0:0:0:0:
337,143,143609,1,0,0:0:0:0:
399,210,143785,1,0,0:0:0:0:
457,281,143961,1,8,0:0:0:0:
486,68,144314,6,0,P|461:105|424:128,1,83.9999974365235,0|0,0:0|0:0,0:0:0:0:
337,143,144667,2,0,L|273:68,1,83.9999974365235,8|0,0:0|0:0,0:0:0:0:
309,233,145020,2,0,L|363:296,1,83.9999974365235,0|0,0:0|0:0,0:0:0:0:
216,234,145373,2,0,P|181:257|158:292,1,83.9999974365235,8|0,0:0|0:0,0:0:0:0:
52,334,145726,6,0,P|45:292|51:251,1,83.9999974365235,0|0,0:0|0:0,0:0:0:0:
90,167,146079,1,8,0:0:0:0:
250,315,146432,1,0,0:0:0:0:
342,325,146609,1,0,0:0:0:0:
433,314,146785,2,0,P|459:275|466:236,1,83.9999974365235,8|0,0:0|0:0,0:0:0:0:
400,113,147138,6,0,P|358:92|313:88,1,83.9999974365235,0|0,0:0|0:0,0:0:0:0:
378,243,147491,2,0,P|353:186|321:161,1,83.9999974365235,8|0,0:0|0:0,0:0:0:0:
211,295,147844,2,0,P|253:316|298:320,1,83.9999974365235,0|0,0:0|0:0,0:0:0:0:
232,164,148197,2,0,P|244:203|273:237,1,83.9999974365235,8|0,0:0|0:0,0:0:0:0:
321,87,148550,5,0,0:0:0:0:
230,67,148726,1,0,0:0:0:0:
140,89,148903,1,8,0:0:0:0:
51,251,149256,1,0,0:0:0:0:
120,311,149432,1,0,0:0:0:0:
211,295,149609,2,0,P|226:260|235:212,1,83.9999974365235,8|0,0:0|0:0,0:0:0:0:
337,171,149961,6,0,P|393:196|469:190,1,125.999996154785,0|0,0:0|0:0,0:0:0:0:
437,221,150314,2,0,P|412:277|418:353,1,125.999996154785,8|0,0:0|0:0,0:0:0:0:
386,321,150667,2,0,P|330:296|254:302,1,125.999996154785,0|0,0:0|0:0,0:0:0:0:
286,271,151020,2,0,P|311:215|305:139,1,125.999996154785,8|0,0:0|0:0,0:0:0:0:
281,128,151373,6,0,P|278:87|285:46,2,83.9999974365235,2|0|2,0:3|3:0|0:3,0:0:0:0:
193,229,152091,2,0,P|201:189|196:147,1,83.9999974365235,8|0,0:3|0:0,0:0:0:0:
164,60,152450,1,8,0:3:0:0:
91,184,152810,6,0,P|83:225|88:271,1,84,2|0,0:0|2:0,0:0:0:0:
