osu file format v14

[General]
AudioFilename: audio.mp3
AudioLeadIn: 0
PreviewTime: 4903
Countdown: 1
SampleSet: Soft
StackLeniency: 0.7
Mode: 0
LetterboxInBreaks: 0
WidescreenStoryboard: 0

[Editor]
Bookmarks: 539,4903,22357,31085,48539,65994,83448,88903
DistanceSpacing: 1.3
BeatDivisor: 4
GridSize: 4
TimelineZoom: 1

[Metadata]
Title:Naui Maeumeul Dama (TV Size)
TitleUnicode:나의 마음을 담아 (TV Size)
Artist:Lee Yongsin
ArtistUnicode:이용신
Creator:Sonnyc
Version:Normal
Source:달빛천사
Tags:Full Moon wo Sagashite 満月をさがして opening HabiHolic C_O_I_N coin
BeatmapID:1622231
BeatmapSetID:771534

[Difficulty]
HPDrainRate:4
CircleSize:3.5
OverallDifficulty:5
ApproachRate:5.5
SliderMultiplier:2.4
SliderTickRate:1

[Events]
//Background and Video events
0,0,"bg.jpg",0,0
//Break Periods
//Storyboard Layer 0 (Background)
//Storyboard Layer 1 (Fail)
//Storyboard Layer 2 (Pass)
//Storyboard Layer 3 (Foreground)
//Storyboard Sound Samples

[TimingPoints]
539.673882563136,545.454545454546,4,2,1,60,1,0
86176,-100,4,2,1,40,0,0
86994,-100,4,2,1,30,0,0
87539,-100,4,2,1,20,0,0
87812,-100,4,2,1,10,0,0
88357,-100,4,2,1,5,0,0

[Colours]
Combo1 : 255,128,64
Combo2 : 0,255,128
Combo3 : 128,128,255
Combo4 : 255,0,128

[HitObjects]
46,251,5176,6,0,P|17:292|24:372,2,120,0|0|0,1:0|0:0|1:0,0:0:0:0:
118,187,5994,2,0,P|166:190|232:144,2,120,2|0|2,0:0|1:0|0:0,0:0:0:0:
27,155,6812,1,0,1:0:0:0:
112,326,7357,6,0,L|231:318,2,120,0|0|0,1:0|0:0|1:0,0:0:0:0:
46,251,8176,2,0,P|40:173|118:187,1,180,2|2,0:0|0:0,0:0:0:0:
213,199,8857,2,0,L|332:207,1,120,2|2,0:0|0:0,0:0:0:0:
466,251,9539,6,0,P|495:292|488:372,2,120,0|0|0,1:0|0:0|1:0,0:0:0:0:
394,187,10357,2,0,P|346:190|280:144,2,120,2|0|2,0:0|1:0|0:0,0:0:0:0:
485,155,11176,1,0,1:0:0:0:
460,62,11448,6,0,B|375:56|375:56|362:63|362:63|282:58,2,179.999994506836,2|2|0,0:0|0:0|1:0,0:0:0:0:
485,155,12539,2,0,B|400:149|400:149|387:156|387:156|307:151,2,179.999994506836,2|2|0,0:0|0:0|1:0,0:0:0:0:
485,155,13630,1,4,0:0:0:0:
466,251,13903,6,0,P|495:292|488:372,2,120,0|0|0,1:0|0:0|1:0,0:0:0:0:
394,187,14721,2,0,P|346:190|280:144,2,120,2|0|2,0:0|1:0|0:0,0:0:0:0:
485,155,15539,1,0,1:0:0:0:
400,326,16085,6,0,L|281:318,2,120,0|0|0,1:0|0:0|1:0,0:0:0:0:
466,251,16903,2,0,P|472:173|394:187,1,180,2|2,0:0|0:0,0:0:0:0:
299,199,17585,2,0,L|180:207,1,120,2|2,0:0|0:0,0:0:0:0:
46,251,18266,6,0,P|17:292|24:372,2,120,0|0|0,1:0|0:0|1:0,0:0:0:0:
118,187,19085,2,0,P|166:190|232:144,2,120,2|0|2,0:0|1:0|0:0,0:0:0:0:
27,155,19903,1,0,1:0:0:0:
99,91,20176,5,4,0:0:0:0:
225,153,20585,1,4,0:0:0:0:
341,74,20994,2,0,L|324:323,1,240,4|0,0:0|1:0,0:0:0:0:
231,289,21812,2,0,L|236:376,2,60,0|0|8,1:0|1:0|0:3,0:0:0:0:
324,313,22357,6,0,P|227:191|139:319,1,360,4|0,0:0|1:0,0:0:0:0:
45,293,23448,2,0,P|60:206|120:136,2,180,2|2|0,0:0|0:0|1:0,0:0:0:0:
188,71,25357,5,0,1:0:0:0:
281,95,25630,2,0,P|234:156|126:144,2,180,2|2|0,0:0|0:0|1:0,0:0:0:0:
188,71,26721,6,0,P|285:193|373:65,1,360,4|0,0:0|1:0,0:0:0:0:
467,91,27812,2,0,P|452:178|392:248,2,180,2|2|0,0:0|0:0|1:0,0:0:0:0:
373,66,28903,5,2,1:0:0:0:
281,94,29176,1,2,1:0:0:0:
195,51,29448,2,0,L|-20:37,1,180,2|2,1:0|1:0,0:0:0:0:
351,244,31085,5,4,0:0:0:0:
190,348,31630,2,0,P|103:355|46:290,2,180,2|0|0,0:0|0:0|1:0,0:0:0:0:
140,266,32721,2,0,L|148:147,1,120,0|0,0:0|1:0,0:0:0:0:
154,50,33266,5,0,0:0:0:0:
315,154,33812,2,0,P|402:161|459:96,2,180,2|0|0,0:0|0:0|1:0,0:0:0:0:
365,72,34903,2,0,L|361:12,2,60,0|0|0,0:0|0:0|1:0,0:0:0:0:
315,154,35448,5,0,0:0:0:0:
154,50,35994,2,0,P|67:43|10:108,2,180,2|0|0,0:0|0:0|1:0,0:0:0:0:
104,132,37085,2,0,L|112:251,1,120,0|0,0:0|1:0,0:0:0:0:
118,348,37630,5,0,0:0:0:0:
279,244,38176,2,0,P|366:237|423:302,1,180,2|2,0:0|0:0,0:0:0:0:
161,244,39812,5,4,0:0:0:0:
322,348,40357,2,0,P|409:355|466:290,2,180,2|0|0,0:0|0:0|1:0,0:0:0:0:
372,266,41448,2,0,L|364:147,1,120,0|0,0:0|1:0,0:0:0:0:
358,50,41994,5,0,0:0:0:0:
197,154,42539,2,0,P|110:161|53:96,2,180,2|0|0,0:0|0:0|1:0,0:0:0:0:
147,72,43630,2,0,L|151:12,2,60,0|0|0,0:0|0:0|1:0,0:0:0:0:
197,154,44176,6,0,P|284:147|341:212,2,180,0|2|0,0:0|0:0|1:0,0:0:0:0:
128,220,45266,2,0,P|121:307|186:364,2,180,2|0|0,0:0|0:0|1:0,0:0:0:0:
104,126,46357,5,0,0:0:0:0:
197,154,46630,1,2,1:0:0:0:
267,87,46903,1,0,0:0:0:0:
453,143,47448,2,0,L|436:392,1,240,4|4,0:0|0:0,0:0:0:0:
265,294,48539,6,0,P|221:349|85:187,1,360,4|0,0:0|0:0,0:0:0:0:
132,124,49630,2,0,L|311:136,2,180,2|0|0,0:0|0:0|0:0,0:0:0:0:
140,28,50721,2,0,L|319:40,2,180,2|0|2,0:0|0:0|0:0,0:0:0:0:
358,344,52630,21,0,0:0:0:0:
432,283,52903,2,0,P|391:254|311:261,1,120,2|0,0:0|0:0,0:0:0:0:
307,160,53448,2,0,P|261:181|227:253,1,120,0|0,1:0|0:0,0:0:0:0:
222,336,53994,2,0,L|43:324,2,180,2|0|4,0:0|0:0|0:0,0:0:0:0:
413,350,55357,5,0,1:0:0:0:
413,350,55630,1,0,1:0:0:0:
273,217,56176,1,0,0:0:0:0:
455,158,56721,1,0,1:0:0:0:
376,102,56994,2,0,L|382:13,2,60,0|0|4,1:0|1:0|0:0,0:0:0:0:
286,66,57539,6,0,L|294:185,2,120,0|0|0,0:0|1:0|0:0,0:0:0:0:
193,40,58357,2,0,L|205:219,2,180,2|0|0,0:0|0:0|0:0,0:0:0:0:
97,48,59448,2,0,L|109:227,2,180,2|0|2,0:0|0:0|0:0,0:0:0:0:
351,307,61357,21,2,0:0:0:0:
351,307,61630,1,4,0:0:0:0:
271,70,62721,1,4,0:0:0:0:
101,253,63812,5,0,0:0:0:0:
172,321,64085,2,0,L|351:308,1,180,4|4,0:0|0:0,0:0:0:0:
254,207,64903,2,0,P|332:17|484:154,1,480,4|4,0:0|0:0,0:0:0:0:
466,251,66266,6,0,P|495:292|488:372,2,120,0|0|0,1:0|0:0|1:0,0:0:0:0:
394,187,67085,2,0,P|346:190|280:144,2,120,2|0|2,0:0|1:0|0:0,0:0:0:0:
485,155,67903,1,0,1:0:0:0:
400,326,68448,6,0,L|281:318,2,120,0|0|0,1:0|0:0|1:0,0:0:0:0:
466,251,69266,2,0,P|472:173|394:187,1,180,2|2,0:0|0:0,0:0:0:0:
299,199,69948,2,0,L|180:207,1,120,2|2,0:0|0:0,0:0:0:0:
46,251,70630,6,0,P|17:292|24:372,2,120,0|0|0,1:0|0:0|1:0,0:0:0:0:
118,187,71448,2,0,P|166:190|232:144,2,120,2|0|2,0:0|1:0|0:0,0:0:0:0:
27,155,72266,1,0,1:0:0:0:
52,62,72539,6,0,B|137:56|137:56|150:63|150:63|230:58,2,179.999994506836,2|2|0,0:0|0:0|1:0,0:0:0:0:
27,155,73630,2,0,B|112:149|112:149|125:156|125:156|205:151,2,179.999994506836,2|2|0,0:0|0:0|1:0,0:0:0:0:
27,155,74721,1,4,0:0:0:0:
46,251,74994,6,0,P|17:292|24:372,2,120,0|0|0,1:0|0:0|1:0,0:0:0:0:
118,187,75812,2,0,P|166:190|232:144,2,120,2|0|2,0:0|1:0|0:0,0:0:0:0:
27,155,76630,1,0,1:0:0:0:
112,326,77176,6,0,L|231:318,2,120,0|0|0,1:0|0:0|1:0,0:0:0:0:
46,251,77994,2,0,P|40:173|118:187,1,180,2|2,0:0|0:0,0:0:0:0:
213,199,78676,2,0,L|332:207,1,120,2|2,0:0|0:0,0:0:0:0:
466,251,79357,6,0,P|495:292|488:372,2,120,0|0|0,1:0|0:0|1:0,0:0:0:0:
394,187,80176,2,0,P|346:190|280:144,2,120,2|0|2,0:0|1:0|0:0,0:0:0:0:
485,155,80994,1,0,1:0:0:0:
413,91,81266,5,4,0:0:0:0:
287,153,81676,1,4,0:0:0:0:
171,74,82085,2,0,L|188:323,1,240,4|0,0:0|1:0,0:0:0:0:
281,289,82903,2,0,L|276:376,2,60,0|0|8,1:0|1:0|0:3,0:0:0:0:
369,327,83448,37,4,0:0:0:0:
394,187,83857,1,4,0:0:0:0:
502,278,84266,1,4,1:0:0:0:
256,192,84539,12,0,88903,0:0:0:0:
