osu file format v14

[General]
AudioFilename: audio.mp3
AudioLeadIn: 0
PreviewTime: 4903
Countdown: 1
SampleSet: Soft
StackLeniency: 0.7
Mode: 0
LetterboxInBreaks: 0
WidescreenStoryboard: 0

[Editor]
Bookmarks: 539,4903,22357,31085,48539,65994,83448,88903
DistanceSpacing: 1.3
BeatDivisor: 4
GridSize: 4
TimelineZoom: 1

[Metadata]
Title:Naui Maeumeul Dama (TV Size)
TitleUnicode:나의 마음을 담아 (TV Size)
Artist:Lee Yongsin
ArtistUnicode:이용신
Creator:Sonnyc
Version:Habi's Easy
Source:달빛천사
Tags:Full Moon wo Sagashite 満月をさがして opening HabiHolic C_O_I_N coin
BeatmapID:1624182
BeatmapSetID:771534

[Difficulty]
HPDrainRate:2
CircleSize:2.8
OverallDifficulty:2
ApproachRate:3
SliderMultiplier:1.3
SliderTickRate:1

[Events]
//Background and Video events
0,0,"bg.jpg",0,0
//Break Periods
//Storyboard Layer 0 (Background)
//Storyboard Layer 1 (Fail)
//Storyboard Layer 2 (Pass)
//Storyboard Layer 3 (Foreground)
//Storyboard Sound Samples

[TimingPoints]
539.673882563136,545.454545454546,4,2,1,60,1,0
86176,-100,4,2,1,40,0,0
86994,-100,4,2,1,30,0,0
87539,-100,4,2,1,20,0,0
87812,-100,4,2,1,10,0,0
88357,-100,4,2,1,5,0,0

[Colours]
Combo1 : 255,128,64
Combo2 : 0,255,128
Combo3 : 128,128,255
Combo4 : 255,0,128

[HitObjects]
224,64,5176,6,0,P|131:51|70:122,1,195,0|2,1:0|0:0,0:0:0:0:
112,192,6266,1,0,1:0:0:0:
172,252,6539,2,0,L|240:240,1,65,2|0,0:0|1:0,0:0:0:0:
404,228,7357,6,0,P|412:259|406:290,2,65,0|0|0,1:0|0:0|1:0,0:0:0:0:
364,152,8176,2,0,B|316:188|316:188|208:164,1,162.5,2|2,0:0|0:0,0:0:0:0:
160,100,9130,1,2,0:0:0:0:
52,168,9539,6,0,P|46:232|78:288,1,130,0|0,1:0|1:0,0:0:0:0:
148,336,10357,2,0,L|280:316,1,130,2|2,0:0|0:0,0:0:0:0:
436,260,11448,6,0,P|444:307|435:355,2,97.5,2|2|0,0:0|0:0|1:0,0:0:0:0:
392,188,12539,2,0,P|384:141|393:93,2,97.5,2|2|0,0:0|0:0|1:0,0:0:0:0:
344,256,13630,6,0,L|208:232,1,130,4|0,0:0|0:0,0:0:0:0:
144,276,14448,1,0,1:0:0:0:
64,304,14721,2,0,P|33:214|68:126,1,195,2|0,0:0|1:0,0:0:0:0:
216,40,16085,6,0,B|272:76|272:76|334:64,1,130,0|0,1:0|1:0,0:0:0:0:
420,56,16903,2,0,P|459:83|475:128,2,97.5,2|2|0,0:0|0:0|1:0,0:0:0:0:
388,136,17994,6,0,B|364:184|364:184|404:324,1,195,4|0,0:0|1:0,0:0:0:0:
328,360,19085,2,0,L|128:328,1,195,2|0,0:0|1:0,0:0:0:0:
76,268,20176,6,0,P|52:312|55:360,2,97.5,4|4|4,0:0|0:0|0:0,0:0:0:0:
256,31,22357,6,0,P|350:41|416:111,1,195,4|0,0:0|1:0,0:0:0:0:
464,184,23448,2,0,L|448:284,2,97.5,2|2|0,0:0|0:0|1:0,0:0:0:0:
380,192,24539,6,0,P|285:182|219:112,1,195,2|0,0:0|1:1,0:0:0:0:
160,52,25630,2,0,P|121:25|73:19,2,97.5,2|2|0,0:0|0:0|1:0,0:0:0:0:
92,104,26721,6,0,P|117:197|84:288,1,195,4|0,0:0|1:0,0:0:0:0:
136,356,27812,2,0,L|244:336,1,97.5,2|2,0:0|0:0,0:0:0:0:
320,248,28630,1,0,1:0:0:0:
400,268,28903,6,0,P|473:189|434:88,1,227.5,2|2,0:1|0:1,0:0:0:0:
224,36,31085,6,0,P|160:36|108:84,1,130,4|0,0:0|0:0,0:0:0:0:
56,192,32039,2,0,B|132:224|132:224|156:272|156:272|240:312,1,227.5,2|0,0:0|1:0,0:0:0:0:
300,256,33266,6,0,L|268:120,1,130,2|0,0:0|0:0,0:0:0:0:
356,36,34221,1,2,0:0:0:0:
460,112,34630,2,0,P|484:164|452:236,1,130,0|0,1:0|1:0,0:0:0:0:
388,272,35448,6,0,B|320:260|268:308|268:308|236:284|236:284|200:300|200:300|164:252|96:260,1,325,2|0,0:0|1:0,0:0:0:0:
36,204,37085,1,0,0:0:0:0:
132,64,37630,6,0,P|187:156|294:144,1,227.5,2|2,0:0|0:0,0:0:0:0:
416,108,38994,2,0,L|396:248,1,130,0|0,1:0|1:0,0:0:0:0:
380,320,39812,5,4,0:0:0:0:
256,204,40357,2,0,P|140:172|79:276,1,260,2|2,0:0|0:0,0:0:0:0:
148,328,41721,1,0,1:0:0:0:
228,356,41994,6,0,B|304:356|304:356|364:320|364:320|448:320,1,227.5,2|2,0:0|0:0,0:0:0:0:
484,200,43357,2,0,P|419:196|365:162,1,130,0|0,1:0|1:0,0:0:0:0:
304,104,44176,6,0,P|179:107|102:207,1,260,2|2,0:0|0:0,0:0:0:0:
188,352,45812,1,0,0:0:0:0:
320,248,46357,6,0,P|426:233|482:325,1,227.5,2|0,0:0|1:0,0:0:0:0:
272,356,47994,2,0,L|128:328,1,130,4|4,0:0|0:0,0:0:0:0:
36,200,49085,5,0,1:0:0:0:
132,60,49630,2,0,B|172:100|172:100|308:80,1,195,2|0,0:0|0:0,0:0:0:0:
380,31,50721,2,0,P|471:47|501:135,2,195,2|2|0,0:0|0:0|1:0,0:0:0:0:
272,163,52903,6,0,L|140:191,1,130,2|0,0:0|1:0,0:0:0:0:
6,287,53994,2,0,B|67:276|67:276|119:296|119:296|195:284,1,195,2|4,0:0|0:0,0:0:0:0:
352,346,55357,6,0,P|369:284|357:221,1,130,0|2,1:0|0:0,0:0:0:0:
302,154,56176,2,0,L|108:127,1,195,0|0,0:0|1:0,0:0:0:0:
55,62,57266,5,4,0:0:0:0:
31,229,57812,2,0,L|11:361,2,130,0|2|0,1:0|0:0|1:0,0:0:0:0:
105,188,59176,1,0,0:0:0:0:
173,236,59448,6,0,P|245:298|340:295,1,195,2|2,0:0|0:0,0:0:0:0:
486,209,60812,2,0,L|467:80,1,130,0|2,0:0|0:0,0:0:0:0:
394,37,61630,22,0,B|338:69|338:69|318:141|254:181,1,195,4|0,0:0|0:0,0:0:0:0:
180,175,62721,2,0,B|126:142|106:70|106:70|50:38,1,195,4|0,0:0|0:0,0:0:0:0:
256,192,63812,12,4,65994,0:0:0:0:
176,328,67085,22,0,L|380:296,1,195,2|0,0:0|1:0,0:0:0:0:
452,152,68448,6,0,P|472:176|484:208,2,65,0|0|0,1:0|0:0|1:0,0:0:0:0:
372,120,69266,2,0,B|324:156|324:156|216:132,1,162.5,2|2,0:0|0:0,0:0:0:0:
164,72,70221,1,2,0:0:0:0:
64,152,70630,6,0,P|58:216|90:272,1,130,0|0,1:0|1:0,0:0:0:0:
160,320,71448,2,0,L|292:300,1,130,2|2,0:0|0:0,0:0:0:0:
452,260,72539,6,0,P|460:307|451:355,2,97.5,2|2|0,0:0|0:0|1:0,0:0:0:0:
400,192,73630,2,0,P|392:145|401:97,2,97.5,2|2|0,0:0|0:0|1:0,0:0:0:0:
344,256,74721,6,0,L|208:232,1,130,4|0,0:0|0:0,0:0:0:0:
144,280,75539,1,0,1:0:0:0:
64,312,75812,2,0,P|33:222|68:134,1,195,2|0,0:0|1:0,0:0:0:0:
216,48,77176,6,0,B|272:84|272:84|334:72,1,130,0|0,1:0|1:0,0:0:0:0:
420,64,77994,2,0,P|460:88|475:134,2,97.5,2|2|0,0:0|0:0|1:0,0:0:0:0:
396,144,79085,6,0,B|372:192|372:192|412:332,1,195,4|0,0:0|1:0,0:0:0:0:
332,360,80176,2,0,L|132:328,1,195,2|0,0:0|1:0,0:0:0:0:
83,268,81266,6,0,P|59:309|62:358,2,97.5,4|4|4,0:0|0:0|0:0,0:0:0:0:
156,116,82630,2,0,L|296:144,1,130,0|8,1:0|0:3,0:0:0:0:
340,203,83448,38,0,P|366:163|362:113,2,97.5,4|4|4,0:0|0:0|1:0,0:0:0:0:
256,192,84403,12,0,88903,0:0:0:0:
