osu file format v14

[General]
AudioFilename: audio.mp3
AudioLeadIn: 0
PreviewTime: 4903
Countdown: 1
SampleSet: Soft
StackLeniency: 0.7
Mode: 0
LetterboxInBreaks: 0
WidescreenStoryboard: 1

[Editor]
Bookmarks: 539,4903,22357,48539,65994,83448,88903
DistanceSpacing: 0.8
BeatDivisor: 4
GridSize: 32
TimelineZoom: 1

[Metadata]
Title:Naui Maeumeul Dama (TV Size)
TitleUnicode:나의 마음을 담아 (TV Size)
Artist:Lee Yongsin
ArtistUnicode:이용신
Creator:Sonnyc
Version:C O I N's Hard
Source:달빛천사
Tags:Full Moon wo Sagashite 満月をさがして opening HabiHolic C_O_I_N coin
BeatmapID:1622230
BeatmapSetID:771534

[Difficulty]
HPDrainRate:5
CircleSize:4.2
OverallDifficulty:6
ApproachRate:8
SliderMultiplier:2.7
SliderTickRate:1

[Events]
//Background and Video events
0,0,"bg.jpg",0,0
//Break Periods
//Storyboard Layer 0 (Background)
//Storyboard Layer 1 (Fail)
//Storyboard Layer 2 (Pass)
//Storyboard Layer 3 (Foreground)
//Storyboard Sound Samples

[TimingPoints]
539.673882563136,545.454545454546,4,2,1,60,1,0
30266,-100,4,2,1,40,0,0
31085,-100,4,2,1,60,0,0
48539,-125,4,2,1,60,0,0
64903,-100,4,2,1,60,0,0
86176,-100,4,2,1,40,0,0
86994,-100,4,2,1,30,0,0
87539,-100,4,2,1,20,0,0
87812,-100,4,2,1,10,0,0
88357,-100,4,2,1,5,0,0

[Colours]
Combo1 : 255,128,64
Combo2 : 0,255,128
Combo3 : 128,128,255
Combo4 : 255,0,128

[HitObjects]
32,41,5176,6,0,P|63:50|97:54,1,67.5,0|0,1:0|0:0,0:0:0:0:
188,75,5448,2,0,P|161:96|141:123,1,67.5,0|0,0:0|0:0,0:0:0:0:
79,195,5721,2,0,P|70:161|58:130,1,67.5,0|0,1:0|0:0,0:0:0:0:
1,207,5994,6,0,P|46:267|119:261,1,135,2|0,0:0|1:0,0:0:0:0:
276,260,6539,2,0,P|230:199|158:206,1,135,2|0,0:0|1:0,0:0:0:0:
319,80,7357,6,0,L|452:46,2,135,0|0|0,1:0|0:0|1:0,0:0:0:0:
246,240,8176,2,0,P|291:300|364:294,1,135,2|0,0:0|1:0,0:0:0:0:
393,227,8585,2,0,P|347:166|275:173,2,135,2|2|2,0:0|0:0|0:0,0:0:0:0:
130,240,9539,22,0,P|116:207|115:165,1,67.5,0|0,1:0|0:0,0:0:0:0:
104,88,9812,2,0,P|139:92|176:112,1,67.5,0|0,0:0|0:0,0:0:0:0:
246,145,10085,2,0,P|224:173|188:195,1,67.5,0|0,1:0|0:0,0:0:0:0:
130,240,10357,6,0,P|210:276|253:254,1,135,2|0,0:0|1:0,0:0:0:0:
384,369,10903,2,0,P|304:333|261:355,1,135,2|0,0:0|1:0,0:0:0:0:
309,189,11448,22,0,B|338:88|338:88|439:66,2,202.5,2|2|0,0:0|0:0|1:0,0:0:0:0:
254,22,12539,2,0,B|224:122|224:122|123:144,2,202.5,2|2|0,0:0|0:0|1:0,0:0:0:0:
309,189,13630,1,4,0:0:0:0:
480,41,13903,6,0,P|449:50|415:54,1,67.5,0|0,1:0|0:0,0:0:0:0:
324,75,14176,2,0,P|351:96|371:123,1,67.5,0|0,0:0|0:0,0:0:0:0:
433,195,14448,2,0,P|442:161|454:130,1,67.5,0|0,1:0|0:0,0:0:0:0:
511,207,14721,6,0,P|466:267|393:261,1,135,2|0,0:0|1:0,0:0:0:0:
236,260,15266,2,0,P|282:199|354:206,1,135,2|0,0:0|1:0,0:0:0:0:
193,80,16085,6,0,L|60:46,2,135,0|0|0,1:0|0:0|1:0,0:0:0:0:
266,240,16903,2,0,P|221:300|148:294,1,135,2|0,0:0|1:0,0:0:0:0:
119,227,17312,2,0,P|165:166|237:173,2,135,2|2|2,0:0|0:0|0:0,0:0:0:0:
382,240,18266,22,0,P|396:207|397:165,1,67.5,0|0,1:0|0:0,0:0:0:0:
408,88,18539,2,0,P|373:92|336:112,1,67.5,0|0,0:0|0:0,0:0:0:0:
266,145,18812,2,0,P|288:173|324:195,1,67.5,0|0,1:0|0:0,0:0:0:0:
382,240,19085,6,0,P|302:276|259:254,1,135,2|0,0:0|1:0,0:0:0:0:
88,360,19630,2,0,P|142:323|205:341,1,135,0|0,0:0|1:0,0:0:0:0:
394,321,20176,6,0,P|348:252|228:252,1,202.5,4|4,0:0|0:0,0:0:0:0:
0,156,20994,2,0,P|64:77|237:123,1,270,4|0,0:0|1:0,0:0:0:0:
320,240,21812,6,0,B|321:203|342:177,1,67.5,0|0,1:0|1:0,0:0:0:0:
301,97,22085,2,0,P|321:65|322:26,1,67.5,8|4,0:3|0:3,0:0:0:0:
397,2,22357,6,0,P|471:30|513:207,1,270,4|0,0:0|0:0,0:0:0:0:
407,355,23176,1,0,1:0:0:0:
229,291,23448,2,0,B|178:305|178:305|92:268|92:268|36:286,2,202.5,2|2|0,0:0|0:0|1:0,0:0:0:0:
364,158,24539,5,2,0:1:0:0:
180,110,24812,1,2,1:0:0:0:
229,292,25085,1,2,0:1:0:0:
278,110,25357,6,0,L|295:38,1,67.5,0|0,1:1|0:0,0:0:0:0:
364,106,25630,2,0,L|461:210,1,135,2|0,0:0|1:0,0:0:0:0:
366,237,26039,2,0,B|240:269|240:269|180:216,1,202.5,2|0,0:0|1:0,0:0:0:0:
124,42,26721,22,0,P|50:70|8:247,1,270,4|0,0:0|0:0,0:0:0:0:
137,375,27539,1,0,1:0:0:0:
314,310,27812,2,0,B|365:324|365:324|451:287|451:287|507:305,2,202.5,2|2|0,0:0|0:0|1:0,0:0:0:0:
179,177,28903,5,2,0:1:0:0:
363,129,29176,1,2,1:0:0:0:
314,311,29448,1,2,0:1:0:0:
179,177,29721,5,0,1:0:0:0:
179,177,29857,1,2,0:1:0:0:
382,44,30266,6,0,L|512:77,2,135,0|0|2,0:0|0:0|0:0,0:0:0:0:
251,140,31085,6,0,P|184:138|136:93,1,135,4|0,0:0|1:0,0:0:0:0:
0,6,31630,2,0,P|91:54|75:191,2,202.5,0|2|0,0:0|0:0|1:0,0:0:0:0:
136,93,32721,2,0,P|184:138|251:140,1,135,0|0,0:0|1:0,0:0:0:0:
413,148,33266,6,0,P|349:167|314:223,1,135,0|0,0:0|1:0,0:0:0:0:
237,366,33812,2,0,P|251:301|134:221,1,202.5,0|2,0:0|0:0,0:0:0:0:
19,284,34630,6,0,L|0:143,2,135,0|0|0,1:0|0:0|1:0,0:0:0:0:
166,217,35448,2,0,P|232:219|280:264,1,135,0|0,0:0|1:0,0:0:0:0:
416,351,35994,2,0,P|325:303|341:166,2,202.5,0|2|0,0:0|0:0|1:0,0:0:0:0:
493,198,37085,2,0,P|444:152|378:150,1,135,0|0,0:0|1:0,0:0:0:0:
246,243,37630,38,0,P|179:240|131:195,1,135,0|0,0:0|1:0,0:0:0:0:
4,93,38176,2,0,P|85:109|181:23,1,202.5,0|2,0:0|0:0,0:0:0:0:
362,80,38994,22,0,L|493:113,2,135,0|0|0,1:0|0:0|1:0,0:0:0:0:
247,195,39812,6,0,P|180:193|132:148,1,135,4|0,0:0|1:0,0:0:0:0:
1,53,40357,2,0,P|92:101|76:238,2,202.5,0|2|0,0:0|0:0|1:0,0:0:0:0:
132,148,41448,2,0,P|180:193|247:195,1,135,0|0,0:0|1:0,0:0:0:0:
317,34,41994,6,0,P|253:53|218:109,1,135,0|0,0:0|1:0,0:0:0:0:
279,294,42539,2,0,P|333:251|307:118,1,202.5,0|2,0:0|0:0,0:0:0:0:
131,172,43357,6,0,L|111:-2,2,135,0|0|0,1:0|0:0|1:0,0:0:0:0:
299,120,44176,2,0,B|377:96|377:96|495:188,2,202.5,0|2|0,0:0|0:0|1:0,0:0:0:0:
227,279,45266,2,0,B|148:302|148:302|30:210,2,202.5,2|0|0,0:0|0:0|1:0,0:0:0:0:
393,333,46357,5,0,0:0:0:0:
508,200,46630,1,2,1:0:0:0:
338,153,46903,2,0,P|293:144|260:118,1,67.5,0|0,0:1|0:0,0:0:0:0:
189,88,47176,2,0,P|158:68|103:68,1,67.5,0|0,1:1|1:0,0:0:0:0:
19,65,47448,2,0,L|50:334,1,270,4|4,0:0|0:0,0:0:0:0:
278,365,48539,6,0,P|394:297|371:214,1,216,4|0,0:0|1:0,0:0:0:0:
277,162,49357,1,0,0:0:0:0:
298,34,49630,2,0,B|473:5,2,162,2|0|0,0:0|0:0|0:0,0:0:0:0:
277,162,50721,5,2,0:0:0:0:
90,108,51130,1,0,0:0:0:0:
8,284,51539,2,0,P|143:306|201:252,1,216,2|0,0:0|0:0,0:0:0:0:
277,162,52357,1,0,1:0:0:0:
364,65,52630,5,0,0:0:0:0:
364,65,52766,1,0,1:0:0:0:
364,65,52903,1,2,0:0:0:0:
486,108,53176,1,0,0:0:0:0:
478,237,53448,1,0,1:0:0:0:
352,271,53721,1,0,0:0:0:0:
277,162,53994,37,2,0:0:0:0:
105,253,54403,1,0,0:0:0:0:
23,77,54812,2,0,P|122:45|211:100,1,216,4|0,0:0|1:0,0:0:0:0:
222,229,55630,21,0,1:0:0:0:
230,358,55903,1,2,0:0:0:0:
340,289,56176,2,0,L|464:303,1,108,0|2,0:0|0:1,0:0:0:0:
488,178,56721,2,0,L|518:101,2,54,2|0|0,0:1|0:0|1:0,0:0:0:0:
363,204,57266,5,4,0:0:0:0:
256,128,57539,1,0,0:0:0:0:
256,256,57812,1,0,1:0:0:0:
149,204,58085,1,0,0:0:0:0:
183,339,58357,2,0,B|129:347|129:347|78:318|78:318|11:328,2,162,2|0|0,0:0|0:0|0:0,0:0:0:0:
272,227,59448,6,0,P|360:239|396:313,1,162,2|0,0:0|0:0,0:0:0:0:
511,102,60266,2,0,B|461:73|414:117|414:117|362:161|293:103,1,216,2|0,0:0|0:0,0:0:0:0:
203,56,61085,1,0,1:0:0:0:
230,182,61357,6,0,L|263:335,1,108,2|4,0:0|0:0,0:0:0:0:
140,258,62721,5,4,0:0:0:0:
345,206,63812,37,0,0:0:0:0:
205,146,64085,2,0,L|62:81,1,108,4|0,0:0|0:0,0:0:0:0:
105,195,64494,2,0,L|-17:138,1,108,4|0,0:0|0:0,0:0:0:0:
31,251,64903,6,0,P|33:283|54:325,1,67.5,4|0,0:0|1:0,0:0:0:0:
108,273,65176,2,0,P|136:287|183:290,1,67.5,0|0,1:0|1:0,0:0:0:0:
178,217,65448,2,0,P|204:199|230:160,1,67.5,4|4,0:3|0:3,0:0:0:0:
242,98,65721,1,8,0:3:0:0:
242,98,65857,1,8,0:3:0:0:
242,98,65994,1,4,0:0:0:0:
480,41,66266,6,0,P|449:50|415:54,1,67.5,0|0,1:0|0:0,0:0:0:0:
324,75,66539,2,0,P|351:96|371:123,1,67.5,0|0,0:0|0:0,0:0:0:0:
433,195,66812,2,0,P|442:161|454:130,1,67.5,0|0,1:0|0:0,0:0:0:0:
511,207,67085,6,0,P|476:261|411:269,1,135,2|0,0:0|1:0,0:0:0:0:
236,260,67630,2,0,P|271:204|336:197,1,135,2|0,0:0|1:0,0:0:0:0:
193,80,68448,6,0,L|60:46,2,135,0|0|0,1:0|0:0|1:0,0:0:0:0:
266,240,69266,2,0,P|221:300|148:294,1,135,2|0,0:0|1:0,0:0:0:0:
119,227,69676,2,0,P|165:166|237:173,2,135,2|2|2,0:0|0:0|0:0,0:0:0:0:
382,240,70630,22,0,P|396:207|397:165,1,67.5,0|0,1:0|0:0,0:0:0:0:
408,88,70903,2,0,P|373:92|336:112,1,67.5,0|0,0:0|0:0,0:0:0:0:
266,145,71176,2,0,P|288:173|324:195,1,67.5,0|0,1:0|0:0,0:0:0:0:
382,240,71448,6,0,P|302:276|259:254,1,135,2|0,0:0|1:0,0:0:0:0:
128,369,71994,2,0,P|208:333|251:355,1,135,2|0,0:0|1:0,0:0:0:0:
203,189,72539,22,0,B|174:88|174:88|73:66,2,202.5,2|2|0,0:0|0:0|1:0,0:0:0:0:
258,22,73630,2,0,B|288:122|288:122|389:144,2,202.5,2|2|0,0:0|0:0|1:0,0:0:0:0:
203,189,74721,1,4,0:0:0:0:
32,41,74994,6,0,P|63:50|97:54,1,67.5,0|0,1:0|0:0,0:0:0:0:
188,75,75266,2,0,P|161:96|141:123,1,67.5,0|0,0:0|0:0,0:0:0:0:
79,195,75539,2,0,P|70:161|58:130,1,67.5,0|0,1:0|0:0,0:0:0:0:
1,207,75812,6,0,P|46:267|119:261,1,135,2|0,0:0|1:0,0:0:0:0:
276,260,76357,2,0,P|230:199|158:206,1,135,2|0,0:0|1:0,0:0:0:0:
319,80,77176,6,0,L|452:46,2,135,0|0|0,1:0|0:0|1:0,0:0:0:0:
246,240,77994,2,0,P|291:300|364:294,1,135,2|0,0:0|1:0,0:0:0:0:
393,227,78403,2,0,P|347:166|275:173,2,135,2|2|2,0:0|0:0|0:0,0:0:0:0:
130,240,79357,22,0,P|116:207|115:165,1,67.5,0|0,1:0|0:0,0:0:0:0:
104,88,79630,2,0,P|139:92|176:112,1,67.5,0|0,0:0|0:0,0:0:0:0:
246,145,79903,2,0,P|224:173|188:195,1,67.5,0|0,1:0|0:0,0:0:0:0:
130,240,80176,6,0,P|210:276|253:254,1,135,2|0,0:0|1:0,0:0:0:0:
424,360,80721,2,0,P|370:323|307:341,1,135,0|0,0:0|1:0,0:0:0:0:
118,321,81266,6,0,P|164:252|284:252,1,202.5,4|4,0:0|0:0,0:0:0:0:
512,156,82085,2,0,P|448:77|275:123,1,270,4|0,0:0|1:0,0:0:0:0:
185,253,82903,6,0,P|181:219|167:189,1,67.5,0|0,1:0|1:0,0:0:0:0:
83,162,83176,2,0,P|68:131|65:98,1,67.5,8|4,0:3|0:3,0:0:0:0:
107,21,83448,37,4,0:0:0:0:
139,302,83857,1,4,0:0:0:0:
392,169,84266,1,4,1:0:0:0:
256,192,84403,12,0,88903,0:0:0:0:
