osu file format v14

[General]
AudioFilename: angelic.mp3
AudioLeadIn: 0
PreviewTime: 21533
Countdown: 0
SampleSet: None
StackLeniency: 0.7
Mode: 0
LetterboxInBreaks: 1
WidescreenStoryboard: 1

[Editor]
DistanceSpacing: 1
BeatDivisor: 8
GridSize: 4
TimelineZoom: 1.6

[Metadata]
Title:AngelsRoom
TitleUnicode:AngelsRoom
Artist:Lee Yongsin
ArtistUnicode:이용신
Creator:DropTimes
Version:Komari
Source:MapleStory
Tags:game angelic buster kms wizet nexon dress up lolicore_komari k_i_a_i
BeatmapID:537479
BeatmapSetID:231234

[Difficulty]
HPDrainRate:6
CircleSize:3
OverallDifficulty:7
ApproachRate:9.3
SliderMultiplier:2.7
SliderTickRate:2

[Events]
//Background and Video events
0,0,"2014-11-01 19;43;28.jpg",0,0
Video,0,"angelic.avi"
//Break Periods
//Storyboard Layer 0 (Background)
//Storyboard Layer 1 (Fail)
//Storyboard Layer 2 (Pass)
//Storyboard Layer 3 (Foreground)
//Storyboard Sound Samples

[TimingPoints]
30,445.89774078478,4,3,1,70,1,0
475,458.015267175573,4,3,1,70,1,0
933,450.788880540947,4,3,1,70,1,0
933,-66.6666666666667,4,3,1,70,0,0
1373,451.807228915663,4,3,1,70,1,0
1824,453.686200378072,4,3,1,70,1,0
2731,445.269016697588,4,3,1,70,1,0
3176,-66.6666666666667,4,3,1,70,0,0
3628,450.281425891182,4,3,1,70,1,0
3628,-133.333333333333,4,3,1,70,0,0
5429,448.598130841121,4,3,1,70,1,0
7223,455.580865603645,4,3,1,70,1,0
9045,446.428571428571,4,3,1,70,1,0
9045,-80,4,3,1,70,0,0
10607,-200,4,3,1,70,0,0
10844,447.093889716841,4,3,1,70,1,0
11738,-66.6666666666667,4,2,1,70,0,0
11961,-100,4,3,1,70,0,0
12632,456.62100456621,4,3,1,70,1,0
14458,451.467268623025,4,3,1,70,1,0
16263,455.407969639469,4,3,1,70,1,0
16263,-66.6666666666667,4,3,1,70,0,0
16604,-100,4,3,1,70,0,0
18084,486.026731470231,4,2,0,70,1,0
19095,585.365853658537,4,2,0,70,1,0
19680,451.127819548872,4,3,1,70,1,0
20807,344.827586206897,4,2,0,70,1,0
21065,400,4,2,0,70,1,0
21165,491.803278688525,4,3,1,70,1,0
21656,466.926070038911,4,2,0,70,1,0
21656,-100,4,3,1,90,0,1
22589,456.273764258555,4,3,1,90,1,1
23501,441.176470588235,4,2,1,90,1,1
23721,-100,4,3,1,90,0,1
24603,-200,4,3,1,90,0,1
24824,-100,4,3,1,90,0,1
25265,459.770114942529,4,2,1,90,1,1
25494,-66.6666666666667,4,3,1,90,0,1
26184,-80,4,3,1,90,0,1
27104,444.444444444444,4,3,1,90,1,1
27104,-100,4,3,1,90,0,1
28437,447.093889716841,4,2,0,90,1,1
28884,466.926070038911,4,2,0,90,1,1
28884,-200,4,2,0,90,0,1
29350,452.830188679245,4,2,0,90,1,1
29802,428.571428571429,4,2,0,90,1,1
30123,-100,4,3,1,5,0,1
30230,421.792618629174,4,2,0,70,1,0
30440,440.852314474651,4,3,1,70,1,0
30605,422.044807090353,4,3,1,70,1,0

[Colours]
Combo1 : 148,235,187
Combo2 : 239,174,247
Combo3 : 152,203,245
Combo4 : 149,149,149

[HitObjects]
336,96,30,5,2,0:0:0:0:
336,96,141,1,0,0:0:0:0:
336,96,252,1,0,0:0:0:0:
336,96,364,1,0,0:0:0:0:
335,95,475,6,0,P|356:176|300:124,1,202.5,8|0,0:0|0:0,0:0:0:0:
408,88,933,6,0,P|345:210|206:142,1,303.750011587143,8|0,0:0|0:0,0:0:0:0:
192,136,1373,5,4,0:0:0:0:
196,117,1429,1,0,0:0:0:0:
200,98,1485,1,0,0:0:0:0:
204,79,1542,1,0,0:0:0:0:
208,60,1598,1,4,0:0:0:0:
212,41,1655,1,0,0:0:0:0:
216,22,1711,1,0,0:0:0:0:
220,3,1768,1,0,0:0:0:0:
120,28,1824,6,0,L|140:268,1,202.5,4|0,0:0|0:0,0:0:0:0:
311,335,2277,2,0,P|303:303|302:269,1,67.5,2|0,0:0|0:0,0:0:0:0:
304,180,2504,2,0,P|307:146|317:114,1,67.5
383,60,2731,1,2,0:0:0:0:
424,41,2842,1,0,0:0:0:0:
468,44,2953,1,0,0:0:0:0:
505,69,3064,1,0,0:0:0:0:
488,156,3176,6,0,P|433:255|424:142,1,303.750011587143,2|0,0:0|0:0,0:0:0:0:
368,204,3628,6,0,P|321:184|271:189,1,101.250003862381,8|0,0:0|0:0,0:0:0:0:
368,172,3965,2,0,P|316:136|256:144,1,101.250003862381
95,111,4303,2,0,P|80:64|91:15,1,101.250003862381,8|0,0:0|0:0,0:0:0:0:
152,128,4641,2,0,P|117:92|118:43,1,101.250003862381
231,107,4978,5,2,0:0:0:0:
237,157,5090,1,0,0:0:0:0:
218,204,5203,1,2,0:0:0:0:
179,235,5315,1,0,0:0:0:0:
87,280,5429,6,0,P|153:264|220:280,1,135,4|0,0:0|0:0,0:0:0:0:
304,320,5765,1,4,0:0:0:0:
304,320,5989,1,4,0:0:0:0:
391,339,6101,2,0,P|456:356|519:334,1,135,4|0,0:0|0:0,0:0:0:0:
480,256,6438,1,8,0:0:0:0:
424,184,6550,1,0,0:0:0:0:
448,96,6662,1,8,0:0:0:0:
368,56,6774,5,0,0:0:0:0:
334,61,6830,1,0,0:0:0:0:
301,66,6886,1,0,0:0:0:0:
267,71,6942,1,0,0:0:0:0:
236,76,6999,2,0,L|224:124,3,33.75,0|8|0|0,0:0|0:0|0:0|0:0,0:0:0:0:
280,176,7223,6,0,L|244:324,1,135,4|0,0:0|0:0,0:0:0:0:
128,84,7678,1,2,0:0:0:0:
224,248,7906,1,0,0:0:0:0:
223,248,8020,2,0,P|132:280|52:224,1,202.5,2|0,0:0|0:0,0:0:0:0:
328,32,8589,1,8,0:0:0:0:
488,252,8817,1,8,0:0:0:0:
288,340,9045,6,0,B|336:128|336:128|350:160,1,253.125,2|0,0:0|0:0,0:0:0:0:
303,236,9491,2,0,P|267:256|225:259,1,84.375,8|0,0:0|0:0,0:0:0:0:
136,264,9714,2,0,P|94:268|56:251,1,84.375,0|8,0:0|0:0,0:0:0:0:
15,175,9937,1,0,0:0:0:0:
2,145,10048,1,8,0:0:0:0:
0,111,10160,1,0,0:0:0:0:
1,78,10271,1,0,0:0:0:0:
13,46,10383,1,8,0:0:0:0:
32,19,10495,1,0,0:0:0:0:
120,44,10607,6,0,L|108:93,1,50.625,2|0,0:0|0:0,0:0:0:0:
15,175,10844,6,0,P|112:152|216:188,1,202.5,4|0,0:0|0:0,0:0:0:0:
288,244,11291,2,0,P|300:145|210:85,1,202.5,2|0,0:0|0:0,0:0:0:0:
120,111,11738,6,0,P|94:188|168:157,1,202.500007724762,2|0,0:0|0:0,0:0:0:0:
244,120,12073,1,0,0:0:0:0:
256,88,12185,1,8,0:0:0:0:
344,136,12297,1,0,0:0:0:0:
372,120,12408,1,0,0:0:0:0:
408,212,12520,1,0,0:0:0:0:
440,224,12632,1,4,0:0:0:0:
228,336,12860,5,8,0:0:0:0:
228,336,12974,1,0,0:0:0:0:
228,336,13088,1,8,0:0:0:0:
68,248,13316,2,0,L|208:224,1,135,2|0,0:0|0:0,0:0:0:0:
456,164,13773,1,0,0:0:0:0:
488,256,14001,1,2,0:0:0:0:
428,72,14230,2,0,L|294:53,1,135,0|4,0:0|0:0,0:0:0:0:
248,340,14683,5,2,0:0:0:0:
128,64,14909,1,2,0:0:0:0:
152,320,15135,1,0,0:0:0:0:
152,320,15248,1,2,0:0:0:0:
116,224,15473,1,0,0:0:0:0:
116,224,15586,1,2,0:0:0:0:
388,192,15812,1,8,0:0:0:0:
393,231,15924,1,0,0:0:0:0:
384,271,16037,1,0,0:0:0:0:
362,305,16150,1,0,0:0:0:0:
344,172,16263,6,0,P|394:112|392:190,1,202.500007724762,8|0,0:0|0:0,0:0:0:0:
331,260,16604,2,0,P|304:272|266:272,1,67.5,8|0,0:0|0:0,0:0:0:0:
176,260,16832,1,0,0:0:0:0:
152,248,16946,1,8,0:0:0:0:
84,184,17059,2,0,B|64:108|96:20|96:20|108:53,1,202.5
152,248,17629,5,8,0:0:0:0:
162,198,17742,1,0,0:0:0:0:
172,148,17856,1,8,0:0:0:0:
183,99,17970,1,0,0:0:0:0:
205,138,18084,1,4,0:0:0:0:
336,236,18327,5,2,0:0:0:0:
424,224,18448,2,0,L|492:220,1,67.5
304,100,18691,2,0,L|236:104,1,67.5
396,92,18934,1,0,0:0:0:0:
488,80,19056,1,2,0:0:0:0:
240,248,19314,5,4,0:0:0:0:
152,288,19534,2,8,L|147:321,1,33.75
72,240,19680,2,0,L|80:272,15,33.75,0|0|0|0|0|0|0|0|0|0|0|0|0|0|0|0,0:0|0:0|0:0|0:0|0:0|0:0|0:0|0:0|0:0|0:0|0:0|0:0|0:0|0:0|0:0|0:0,0:0:0:0:
128,176,20582,2,0,L|124:120,1,33.75,8|8,0:0|0:0,0:0:0:0:
44,124,20695,2,0,L|52:84,6,33.75,0|0|0|0|0|0|0,0:0|0:0|0:0|0:0|0:0|0:0|0:0,0:0:0:0:
128,40,21165,5,8,0:0:0:0:
128,40,21287,1,0,0:0:0:0:
228,76,21410,1,8,0:0:0:0:
128,40,21533,1,0,0:0:0:0:
128,176,21656,1,8,0:0:0:0:
248,272,22006,5,0,0:0:0:0:
340,296,22122,2,0,L|420:312,1,67.5,2|0,0:0|0:0,0:0:0:0:
168,200,22356,2,0,P|148:288|196:352,1,135,2|0,0:0|0:0,0:0:0:0:
369,202,22703,2,0,P|321:157|256:160,1,135,8|0,0:0|0:0,0:0:0:0:
424,296,23045,1,4,0:0:0:0:
172,56,23273,1,4,0:0:0:0:
72,328,23501,1,4,0:0:0:0:
416,108,23721,5,0,0:0:0:0:
416,108,23831,1,0,0:0:0:0:
416,108,23942,1,8,0:0:0:0:
300,200,24162,1,2,0:0:0:0:
296,224,24273,1,0,0:0:0:0:
208,248,24383,1,2,0:0:0:0:
228,220,24493,1,0,0:0:0:0:
204,144,24603,2,0,L|182:79,1,67.5,4|2,0:0|0:0,0:0:0:0:
336,48,25045,5,0,0:0:0:0:
32,96,25265,1,4,0:0:0:0:
412,96,25494,5,0,0:0:0:0:
120,20,25724,2,0,P|76:104|126:215,1,202.500007724762,0|0,0:0|0:0,0:0:0:0:
327,135,26184,2,0,P|259:92|182:120,1,168.75
268,340,26529,2,0,P|340:302|354:221,1,168.75,8|0,0:0|0:0,0:0:0:0:
184,304,26874,1,4,0:0:0:0:
96,192,27104,6,0,L|103:159,30,33.75,0|0|0|0|0|0|0|0|0|0|0|0|0|0|0|0|0|0|0|0|0|0|0|0|0|0|0|0|0|0|0,0:0|0:0|0:0|0:0|0:0|0:0|0:0|0:0|0:0|0:0|0:0|0:0|0:0|0:0|0:0|0:0|0:0|0:0|0:0|0:0|0:0|0:0|0:0|0:0|0:0|0:0|0:0|0:0|0:0|0:0|0:0,0:0:0:0:
52,84,28884,2,0,B|152:28|212:80|268:156|380:80,1,337.5,2|0,0:0|0:0,0:0:0:0:
460,36,30123,6,0,P|461:133|381:187,1,202.5,0|4,0:0|0:0,0:0:0:0:
