osu file format v14

[General]
AudioFilename: audio.mp3
AudioLeadIn: 0
PreviewTime: 55431
Countdown: 0
SampleSet: Soft
StackLeniency: 0.4
Mode: 0
LetterboxInBreaks: 0
WidescreenStoryboard: 1

[Editor]
DistanceSpacing: 0.2
BeatDivisor: 8
GridSize: 16
TimelineZoom: 1.7

[Metadata]
Title:Target for Love
TitleUnicode:Target for Love
Artist:Lee Jin Ah
ArtistUnicode:이진아
Creator:KeyWee
Version:Stardust
Source:ブルーアーカイブ -Blue Archive-
Tags:Korean Pop K-Pop Kpop midorijeon Riana Video Game Blue Archive Yostar Nat Games
BeatmapID:4437863
BeatmapSetID:2113613

[Difficulty]
HPDrainRate:5
CircleSize:4
OverallDifficulty:8.5
ApproachRate:9
SliderMultiplier:1.8
SliderTickRate:1

[Events]
//Background and Video events
0,0,"BA BG.jpg",0,0
//Break Periods
2,16675,18205
//Storyboard Layer 0 (Background)
//Storyboard Layer 1 (Fail)
//Storyboard Layer 2 (Pass)
//Storyboard Layer 3 (Foreground)
//Storyboard Layer 4 (Overlay)
//Storyboard Sound Samples

[TimingPoints]
165,582.52427184466,4,2,1,50,1,0
165,-100,4,2,1,50,0,0
3368,-125,4,2,1,50,0,0
4825,-100,4,2,1,50,0,0
9485,-100,4,2,1,55,0,0
18805,-111.111111111111,4,2,1,60,0,0
25796,-76.9230769230769,4,2,1,60,0,0
27543,-76.9230769230769,4,2,2,60,0,0
27689,-76.9230769230769,4,2,1,60,0,0
28126,-111.111111111111,4,2,1,60,0,0
35116,-62.5,4,2,3,60,0,0
35698,-62.5,4,2,1,60,0,0
35990,-62.5,4,2,3,60,0,0
36281,-62.5,4,2,1,60,0,0
36427,-62.5,4,2,4,60,0,0
36864,-76.9230769230769,4,2,5,60,0,0
37009,-76.9230769230769,4,2,6,60,0,0
37446,-100,4,2,6,65,0,0
46184,-100,4,2,2,65,0,0
46766,-76.9230769230769,4,2,7,70,0,0
47931,-76.9230769230769,4,2,1,70,0,0
48077,-76.9230769230769,4,2,7,70,0,0
50262,-76.9230769230769,4,2,1,70,0,0
50407,-76.9230769230769,4,2,7,70,0,0
51427,-76.9230769230769,4,2,6,70,0,0
53757,-76.9230769230769,4,2,1,70,0,0
54922,-76.9230769230769,4,2,3,70,0,0
55067,-76.9230769230769,4,2,4,70,0,0
55359,-76.9230769230769,4,2,3,70,0,0
55504,-76.9230769230769,4,2,8,70,0,0
55650,-76.9230769230769,4,2,9,70,0,0
55796,-166.666666666667,4,2,9,70,0,0
56087,-50,4,2,2,80,0,1
56232,-50,4,2,1,80,0,1
56378,-50,4,2,10,80,0,1
56524,-50,4,2,9,80,0,1
56961,-50,4,2,10,80,0,1
57106,-50,4,2,1,80,0,1
57834,-50,4,2,9,80,0,1
58126,-50,4,2,10,80,0,1
58417,-50,4,2,4,80,0,1
58708,-50,4,2,10,80,0,1
58854,-50,4,2,9,80,0,1
59291,-50,4,2,10,80,0,1
59436,-50,4,2,1,80,0,1
59873,-50,4,2,10,80,0,1
60164,-50,4,2,9,80,0,1
60456,-83.3333333333333,4,2,10,80,0,1
60747,-50,4,2,4,80,0,1
61038,-50,4,2,10,80,0,1
61330,-50,4,2,9,80,0,1
61621,-50,4,2,10,80,0,1
61912,-50,4,2,1,80,0,1
62203,-50,4,2,2,80,0,1
62349,-50,4,2,9,80,0,1
62786,-50,4,2,10,80,0,1
63077,-40,4,2,11,80,0,1
63150,-40,4,2,12,80,0,1
63514,-40,4,2,11,80,0,1
63660,-40,4,2,10,80,0,1
63732,-40,4,2,6,80,0,1
63951,-43.4782608695652,4,2,13,80,0,1
64097,-43.4782608695652,4,2,12,80,0,1
64825,-43.4782608695652,4,2,14,80,0,1
65116,-83.3333333333333,4,2,10,80,0,1
65407,-50,4,2,4,80,0,1
65698,-50,4,2,10,80,0,1
65844,-50,4,2,9,80,0,1
66281,-50,4,2,10,80,0,1
66427,-50,4,2,1,80,0,1
67155,-50,4,2,9,80,0,1
67446,-50,4,2,10,80,0,1
67737,-50,4,2,4,80,0,1
68029,-50,4,2,10,80,0,1
68174,-50,4,2,9,80,0,1
68611,-50,4,2,10,80,0,1
68757,-50,4,2,1,80,0,1
69194,-50,4,2,10,80,0,1
69485,-50,4,2,9,80,0,1
69776,-50,4,2,10,80,0,1
70067,-50,4,2,4,80,0,1
70359,-50,4,2,10,80,0,1
70650,-50,4,2,9,80,0,1
70941,-50,4,2,10,80,0,1
71232,-50,4,2,1,80,0,1
71524,-50,4,2,2,80,0,1
71669,-50,4,2,9,80,0,1
72106,-50,4,2,10,80,0,1
72398,-40,4,2,11,80,0,1
72470,-40,4,2,12,80,0,1
72834,-40,4,2,11,80,0,1
72980,-40,4,2,10,80,0,1
73053,-40,4,2,6,80,0,1
73271,-43.4782608695652,4,2,13,80,0,1
73417,-43.4782608695652,4,2,6,80,0,1
73563,-43.4782608695652,4,2,1,80,0,1
73708,-43.4782608695652,4,2,6,80,0,1
73854,-43.4782608695652,4,2,10,80,0,1
74145,-100,4,2,15,80,0,0
74728,-45.4545454545455,4,2,4,80,0,1
75019,-45.4545454545455,4,2,1,80,0,1
75310,-45.4545454545455,4,2,9,80,0,1
75601,-45.4545454545455,4,2,2,80,0,1
75893,-45.4545454545455,4,2,1,80,0,1
76184,-45.4545454545455,4,2,2,80,0,1
76475,-45.4545454545455,4,2,9,80,0,1
76766,-45.4545454545455,4,2,10,80,0,1
77058,-45.4545454545455,4,2,4,80,0,1
77349,-45.4545454545455,4,2,2,80,0,1
77495,-45.4545454545455,4,2,9,80,0,1
77931,-45.4545454545455,4,2,10,80,0,1
78223,-45.4545454545455,4,2,1,80,0,1
78514,-45.4545454545455,4,2,2,80,0,1
78805,-66.6666666666667,4,2,9,80,0,1
79097,-66.6666666666667,4,2,10,80,0,1
79388,-45.4545454545455,4,2,4,80,0,1
79679,-45.4545454545455,4,2,1,80,0,1
79970,-40,4,2,9,80,0,1
80262,-40,4,2,2,80,0,1
80553,-35.7142857142857,4,2,1,80,0,1
80844,-35.7142857142857,4,2,2,80,0,1
81135,-45.4545454545455,4,2,9,80,0,1
81427,-45.4545454545455,4,2,10,80,0,1
81718,-45.4545454545455,4,2,4,80,0,1
82009,-45.4545454545455,4,2,2,80,0,1
82155,-45.4545454545455,4,2,9,80,0,1
82592,-45.4545454545455,4,2,10,80,0,1
83174,-45.4545454545455,4,2,2,80,0,1
83465,-55.5555555555556,4,2,9,80,0,1
83757,-55.5555555555556,4,2,1,80,0,1
84048,-100,4,2,1,50,0,0
88708,-125,4,2,1,50,0,0
89582,-166.666666666667,4,2,1,50,0,0
91475,-166.666666666667,4,2,1,60,0,0
98029,-166.666666666667,4,2,1,60,0,0

[Colours]
Combo1 : 75,226,197
Combo2 : 79,159,240
Combo3 : 155,123,221
Combo4 : 153,209,90

[HitObjects]
454,81,165,6,0,L|463:37,2,45,6|2|2,2:2|2:2|2:2,0:0:0:0:
346,167,601,2,0,P|337:217|370:243,1,90,2|2,2:2|2:2,0:0:0:0:
467,279,1038,2,0,P|378:271|334:339,1,180,2|0,2:2|0:0,0:0:0:0:
333,339,1912,1,8,2:2:0:0:
248,301,2203,1,2,2:2:0:0:
248,301,2495,6,0,L|257:254,2,45,2|2|2,2:2|2:2|2:2,0:0:0:0:
65,376,2931,2,0,P|40:369|27:305,1,90,2|2,2:2|2:2,0:0:0:0:
4,204,3368,2,0,P|14:257|146:253,1,216,2|2,2:2|2:2,0:0:0:0:
32,84,4825,6,0,L|19:13,2,45,2|2|2,2:2|2:2|2:2,0:0:0:0:
150,162,5262,2,0,P|182:177|231:125,1,90,2|2,2:2|2:2,0:0:0:0:
264,76,5698,2,0,P|322:13|407:89,1,180,2|2,2:2|2:2,0:0:0:0:
490,196,6572,1,8,2:2:0:0:
490,196,6718,1,2,2:2:0:0:
490,196,7155,6,0,L|370:167,1,90,2|0,2:2|0:0,0:0:0:0:
466,276,7592,2,0,L|346:247,1,90,2|0,2:2|0:0,0:0:0:0:
442,358,8029,1,2,2:2:0:0:
439,353,8465,5,2,2:2:0:0:
363,249,8611,1,2,2:2:0:0:
242,253,8757,1,2,2:2:0:0:
171,359,8902,5,10,2:2:0:0:
138,371,9047,1,2,2:2:0:0:
88,368,9193,1,2,2:2:0:0:
60,334,9338,1,2,2:2:0:0:
60,290,9485,6,0,L|124:278,2,45,6|2|2,1:2|2:2|2:2,0:0:0:0:
13,211,9922,2,0,L|133:185,1,90,2|2,2:2|2:2,0:0:0:0:
187,49,10359,2,0,P|184:41|83:38,1,90,2|0,2:2|0:0,0:0:0:0:
28,56,10796,2,0,P|12:70|15:99,2,45,0|2|0,0:0|1:2|0:0,0:0:0:0:
111,106,11232,1,8,2:2:0:0:
111,106,11378,2,0,L|231:80,1,90,2|0,2:2|0:0,0:0:0:0:
370,216,11815,6,0,L|360:260,1,45,2|2,1:2|2:2,0:0:0:0:
207,180,12106,2,0,L|197:224,1,45,2|2,1:2|2:2,0:0:0:0:
279,244,12398,2,0,L|288:199,1,45,8|2,2:2|2:2,0:0:0:0:
198,86,12689,2,0,P|218:35|294:44,1,135,2|0,2:2|0:0,0:0:0:0:
366,112,13271,5,0,1:1:0:0:
366,112,13417,1,2,2:2:0:0:
505,76,13563,1,10,2:2:0:0:
414,20,13708,1,2,2:2:0:0:
454,159,13854,2,0,L|463:203,1,45,2|0,2:2|0:0,0:0:0:0:
360,260,14145,6,0,L|351:212,2,45,2|2|2,1:2|2:2|2:2,0:0:0:0:
504,320,14582,2,0,B|469:328|469:328|454:344|454:344|392:357,1,90,2|2,2:2|2:2,0:0:0:0:
360,260,15019,2,0,B|328:253|328:253|313:237|313:237|278:229,1,90,2|0,2:2|0:0,0:0:0:0:
263,362,15456,1,0,0:0:0:0:
263,362,15601,2,0,L|252:306,1,45,2|0,1:2|0:0,0:0:0:0:
161,336,15893,1,8,2:2:0:0:
161,336,16038,2,0,L|169:380,2,45,2|0|0,2:2|0:0|0:0,0:0:0:0:
12,214,16475,1,2,1:2:0:0:
24,228,18805,6,0,L|45:116,1,80.9999975280763,6|0,1:2|0:0,0:0:0:0:
42,136,19242,1,0,0:0:0:0:
166,2,19388,2,0,L|108:20,1,40.4999987640381,10|0,2:2|0:0,0:0:0:0:
194,79,19679,2,0,L|155:91,1,40.4999987640381,2|0,1:2|0:0,0:0:0:0:
242,196,19970,2,0,P|292:191|303:139,1,80.9999975280763,2|0,2:2|0:0,0:0:0:0:
308,155,20407,1,0,0:0:0:0:
330,0,20553,2,0,P|365:80|438:65,1,161.999995056153,10|0,2:2|1:1,0:0:0:0:
427,74,21427,6,0,P|432:103|415:120,1,40.4999987640381,2|0,2:2|1:1,0:0:0:0:
507,171,21718,2,0,P|481:185|459:175,1,40.4999987640381,10|0,2:2|0:0,0:0:0:0:
472,292,22009,2,0,P|449:272|451:249,1,40.4999987640381,2|0,1:2|0:0,0:0:0:0:
357,336,22300,2,0,P|367:308|390:302,1,40.4999987640381,2|0,2:2|0:0,0:0:0:0:
370,201,22592,2,0,L|343:196,3,26.9999991760254,0|0|0|8,0:0|0:0|0:0|2:2,0:0:0:0:
215,371,23174,1,2,2:2:0:0:
21,268,23465,5,0,1:1:0:0:
21,268,23757,2,0,P|49:237|104:258,2,80.9999975280763,2|10|2,2:2|2:2|1:2,0:0:0:0:
215,371,24631,2,0,L|229:300,1,40.4999987640381,2|0,2:2|0:0,0:0:0:0:
135,357,24922,2,0,L|149:286,1,40.4999987640381,2|0,2:2|0:0,0:0:0:0:
216,172,25213,2,0,P|226:210|199:244,1,80.9999975280763,10|2,2:2|2:2,0:0:0:0:
17,151,25796,6,0,L|181:109,1,116.999994644165,2|0,1:2|0:0,0:0:0:0:
0,71,26232,2,0,L|164:29,1,116.999994644165,2|0,1:2|0:0,0:0:0:0:
289,97,26669,2,0,P|326:167|215:171,1,233.999989288331,2|0,1:2|1:1,0:0:0:0:
215,171,27398,1,0,0:0:0:0:
127,225,27543,1,10,2:2:0:0:
127,225,27689,1,2,2:2:0:0:
158,318,27834,1,2,2:2:0:0:
158,318,28126,6,0,P|211:366|268:333,1,121.499996292114,2|0,1:2|0:0,0:0:0:0:
405,248,28708,2,0,L|414:287,1,40.4999987640381,10|0,2:2|0:0,0:0:0:0:
323,275,28999,2,0,L|332:314,1,40.4999987640381,2|0,1:2|0:0,0:0:0:0:
465,384,29291,2,0,P|478:337|512:323,1,80.9999975280763,2|0,2:2|0:0,0:0:0:0:
512,322,29728,1,0,0:0:0:0:
405,248,29873,2,0,L|383:156,2,80.9999975280763,8|2|0,2:2|2:2|1:1,0:0:0:0:
512,141,30747,6,0,P|502:158|484:166,1,40.4999987640381,2|0,2:2|1:1,0:0:0:0:
443,36,31038,2,0,P|450:54|444:73,1,40.4999987640381,10|0,2:2|0:0,0:0:0:0:
322,38,31330,2,0,P|340:44|352:60,1,40.4999987640381,2|0,1:2|0:0,0:0:0:0:
250,146,31621,2,0,P|266:135|286:137,1,40.4999987640381,2|0,2:2|0:0,0:0:0:0:
386,169,31912,2,0,L|395:210,3,26.9999991760254,0|0|0|8,0:0|0:0|0:0|2:2,0:0:0:0:
206,18,32495,1,2,2:2:0:0:
53,121,32786,5,0,1:1:0:0:
53,121,33077,2,0,P|25:75|51:28,2,80.9999975280763,2|10|2,2:2|2:2|1:2,0:0:0:0:
152,294,33951,2,0,L|113:280,1,40.4999987640381,2|0,2:2|0:0,0:0:0:0:
183,215,34242,2,0,L|144:201,1,40.4999987640381,2|0,2:2|0:0,0:0:0:0:
3,289,34533,2,0,P|-2:311|54:357,1,80.9999975280763,10|2,2:2|2:2,0:0:0:0:
313,384,35116,6,0,B|301:323|301:323|283:305|283:305|272:247,1,144,10|0,1:2|0:0,0:0:0:0:
444,188,35553,2,0,B|454:243|454:243|472:261|472:261|484:322,1,144,10|0,1:2|0:0,0:0:0:0:
393,319,35990,2,0,L|400:357,2,36,10|0|0,1:2|0:0|0:0,0:0:0:0:
360,229,36281,5,2,3:2:0:0:
473,97,36427,1,10,2:2:0:0:
324,0,36572,2,0,P|326:29|376:50,1,72,10|0,2:2|0:0,0:0:0:0:
473,97,36864,2,0,P|390:70|339:172,1,175.499991966248,10|2,2:2|2:2,0:0:0:0:
334,141,37446,6,0,L|271:159,2,45,2|0|0,3:2|0:0|0:0,0:0:0:0:
239,83,37883,1,0,3:3:0:0:
167,20,38029,2,0,L|97:42,1,45,2|0,3:2|0:0,0:0:0:0:
159,13,38320,2,0,L|89:35,1,45,0|0,3:3|0:0,0:0:0:0:
41,95,38611,6,0,L|27:154,1,45,2|0,2:2|3:3,0:0:0:0:
35,146,38830,1,0,3:3:0:0:
39,153,38902,2,0,L|28:196,1,45,0|0,3:3|0:0,0:0:0:0:
143,155,39194,2,0,L|120:256,1,90,2|0,3:2|3:3,0:0:0:0:
34,313,39631,5,0,3:3:0:0:
27,319,39703,1,0,3:3:0:0:
20,324,39776,2,0,P|52:365|95:354,1,90,2|0,3:2|0:0,0:0:0:0:
105,351,40213,1,0,3:3:0:0:
213,304,40359,2,0,L|225:247,1,45,2|0,3:2|0:0,0:0:0:0:
206,294,40650,2,0,L|218:237,1,45,0|0,3:3|0:0,0:0:0:0:
260,381,40941,6,0,P|291:381|302:368,1,45,2|0,2:2|3:3,0:0:0:0:
306,367,41160,1,0,3:3:0:0:
311,359,41232,2,0,P|329:346|351:350,1,45,0|0,3:3|0:0,0:0:0:0:
497,351,41524,2,0,P|449:332|443:307,1,67.5,2|0,3:2|0:0,0:0:0:0:
436,296,41815,2,0,L|445:259,4,22.5,0|0|0|0|2,3:3|3:3|3:3|3:3|3:2,0:0:0:0:
512,144,42398,5,0,0:0:0:0:
512,144,42543,1,0,3:3:0:0:
377,11,42689,2,0,L|420:0,1,45,2|0,3:2|0:0,0:0:0:0:
403,95,42980,2,0,L|446:83,1,45,2|0,3:2|0:0,0:0:0:0:
374,189,43271,2,0,L|330:177,1,45,2|0,2:2|3:3,0:0:0:0:
327,169,43490,1,0,3:3:0:0:
323,160,43563,2,0,L|279:148,1,45,2|0,3:2|0:0,0:0:0:0:
210,29,43854,2,0,P|236:9|275:13,1,67.5,2|0,3:2|0:0,0:0:0:0:
277,14,44145,2,0,L|296:76,1,45,2|0,3:2|3:3,0:0:0:0:
184,152,44436,6,0,L|190:130,2,22.5,10|8|8,3:2|2:2|2:2,0:0:0:0:
166,235,44728,1,8,2:2:0:0:
166,235,44873,1,8,3:2:0:0:
108,77,45019,6,0,L|114:55,2,22.5,10|8|8,3:2|2:2|2:2,0:0:0:0:
90,160,45311,1,8,3:2:0:0:
90,160,45456,1,8,2:2:0:0:
21,21,45601,6,0,L|27:0,2,22.5,10|8|8,2:2|2:2|3:2,0:0:0:0:
3,104,45893,1,10,3:2:0:0:
3,104,46038,1,8,2:2:0:0:
210,29,46184,5,2,3:2:0:0:
210,29,46330,1,0,0:0:0:0:
90,160,46475,5,0,3:3:0:0:
90,160,46621,1,0,3:3:0:0:
11,233,46766,6,0,P|-1:297|54:318,1,116.999994644165,10|0,1:2|0:0,0:0:0:0:
54,320,47203,1,8,3:2:0:0:
246,223,47349,2,0,L|132:250,1,116.999994644165,10|8,1:2|3:2,0:0:0:0:
121,254,47786,1,0,0:0:0:0:
271,321,47931,2,0,L|157:348,1,116.999994644165,2|8,1:2|3:2,0:0:0:0:
146,352,48368,1,0,0:0:0:0:
341,195,48514,2,0,P|317:135|264:138,1,116.999994644165,10|0,1:2|3:3,0:0:0:0:
117,119,48951,5,0,3:3:0:0:
113,127,49024,1,0,3:3:0:0:
109,135,49097,2,0,L|191:154,2,58.4999973220826,10|0|0,1:2|0:0|0:0,0:0:0:0:
38,53,49533,1,8,3:2:0:0:
188,38,49679,2,0,L|131:24,1,58.4999973220826,10|0,1:2|0:0,0:0:0:0:
202,32,49970,2,0,L|145:18,1,58.4999973220826,10|0,3:2|0:0,0:0:0:0:
271,133,50262,6,0,P|273:98|299:70,1,58.4999973220826,2|8,1:2|3:2,0:0:0:0:
296,73,50480,1,0,3:3:0:0:
305,66,50553,2,0,P|319:41|319:12,1,58.4999973220826,10|0,3:2|0:0,0:0:0:0:
393,143,50844,2,0,P|442:143|462:106,1,87.749995983124,10|0,1:2|0:0,0:0:0:0:
466,104,51135,2,0,L|446:36,1,58.4999973220826,0|0,3:3|3:3,0:0:0:0:
331,213,51427,6,0,L|314:269,1,58.4999973220826,10|8,1:2|2:2,0:0:0:0:
416,238,51718,2,0,L|399:294,1,58.4999973220826,8|8,1:2|2:2,0:0:0:0:
129,313,52009,6,0,L|146:369,1,58.4999973220826,10|8,1:2|2:2,0:0:0:0:
215,285,52300,2,0,L|232:341,1,58.4999973220826,8|8,1:2|2:2,0:0:0:0:
242,368,52519,5,8,2:2:0:0:
242,368,52592,1,10,1:2:0:0:
146,214,52737,1,8,1:2:0:0:
42,369,52883,1,8,1:2:0:0:
0,270,53029,5,8,1:2:0:0:
2,264,53101,1,8,2:2:0:0:
4,258,53174,1,10,1:2:0:0:
146,214,53320,1,8,1:2:0:0:
0,144,53465,5,8,1:2:0:0:
129,313,53611,1,8,1:2:0:0:
223,110,53757,1,2,1:1:0:0:
223,110,54922,5,10,2:2:0:0:
0,144,55067,1,10,2:2:0:0:
99,5,55213,1,10,2:2:0:0:
146,214,55359,1,10,2:2:0:0:
286,34,55504,6,0,L|365:8,1,58.4999973220826,10|2,2:2|2:2,0:0:0:0:
322,111,55796,2,0,L|361:100,1,40.4999987640381,10|0,2:2|0:0,0:0:0:0:
423,37,56087,5,6,1:1:0:0:
308,211,56232,1,2,2:2:0:0:
512,238,56378,1,2,2:2:0:0:
453,116,56524,1,2,2:2:0:0:
419,210,56669,2,0,B|428:175|428:175|442:162|442:162|451:128,1,90,8|0,2:2|0:0,0:0:0:0:
382,314,56961,5,2,1:2:0:0:
512,238,57106,1,2,2:2:0:0:
301,213,57252,1,2,2:2:0:0:
512,384,57398,2,0,P|435:301|370:325,1,180,2|0,2:2|0:0,0:0:0:0:
240,368,57834,6,0,P|152:361|154:294,1,135,10|0,2:2|0:0,0:0:0:0:
200,276,58126,2,0,P|182:318|123:322,1,90,2|0,2:2|0:0,0:0:0:0:
0,213,58417,5,2,1:2:0:0:
132,184,58563,1,2,2:2:0:0:
28,346,58708,1,2,1:2:0:0:
137,176,58854,1,2,2:2:0:0:
31,44,58999,2,0,L|51:131,1,90,8|0,2:2|0:0,0:0:0:0:
81,264,59291,5,2,1:2:0:0:
192,93,59436,1,2,2:2:0:0:
51,131,59582,1,2,2:2:0:0:
271,216,59728,1,2,2:2:0:0:
316,0,59873,6,0,B|302:56|302:56|307:80|307:80|290:152,1,135,2|0,1:2|0:0,0:0:0:0:
380,131,60164,2,0,B|391:80|391:80|386:55|386:55|400:0,1,135,8|0,2:2|0:0,0:0:0:0:
482,36,60456,2,0,B|475:64|475:64|478:81|478:81|470:116,1,80.9999975280763,2|0,2:2|0:0,0:0:0:0:
378,223,60747,2,0,P|377:272|420:298,1,90,2|0,1:2|0:0,0:0:0:0:
512,372,61038,6,0,L|482:233,1,135,2|0,2:2|0:0,0:0:0:0:
407,296,61330,2,0,L|426:394,1,90,10|0,2:2|0:0,0:0:0:0:
253,237,61621,2,0,P|215:247|220:343,1,135,2|0,1:2|0:0,0:0:0:0:
306,332,61912,6,0,B|235:345|235:345|211:369|211:369|138:384,1,180,2|2,2:2|1:3,0:0:0:0:
0,316,62349,1,2,2:2:0:0:
105,292,62495,2,0,L|17:311,1,90,8|0,2:2|0:0,0:0:0:0:
0,209,62786,2,0,L|87:190,1,90,2|0,2:2|0:0,0:0:0:0:
317,107,63077,6,0,P|247:207|166:153,1,225,10|10,1:2|2:2,0:0:0:0:
0,2,63514,2,0,P|70:102|151:48,1,225,10|8,1:2|2:2,0:0:0:0:
330,14,63951,6,0,B|286:3|286:3|262:11|262:11|229:5,1,103.500001974106,10|8,1:2|2:2,0:0:0:0:
142,65,64242,1,8,2:2:0:0:
142,65,64315,1,8,2:2:0:0:
142,65,64388,1,8,2:2:0:0:
237,110,64533,1,10,1:2:0:0:
237,110,64679,1,8,2:2:0:0:
56,200,64825,6,0,P|143:215|117:286,1,155.250002961159,10|0,2:2|0:0,0:0:0:0:
8,344,65116,2,0,P|26:299|72:303,1,80.9999975280763,2|0,2:2|0:0,0:0:0:0:
125,357,65407,5,6,1:2:0:0:
261,233,65553,1,2,2:2:0:0:
140,264,65698,1,2,2:2:0:0:
306,384,65844,1,2,2:2:0:0:
414,272,65990,2,0,L|306:301,1,90,8|0,2:2|0:0,0:0:0:0:
512,254,66281,5,2,1:2:0:0:
344,180,66427,1,2,2:2:0:0:
497,351,66572,1,2,2:2:0:0:
337,173,66718,2,0,P|325:108|432:73,1,180,2|0,2:2|0:0,0:0:0:0:
512,254,67155,2,0,P|442:248|451:170,1,135,10|0,2:2|0:0,0:0:0:0:
475,130,67446,2,0,P|467:177|428:193,1,90,2|0,2:2|0:0,0:0:0:0:
224,143,67737,5,2,1:2:0:0:
318,64,67883,1,2,2:2:0:0:
182,13,68029,1,2,1:2:0:0:
344,180,68174,1,2,2:2:0:0:
203,230,68320,2,0,L|223:142,1,90,8|0,2:2|0:0,0:0:0:0:
181,319,68611,5,2,1:2:0:0:
14,185,68757,1,2,2:2:0:0:
193,328,68902,1,2,2:2:0:0:
59,384,69048,1,2,2:2:0:0:
105,218,69194,6,0,B|101:247|101:247|84:266|84:266|78:301,1,90,2|0,1:2|0:0,0:0:0:0:
222,141,69485,2,0,P|159:143|133:85,1,135,8|0,2:2|0:0,0:0:0:0:
105,1,69776,2,0,P|106:64|48:90,1,135,2|0,2:2|0:0,0:0:0:0:
13,12,70067,5,2,1:2:0:0:
354,74,70359,2,0,L|216:50,1,135,2|0,2:2|0:0,0:0:0:0:
222,141,70650,2,0,L|336:162,1,90,10|0,2:2|0:0,0:0:0:0:
467,19,70941,2,0,B|477:74|477:74|462:106|462:106|479:179,1,135,2|0,1:2|0:0,0:0:0:0:
416,258,71232,6,0,P|443:145|497:166,1,180,2|2,2:2|1:3,0:0:0:0:
512,235,71669,1,2,2:2:0:0:
365,384,71815,2,0,L|463:355,1,90,8|0,2:2|0:0,0:0:0:0:
415,257,72106,2,0,L|329:283,1,90,2|0,2:2|0:0,0:0:0:0:
141,342,72398,6,0,P|66:369|32:255,1,225,10|10,1:2|2:2,0:0:0:0:
294,102,72834,2,0,P|284:202|185:188,1,225,10|8,1:2|2:2,0:0:0:0:
52,7,73271,6,0,B|12:18|32:76|32:76|151:94,1,155.250002961159,10|0,1:2|0:0,0:0:0:0:
201,99,73563,1,8,2:2:0:0:
30,256,73708,1,8,2:2:0:0:
185,188,73854,2,0,L|72:172,1,103.500001974106,2|0,1:2|0:0,0:0:0:0:
290,378,74145,6,0,B|226:369|226:369|208:352|208:352|141:342,1,157.5,10|0,2:2|0:0,0:0:0:0:
131,339,74728,6,0,P|235:326|186:185,1,297.000009063721,6|0,1:2|0:0,0:0:0:0:
81,59,75310,2,0,P|40:155|186:183,1,297.000009063721,10|0,2:2|1:1,0:0:0:0:
347,155,75893,2,0,P|283:71|186:184,1,297.000009063721,2|0,2:2|0:0,0:0:0:0:
284,304,76475,2,0,L|431:273,1,148.50000453186,10|0,2:2|0:0,0:0:0:0:
427,362,76766,2,0,L|331:384,1,99.0000030212403,2|0,2:2|0:0,0:0:0:0:
416,79,77058,6,0,P|398:180|340:117,1,198.000006042481,2|2,1:2|1:3,0:0:0:0:
191,0,77495,2,0,B|253:15|253:15|270:42|270:42|345:62,1,148.50000453186,2|0,2:2|0:0,0:0:0:0:
321,55,77786,1,2,2:2:0:0:
190,91,77931,2,0,L|94:66,1,99.0000030212403,2|0,2:2|1:1,0:0:0:0:
272,210,78223,2,0,P|258:288|142:258,1,198.000006042481,2|2,2:2|1:3,0:0:0:0:
20,186,78660,1,0,0:0:0:0:
140,384,78805,6,0,L|159:266,1,101.250003862381,10|0,2:2|0:0,0:0:0:0:
51,372,79097,2,0,L|67:272,1,101.250003862381,2|0,2:2|0:0,0:0:0:0:
187,115,79388,6,0,P|149:235|15:168,1,297.000009063721,2|0,1:2|0:0,0:0:0:0:
270,149,79970,2,0,P|156:198|151:29,1,337.5,10|0,2:2|1:1,0:0:0:0:
297,239,80553,2,0,P|185:180|359:113,1,377.999988464356,2|0,2:2|0:0,0:0:0:0:
486,166,81135,6,0,L|516:57,1,99.0000030212403,10|0,2:2|0:0,0:0:0:0:
428,48,81427,2,0,L|401:143,1,99.0000030212403,2|0,2:2|0:0,0:0:0:0:
294,356,81718,6,0,P|298:292|436:298,1,198.000006042481,2|2,1:2|1:3,0:0:0:0:
179,149,82155,2,0,P|271:149|296:238,1,198.000006042481,2|0,2:2|0:0,0:0:0:0:
4,329,82592,1,2,2:2:0:0:
190,251,82737,2,0,B|118:271|118:271|93:305|93:305|15:326,1,198.000006042481,0|0,1:1|0:0,0:0:0:0:
186,378,83174,2,0,P|161:331|108:333,1,99.0000030212403,2|0,1:3|0:0,0:0:0:0:
31,155,83465,6,0,P|14:49|172:59,1,283.499991348267,10|0,2:2|0:0,0:0:0:0:
231,85,84048,6,0,P|271:102|333:40,1,135,6|2,2:2|2:2,0:0:0:0:
509,162,84922,2,0,P|469:179|445:80,1,180,2|2,2:2|2:2,0:0:0:0:
442,81,85796,1,2,2:2:0:0:
376,224,85941,2,0,L|399:316,1,90,2|0,2:2|0:0,0:0:0:0:
482,351,86378,6,0,P|449:321|406:327,1,90,2|0,2:2|0:0,0:0:0:0:
322,364,86815,2,0,P|278:369|246:340,1,90,2|0,2:2|0:0,0:0:0:0:
128,259,87252,2,0,P|69:240|84:345,1,180,2|2,2:2|2:2,0:0:0:0:
146,353,88126,1,2,2:2:0:0:
146,353,88271,1,2,2:2:0:0:
18,169,88708,6,0,P|20:111|88:104,1,108,2|2,2:2|2:2,0:0:0:0:
222,170,89582,2,0,P|153:156|159:116,1,107.999996704102,2|2,2:2|2:2,0:0:0:0:
180,46,91475,1,2,2:2:0:0:
256,192,91621,12,0,98029,0:0:0:0:
