osu file format v14

[General]
AudioFilename: audio.mp3
AudioLeadIn: 0
PreviewTime: 55431
Countdown: 0
SampleSet: Soft
StackLeniency: 0.8
Mode: 0
LetterboxInBreaks: 0
WidescreenStoryboard: 1

[Editor]
DistanceSpacing: 0.2
BeatDivisor: 8
GridSize: 16
TimelineZoom: 1.7

[Metadata]
Title:Target for Love
TitleUnicode:Target for Love
Artist:Lee Jin Ah
ArtistUnicode:이진아
Creator:KeyWee
Version:Riana's Insane
Source:ブルーアーカイブ -Blue Archive-
Tags:Korean Pop K-Pop Kpop midorijeon Riana Video Game Blue Archive Yostar Nat Games
BeatmapID:4439524
BeatmapSetID:2113613

[Difficulty]
HPDrainRate:5
CircleSize:4
OverallDifficulty:8
ApproachRate:8.5
SliderMultiplier:1.6
SliderTickRate:1

[Events]
//Background and Video events
0,0,"BA BG.jpg",0,0
//Break Periods
//Storyboard Layer 0 (Background)
//Storyboard Layer 1 (Fail)
//Storyboard Layer 2 (Pass)
//Storyboard Layer 3 (Foreground)
//Storyboard Layer 4 (Overlay)
//Storyboard Sound Samples

[TimingPoints]
165,582.52427184466,4,2,1,50,1,0
165,-100,4,2,1,50,0,0
9485,-100,4,2,1,55,0,0
18805,-111.111111111111,4,2,1,60,0,0
25796,-76.9230769230769,4,2,1,60,0,0
27543,-76.9230769230769,4,2,2,60,0,0
27689,-76.9230769230769,4,2,1,60,0,0
28126,-111.111111111111,4,2,1,60,0,0
35116,-62.5,4,2,3,60,0,0
35698,-62.5,4,2,1,60,0,0
35990,-62.5,4,2,3,60,0,0
36281,-62.5,4,2,1,60,0,0
36427,-62.5,4,2,4,60,0,0
36864,-76.9230769230769,4,2,5,60,0,0
37009,-76.9230769230769,4,2,6,60,0,0
37446,-100,4,2,6,65,0,0
46184,-100,4,2,2,65,0,0
46766,-76.9230769230769,4,2,7,70,0,0
47931,-76.9230769230769,4,2,1,70,0,0
48077,-76.9230769230769,4,2,7,70,0,0
50262,-76.9230769230769,4,2,1,70,0,0
50407,-76.9230769230769,4,2,7,70,0,0
51427,-76.9230769230769,4,2,6,70,0,0
53757,-76.9230769230769,4,2,1,70,0,0
54922,-76.9230769230769,4,2,3,70,0,0
55067,-76.9230769230769,4,2,4,70,0,0
55359,-76.9230769230769,4,2,3,70,0,0
55504,-76.9230769230769,4,2,8,70,0,0
55650,-76.9230769230769,4,2,9,70,0,0
55796,-166.666666666667,4,2,9,70,0,0
56087,-50,4,2,2,80,0,1
56232,-50,4,2,1,80,0,1
56378,-50,4,2,10,80,0,1
56524,-50,4,2,9,80,0,1
56961,-50,4,2,10,80,0,1
57106,-50,4,2,1,80,0,1
57834,-50,4,2,9,80,0,1
58126,-50,4,2,10,80,0,1
58417,-50,4,2,4,80,0,1
58708,-50,4,2,10,80,0,1
58854,-50,4,2,9,80,0,1
59291,-50,4,2,10,80,0,1
59436,-50,4,2,1,80,0,1
59873,-50,4,2,10,80,0,1
60164,-50,4,2,9,80,0,1
60456,-83.3333333333333,4,2,10,80,0,1
60747,-50,4,2,4,80,0,1
61038,-50,4,2,10,80,0,1
61330,-50,4,2,9,80,0,1
61621,-50,4,2,10,80,0,1
61912,-50,4,2,1,80,0,1
62203,-50,4,2,2,80,0,1
62349,-50,4,2,9,80,0,1
62786,-50,4,2,10,80,0,1
63077,-40,4,2,11,80,0,1
63150,-40,4,2,12,80,0,1
63514,-40,4,2,11,80,0,1
63660,-40,4,2,10,80,0,1
63732,-40,4,2,6,80,0,1
63951,-43.4782608695652,4,2,13,80,0,1
64097,-43.4782608695652,4,2,12,80,0,1
64825,-43.4782608695652,4,2,14,80,0,1
65116,-83.3333333333333,4,2,10,80,0,1
65407,-50,4,2,4,80,0,1
65698,-50,4,2,10,80,0,1
65844,-50,4,2,9,80,0,1
66281,-50,4,2,10,80,0,1
66427,-50,4,2,1,80,0,1
67155,-50,4,2,9,80,0,1
67446,-50,4,2,10,80,0,1
67737,-50,4,2,4,80,0,1
68029,-50,4,2,10,80,0,1
68174,-50,4,2,9,80,0,1
68611,-50,4,2,10,80,0,1
68757,-50,4,2,1,80,0,1
69194,-50,4,2,10,80,0,1
69485,-50,4,2,9,80,0,1
69776,-50,4,2,10,80,0,1
70067,-50,4,2,4,80,0,1
70359,-50,4,2,10,80,0,1
70650,-50,4,2,9,80,0,1
70941,-50,4,2,10,80,0,1
71232,-50,4,2,1,80,0,1
71524,-50,4,2,2,80,0,1
71669,-50,4,2,9,80,0,1
72106,-50,4,2,10,80,0,1
72398,-40,4,2,11,80,0,1
72470,-40,4,2,12,80,0,1
72834,-40,4,2,11,80,0,1
72980,-40,4,2,10,80,0,1
73053,-40,4,2,6,80,0,1
73271,-43.4782608695652,4,2,13,80,0,1
73417,-43.4782608695652,4,2,6,80,0,1
73563,-43.4782608695652,4,2,1,80,0,1
73708,-43.4782608695652,4,2,6,80,0,1
73854,-43.4782608695652,4,2,10,80,0,1
74145,-100,4,2,15,80,0,0
74728,-45.4545454545455,4,2,4,80,0,1
75019,-45.4545454545455,4,2,1,80,0,1
75310,-45.4545454545455,4,2,9,80,0,1
75601,-45.4545454545455,4,2,2,80,0,1
75893,-45.4545454545455,4,2,1,80,0,1
76184,-45.4545454545455,4,2,2,80,0,1
76475,-45.4545454545455,4,2,9,80,0,1
76766,-45.4545454545455,4,2,10,80,0,1
77058,-45.4545454545455,4,2,4,80,0,1
77349,-45.4545454545455,4,2,2,80,0,1
77495,-45.4545454545455,4,2,9,80,0,1
77931,-45.4545454545455,4,2,10,80,0,1
78223,-45.4545454545455,4,2,1,80,0,1
78514,-45.4545454545455,4,2,2,80,0,1
78805,-66.6666666666667,4,2,9,80,0,1
79097,-66.6666666666667,4,2,10,80,0,1
79388,-45.4545454545455,4,2,4,80,0,1
79679,-45.4545454545455,4,2,1,80,0,1
79970,-45.4545454545455,4,2,9,80,0,1
80262,-45.4545454545455,4,2,2,80,0,1
80553,-33.3333333333333,4,2,1,80,0,1
80844,-33.3333333333333,4,2,2,80,0,1
81135,-45.4545454545455,4,2,9,80,0,1
81427,-45.4545454545455,4,2,10,80,0,1
81718,-45.4545454545455,4,2,4,80,0,1
82009,-45.4545454545455,4,2,2,80,0,1
82155,-45.4545454545455,4,2,9,80,0,1
82592,-45.4545454545455,4,2,10,80,0,1
83174,-45.4545454545455,4,2,2,80,0,1
83465,-55.5555555555556,4,2,9,80,0,1
83757,-55.5555555555556,4,2,1,80,0,1
84048,-100,4,2,1,50,0,0
88708,-125,4,2,1,50,0,0
89582,-166.666666666667,4,2,1,50,0,0
91475,-166.666666666667,4,2,1,60,0,0
98029,-166.666666666667,4,2,1,60,0,0

[Colours]
Combo1 : 75,226,197
Combo2 : 79,159,240
Combo3 : 155,123,221
Combo4 : 153,209,90

[HitObjects]
64,220,9485,6,0,P|159:203|212:193,1,120,6|2,1:2|2:2,0:0:0:0:
182,198,10067,2,0,L|186:170,1,20,8|0,2:2|0:0,0:0:0:0:
263,229,10359,2,0,L|293:54,1,160,2|2,2:2|1:2,0:0:0:0:
371,71,11232,2,0,L|375:43,1,20,8|0,2:2|0:0,0:0:0:0:
475,188,11815,6,0,P|380:205|327:215,1,120,2|2,1:2|2:2,0:0:0:0:
357,210,12397,2,0,L|353:238,1,20,8|0,2:2|0:0,0:0:0:0:
246,329,12689,2,0,P|190:346|118:270,1,160,2|0,2:2|1:1,0:0:0:0:
24,285,13563,2,0,L|20:257,1,20,10|0,2:2|0:0,0:0:0:0:
448,164,14145,6,0,P|353:181|300:191,1,120,2|2,1:2|2:2,0:0:0:0:
330,186,14727,2,0,L|326:214,1,20,8|0,2:2|0:0,0:0:0:0:
249,155,15019,2,0,L|219:330,1,160,2|2,2:2|1:2,0:0:0:0:
141,313,15892,2,0,L|137:341,1,20,8|0,2:2|0:0,0:0:0:0:
336,377,16475,6,0,P|426:382|481:387,2,120,2|2|2,1:2|2:2|2:2,0:0:0:0:
8,384,18805,6,0,P|44:381|120:324,1,107.999996704102,6|0,1:2|0:0,0:0:0:0:
117,345,19388,2,0,P|127:278|135:245,1,71.9999978027344,10|2,2:2|1:2,0:0:0:0:
252,215,19825,1,0,0:0:0:0:
262,235,19970,2,0,P|179:166|193:138,1,143.999995605469,2|10,2:2|2:2,0:0:0:0:
406,87,20844,1,2,2:2:0:0:
347,177,21135,5,0,1:1:0:0:
347,177,21427,1,2,2:2:0:0:
394,196,21572,1,0,1:1:0:0:
447,188,21718,1,10,2:2:0:0:
488,156,21863,1,0,0:0:0:0:
507,107,22009,1,2,1:2:0:0:
512,288,22300,6,0,P|450:284|409:342,1,143.999995605469,2|8,2:2|2:2,0:0:0:0:
333,374,23174,1,2,2:2:0:0:
220,309,23465,5,0,1:1:0:0:
220,309,23757,2,0,P|150:296|126:295,1,71.9999978027344,2|10,2:2|2:2,0:0:0:0:
70,313,24194,1,0,0:0:0:0:
70,313,24339,1,2,1:2:0:0:
93,184,24631,2,0,P|84:131|76:98,1,71.9999978027344,2|2,2:2|2:2,0:0:0:0:
181,94,25213,2,0,P|172:41|164:8,1,71.9999978027344,10|2,2:2|2:2,0:0:0:0:
271,3,25796,6,0,P|316:-10|372:62,1,103.999995239258,2|0,1:2|0:0,0:0:0:0:
445,60,26232,1,2,1:2:0:0:
431,131,26378,1,8,2:2:0:0:
373,173,26524,1,0,0:0:0:0:
301,159,26669,2,0,L|289:248,1,51.999997619629,2|0,1:2|0:0,0:0:0:0:
378,264,26961,6,0,P|391:319|405:376,1,103.999995239258,0|0,0:0|1:1,0:0:0:0:
256,362,27543,5,10,2:2:0:0:
189,384,27689,1,2,2:2:0:0:
139,330,27834,1,2,2:2:0:0:
205,68,28126,6,0,P|169:71|93:128,1,107.999996704102,2|0,1:2|0:0,0:0:0:0:
101,119,28709,2,0,P|91:186|83:219,1,71.9999978027344,10|2,2:2|1:2,0:0:0:0:
197,185,29146,1,0,0:0:0:0:
187,165,29291,2,0,P|270:234|256:262,1,143.999995605469,2|8,2:2|2:2,0:0:0:0:
368,297,30164,6,0,P|403:289|467:275,1,71.9999978027344,2|0,2:2|1:1,0:0:0:0:
472,177,30748,1,2,2:2:0:0:
478,128,30893,1,0,1:1:0:0:
483,77,31039,1,10,2:2:0:0:
391,16,31330,1,2,1:2:0:0:
232,149,31621,6,0,P|294:153|335:95,1,143.999995605469,2|8,2:2|2:2,0:0:0:0:
195,60,32495,1,2,2:2:0:0:
57,152,32786,5,0,1:1:0:0:
57,152,33078,2,0,P|127:165|151:166,1,71.9999978027344,2|10,2:2|2:2,0:0:0:0:
196,209,33515,1,0,0:0:0:0:
196,209,33660,1,2,1:2:0:0:
425,218,33952,2,0,P|434:271|442:304,1,71.9999978027344,2|2,2:2|2:2,0:0:0:0:
353,301,34534,2,0,P|362:354|370:387,1,71.9999978027344,10|2,2:2|2:2,0:0:0:0:
215,273,35117,6,0,P|170:286|116:229,1,128,10|0,1:2|0:0,0:0:0:0:
80,331,35553,1,10,1:2:0:0:
0,346,35698,2,0,P|-3:292|41:257,1,96,8|0,2:2|0:0,0:0:0:0:
36,262,35990,2,0,L|49:172,1,64,10|0,1:2|0:0,0:0:0:0:
0,43,36281,5,2,3:2:0:0:
50,97,36427,1,10,2:2:0:0:
120,78,36572,1,10,2:2:0:0:
201,201,36864,5,10,2:2:0:0:
233,236,37009,2,0,L|221:295,2,51.999997619629,2|2|2,2:2|2:2|2:2,0:0:0:0:
291,351,37446,6,0,P|361:317|410:304,1,120,2|0,3:2|3:3,0:0:0:0:
482,255,38029,2,0,L|510:129,1,120,2|0,3:2|0:0,0:0:0:0:
397,95,38611,2,0,L|406:55,1,40,2|0,2:2|3:3,0:0:0:0:
326,39,38829,1,0,3:3:0:0:
326,39,38902,2,0,L|334:0,1,40,0|0,3:3|0:0,0:0:0:0:
200,11,39194,6,0,P|163:27|151:35,3,40,2|0|0|0,3:2|0:0|3:3|3:3,0:0:0:0:
258,95,39776,6,0,P|188:129|139:142,1,120,2|0,3:2|3:3,0:0:0:0:
66,86,40359,2,0,L|30:210,1,120,2|0,3:2|0:0,0:0:0:0:
85,289,40941,2,0,L|76:329,1,40,2|0,2:2|3:3,0:0:0:0:
156,345,41159,1,0,3:3:0:0:
156,345,41232,2,0,L|148:384,1,40,0|0,3:3|0:0,0:0:0:0:
271,369,41524,6,0,P|308:353|320:345,3,40,2|0|0|0,3:2|0:0|3:3|3:3,0:0:0:0:
430,303,42106,2,0,P|366:290|357:235,1,120,2|0,3:2|3:3,0:0:0:0:
413,179,42689,2,0,P|422:128|425:87,1,80,2|2,3:2|3:2,0:0:0:0:
323,101,43126,1,0,0:0:0:0:
323,101,43271,2,0,P|332:50|335:9,1,80,2|2,2:2|3:2,0:0:0:0:
77,31,43854,5,2,3:2:0:0:
77,31,44145,1,2,3:2:0:0:
77,31,44436,6,0,L|70:-1,2,20,10|8|8,3:2|2:2|2:2,0:0:0:0:
61,107,44728,1,8,2:2:0:0:
41,186,44873,1,8,3:2:0:0:
21,265,45019,6,0,L|-11:272,2,20,10|8|8,3:2|2:2|2:2,0:0:0:0:
97,281,45311,1,8,3:2:0:0:
176,301,45456,1,8,2:2:0:0:
256,315,45601,6,0,L|263:347,2,20,10|8|8,2:2|2:2|3:2,0:0:0:0:
272,239,45893,1,10,3:2:0:0:
292,160,46038,1,8,2:2:0:0:
306,83,46184,6,0,L|437:54,1,120,2|0,3:2|3:3,0:0:0:0:
348,232,46766,6,0,P|364:293|378:341,1,103.999995239258,10|0,1:2|0:0,0:0:0:0:
160,243,47203,5,8,3:2:0:0:
160,243,47349,2,0,P|146:188|143:176,1,51.999997619629,10|0,1:2|0:0,0:0:0:0:
226,106,47640,2,0,P|240:161|243:173,1,51.999997619629,8|0,3:2|0:0,0:0:0:0:
180,319,47931,5,2,1:2:0:0:
103,338,48077,1,8,3:2:0:0:
83,263,48223,1,8,3:2:0:0:
277,279,48514,5,10,1:2:0:0:
338,280,48659,1,0,0:0:0:0:
376,233,48805,1,0,3:3:0:0:
378,177,48950,1,0,3:3:0:0:
315,110,49097,6,0,P|376:94|424:80,1,103.999995239258,10|0,1:2|0:0,0:0:0:0:
459,207,49534,5,8,3:2:0:0:
459,207,49680,2,0,P|473:262|476:274,1,51.999997619629,10|0,1:2|0:0,0:0:0:0:
395,339,49971,2,0,P|381:284|378:272,1,51.999997619629,10|0,3:2|0:0,0:0:0:0:
203,316,50262,5,2,1:2:0:0:
279,298,50408,1,8,3:2:0:0:
297,374,50554,1,10,3:2:0:0:
115,300,50845,5,10,1:2:0:0:
65,308,50990,1,0,0:0:0:0:
25,278,51136,1,0,3:3:0:0:
27,226,51281,1,0,3:3:0:0:
63,150,51427,6,0,L|51:95,1,51.999997619629,10|8,1:2|2:2,0:0:0:0:
136,134,51718,2,0,L|124:79,1,51.999997619629,8|8,1:2|2:2,0:0:0:0:
239,18,52009,6,0,L|227:73,1,51.999997619629,10|8,1:2|2:2,0:0:0:0:
312,34,52300,2,0,L|300:89,1,51.999997619629,8|8,1:2|2:2,0:0:0:0:
404,114,52592,5,10,1:2:0:0:
466,189,52737,1,8,1:2:0:0:
431,276,52883,1,8,1:2:0:0:
345,284,53029,2,0,L|333:330,2,25.9999988098145,8|8|10,1:2|2:2|1:2,0:0:0:0:
278,213,53320,1,8,1:2:0:0:
325,143,53465,2,0,L|312:99,4,25.9999988098145,8|8|8|8|2,1:2|0:0|1:2|0:0|1:2,0:0:0:0:
193,158,54922,5,10,0:0:0:0:
202,241,55067,1,10,0:0:0:0:
282,262,55213,1,10,0:0:0:0:
328,190,55359,1,10,0:0:0:0:
277,129,55504,1,10,0:0:0:0:
277,129,55796,5,10,0:0:0:0:
60,7,56087,5,6,1:1:0:0:
143,27,56232,1,2,2:2:0:0:
171,111,56378,1,2,2:2:0:0:
127,189,56524,2,0,P|162:248|295:241,1,200,2|0,2:2|0:0,0:0:0:0:
298,242,56961,5,2,1:2:0:0:
277,160,57106,1,2,2:2:0:0:
361,141,57252,1,2,2:2:0:0:
381,223,57398,1,2,2:2:0:0:
380,359,57834,5,10,2:2:0:0:
381,347,57980,1,0,0:0:0:0:
471,374,58126,2,0,L|449:291,1,80,2|0,2:2|0:0,0:0:0:0:
375,235,58417,5,2,1:2:0:0:
441,177,58563,1,2,2:2:0:0:
385,105,58708,1,2,1:2:0:0:
453,54,58854,2,0,L|221:27,1,200,2|0,2:2|0:0,0:0:0:0:
246,39,59291,5,2,1:2:0:0:
222,122,59436,1,2,2:2:0:0:
142,162,59582,1,2,2:2:0:0:
59,133,59728,2,0,L|39:52,2,80,2|2|0,2:2|1:2|0:0,0:0:0:0:
33,225,60164,6,0,L|97:235,1,40,8|0,2:2|0:0,0:0:0:0:
255,271,60456,5,2,2:2:0:0:
261,287,60601,1,0,0:0:0:0:
337,343,60747,2,0,L|354:203,1,120,2|0,1:2|0:0,0:0:0:0:
347,207,61038,2,0,P|401:212|459:109,2,160,2|10|2,2:2|2:2|1:2,0:0:0:0:
177,18,61912,5,2,2:2:0:0:
120,91,62058,2,0,L|140:174,1,80,2|2,2:2|1:3,0:0:0:0:
190,359,62349,1,2,2:2:0:0:
248,285,62495,2,0,L|228:202,1,80,8|0,2:2|0:0,0:0:0:0:
120,91,62786,2,0,L|140:174,1,80,2|0,2:2|0:0,0:0:0:0:
277,384,63077,6,0,P|333:363|332:229,1,200,10|10,1:2|2:2,0:0:0:0:
333,144,63514,5,10,1:2:0:0:
422,157,63660,2,0,L|502:171,2,50,8|8|8,2:2|2:2|2:2,0:0:0:0:
360,231,63951,1,10,1:2:0:0:
270,216,64097,1,8,2:2:0:0:
244,120,64242,2,0,L|164:105,2,46.0000008773804,8|0|0,2:2|0:0|0:0,0:0:0:0:
304,50,64533,1,10,1:2:0:0:
393,73,64679,1,8,2:2:0:0:
335,147,64825,5,10,2:2:0:0:
335,147,65116,5,2,2:2:0:0:
81,384,65407,5,6,1:2:0:0:
101,301,65552,1,2,2:2:0:0:
185,273,65698,1,2,2:2:0:0:
263,317,65844,2,0,P|322:282|315:149,1,200,2|0,2:2|0:0,0:0:0:0:
316,146,66281,5,2,1:2:0:0:
234,167,66426,1,2,2:2:0:0:
215,83,66572,1,2,2:2:0:0:
297,63,66718,1,2,2:2:0:0:
271,259,67154,5,10,2:2:0:0:
270,247,67300,1,0,0:0:0:0:
180,274,67446,2,0,L|202:191,1,80,2|0,2:2|0:0,0:0:0:0:
41,91,67737,5,2,1:2:0:0:
85,165,67883,1,2,2:2:0:0:
15,216,68028,1,2,1:2:0:0:
57,289,68174,2,0,P|115:363|227:347,1,200,2|0,2:2|0:0,0:0:0:0:
219,349,68611,5,2,1:2:0:0:
243,266,68756,1,2,2:2:0:0:
323,226,68902,1,2,2:2:0:0:
406,255,69048,2,0,L|429:48,1,200,2|0,2:2|0:0,0:0:0:0:
428,56,69484,6,0,L|364:46,1,40,8|0,2:2|0:0,0:0:0:0:
134,213,69776,5,2,2:2:0:0:
150,206,69921,1,0,0:0:0:0:
206,131,70067,2,0,L|66:114,1,120,2|0,1:2|0:0,0:0:0:0:
70,121,70358,2,0,P|75:67|-28:9,2,160,2|10|2,2:2|2:2|1:2,0:0:0:0:
137,345,71232,5,2,2:2:0:0:
220,384,71378,2,0,L|303:364,1,80,2|2,2:2|1:3,0:0:0:0:
496,282,71669,1,2,2:2:0:0:
412,248,71815,2,0,L|329:268,1,80,8|0,2:2|0:0,0:0:0:0:
220,384,72106,2,0,L|303:364,1,80,2|0,2:2|0:0,0:0:0:0:
334,283,72398,6,0,P|322:239|336:285,1,300,10|10,1:2|1:2,0:0:0:0:
227,178,72980,5,8,2:2:0:0:
227,178,73052,1,8,2:2:0:0:
227,178,73125,1,8,2:2:0:0:
165,104,73271,1,10,1:2:0:0:
75,119,73417,1,8,2:2:0:0:
44,208,73563,2,0,L|-10:221,2,46.0000008773804,8|0|8,2:2|0:0|2:2,0:0:0:0:
101,280,73853,1,2,1:2:0:0:
198,262,73999,1,0,0:0:0:0:
135,195,74145,5,10,2:2:0:0:
135,195,74436,5,0,0:0:0:0:
399,384,74728,6,0,L|471:102,1,264.000008056641,6|0,1:2|0:0,0:0:0:0:
290,88,75310,2,0,L|215:368,1,264.000008056641,10|0,2:2|1:1,0:0:0:0:
20,308,75893,6,0,L|-5:204,1,88.000002685547,2|0,2:2|0:0,0:0:0:0:
114,285,76184,2,0,L|89:181,1,88.000002685547,2|0,1:3|0:0,0:0:0:0:
199,121,76475,6,0,P|281:47|350:21,1,176.000005371094,10|2,2:2|0:0,0:0:0:0:
512,156,77058,6,0,P|429:232|352:201,1,176.000005371094,2|2,1:2|0:0,0:0:0:0:
413,325,77495,2,0,P|329:314|312:313,1,88.000002685547,2|8,2:2|2:2,0:0:0:0:
232,268,77786,1,2,2:2:0:0:
232,268,77932,2,0,P|220:351|219:368,1,88.000002685547,2|0,2:2|1:1,0:0:0:0:
15,384,78223,6,0,P|-4:257|94:169,1,264.000008056641,2|0,2:2|0:0,0:0:0:0:
169,180,78805,2,0,P|175:124|182:94,1,60.0000022888184,10|0,2:2|0:0,0:0:0:0:
87,170,79097,2,0,P|93:114|100:84,1,60.0000022888184,2|0,2:2|0:0,0:0:0:0:
270,83,79388,6,0,P|375:49|500:162,1,264.000008056641,2|0,1:2|0:0,0:0:0:0:
452,325,79970,2,0,P|337:358|226:258,1,264.000008056641,10|0,2:2|1:1,0:0:0:0:
304,190,80553,6,0,L|429:219,1,120.000004577637,2|0,2:2|0:0,0:0:0:0:
375,143,80844,2,0,L|347:260,1,120.000004577637,2|0,1:3|0:0,0:0:0:0:
167,384,81135,6,0,P|157:313|130:181,1,176.000005371094,10|2,2:2|2:2,0:0:0:0:
419,15,81718,6,0,P|355:83|280:71,1,176.000005371094,2|2,1:2|1:3,0:0:0:0:
176,92,82155,1,2,2:2:0:0:
176,92,82300,2,0,P|269:113|296:183,1,176.000005371094,8|2,2:2|2:2,0:0:0:0:
350,271,82737,2,0,P|324:180|372:121,1,176.000005371094,0|0,1:1|0:0,0:0:0:0:
220,234,83174,6,0,P|150:221|108:214,1,88.000002685547,2|0,1:3|0:0,0:0:0:0:
32,288,83465,6,0,P|21:183|1:-3,1,287.999991210938,10|6,2:2|2:2,0:0:0:0:
