osu file format v14

[General]
AudioFilename: audio.mp3
AudioLeadIn: 0
PreviewTime: 55431
Countdown: 0
SampleSet: Soft
StackLeniency: 0.4
Mode: 0
LetterboxInBreaks: 0
WidescreenStoryboard: 1

[Editor]
DistanceSpacing: 1.4
BeatDivisor: 4
GridSize: 16
TimelineZoom: 1.1

[Metadata]
Title:Target for Love
TitleUnicode:Target for Love
Artist:Lee Jin Ah
ArtistUnicode:이진아
Creator:KeyWee
Version:Normal
Source:ブルーアーカイブ -Blue Archive-
Tags:Korean Pop K-Pop Kpop midorijeon Riana Video Game Blue Archive Yostar Nat Games
BeatmapID:4437862
BeatmapSetID:2113613

[Difficulty]
HPDrainRate:3
CircleSize:3
OverallDifficulty:4
ApproachRate:5.5
SliderMultiplier:1.5
SliderTickRate:1

[Events]
//Background and Video events
0,0,"BA BG.jpg",0,0
//Break Periods
//Storyboard Layer 0 (Background)
//Storyboard Layer 1 (Fail)
//Storyboard Layer 2 (Pass)
//Storyboard Layer 3 (Foreground)
//Storyboard Layer 4 (Overlay)
//Storyboard Sound Samples

[TimingPoints]
165,582.52427184466,4,2,1,50,1,0
165,-100,4,2,1,50,0,0
9485,-100,4,2,1,55,0,0
18805,-100,4,2,1,60,0,0
27543,-100,4,2,2,60,0,0
27689,-100,4,2,1,60,0,0
35116,-100,4,2,3,60,0,0
35698,-100,4,2,1,60,0,0
35990,-100,4,2,3,60,0,0
36281,-100,4,2,1,60,0,0
36427,-100,4,2,4,60,0,0
36864,-100,4,2,5,60,0,0
37009,-100,4,2,6,60,0,0
37446,-100,4,2,6,65,0,0
46184,-100,4,2,2,65,0,0
46766,-100,4,2,7,70,0,0
47931,-100,4,2,1,70,0,0
48077,-100,4,2,7,70,0,0
50262,-100,4,2,1,70,0,0
50407,-100,4,2,7,70,0,0
51427,-100,4,2,6,70,0,0
53757,-100,4,2,1,70,0,0
54922,-100,4,2,3,70,0,0
55067,-100,4,2,4,70,0,0
55359,-100,4,2,3,70,0,0
55504,-100,4,2,8,70,0,0
55650,-100,4,2,9,70,0,0
56087,-100,4,2,2,80,0,1
56232,-100,4,2,1,80,0,1
56378,-100,4,2,10,80,0,1
56524,-100,4,2,9,80,0,1
56961,-100,4,2,10,80,0,1
57106,-100,4,2,1,80,0,1
57834,-100,4,2,9,80,0,1
58126,-100,4,2,10,80,0,1
58417,-100,4,2,4,80,0,1
58708,-100,4,2,10,80,0,1
58854,-100,4,2,9,80,0,1
59291,-100,4,2,10,80,0,1
59436,-100,4,2,1,80,0,1
59873,-100,4,2,10,80,0,1
60164,-100,4,2,9,80,0,1
60456,-100,4,2,10,80,0,1
60747,-100,4,2,4,80,0,1
61038,-100,4,2,10,80,0,1
61330,-100,4,2,9,80,0,1
61621,-100,4,2,10,80,0,1
61912,-100,4,2,1,80,0,1
62203,-100,4,2,2,80,0,1
62349,-100,4,2,9,80,0,1
62786,-100,4,2,10,80,0,1
63077,-100,4,2,11,80,0,1
63150,-100,4,2,12,80,0,1
63514,-100,4,2,11,80,0,1
63660,-100,4,2,10,80,0,1
63732,-100,4,2,6,80,0,1
63951,-100,4,2,13,80,0,1
64097,-100,4,2,12,80,0,1
64825,-100,4,2,14,80,0,1
65116,-100,4,2,10,80,0,1
65407,-100,4,2,4,80,0,1
65698,-100,4,2,10,80,0,1
65844,-100,4,2,9,80,0,1
66281,-100,4,2,10,80,0,1
66427,-100,4,2,1,80,0,1
67155,-100,4,2,9,80,0,1
67446,-100,4,2,10,80,0,1
67737,-100,4,2,4,80,0,1
68029,-100,4,2,10,80,0,1
68174,-100,4,2,9,80,0,1
68611,-100,4,2,10,80,0,1
68757,-100,4,2,1,80,0,1
69194,-100,4,2,10,80,0,1
69485,-100,4,2,9,80,0,1
69776,-100,4,2,10,80,0,1
70067,-100,4,2,4,80,0,1
70359,-100,4,2,10,80,0,1
70650,-100,4,2,9,80,0,1
70941,-100,4,2,10,80,0,1
71232,-100,4,2,1,80,0,1
71524,-100,4,2,2,80,0,1
71669,-100,4,2,9,80,0,1
72106,-100,4,2,10,80,0,1
72398,-100,4,2,11,80,0,1
72470,-100,4,2,12,80,0,1
72834,-100,4,2,11,80,0,1
72980,-100,4,2,10,80,0,1
73053,-100,4,2,6,80,0,1
73271,-100,4,2,13,80,0,1
73417,-100,4,2,6,80,0,1
73563,-100,4,2,1,80,0,1
73708,-100,4,2,6,80,0,1
73854,-100,4,2,10,80,0,1
74145,-100,4,2,15,80,0,0
74728,-100,4,2,4,80,0,1
75019,-100,4,2,1,80,0,1
75310,-100,4,2,9,80,0,1
75601,-100,4,2,2,80,0,1
75893,-100,4,2,1,80,0,1
76184,-100,4,2,2,80,0,1
76475,-100,4,2,9,80,0,1
76766,-100,4,2,10,80,0,1
77058,-100,4,2,4,80,0,1
77349,-100,4,2,2,80,0,1
77495,-100,4,2,9,80,0,1
77931,-100,4,2,10,80,0,1
78223,-100,4,2,1,80,0,1
78514,-100,4,2,2,80,0,1
78805,-100,4,2,9,80,0,1
79097,-100,4,2,10,80,0,1
79388,-100,4,2,4,80,0,1
79679,-100,4,2,1,80,0,1
79970,-100,4,2,9,80,0,1
80262,-100,4,2,2,80,0,1
80553,-100,4,2,1,80,0,1
80844,-100,4,2,2,80,0,1
81135,-100,4,2,9,80,0,1
81427,-100,4,2,10,80,0,1
81718,-100,4,2,4,80,0,1
82009,-100,4,2,2,80,0,1
82155,-100,4,2,9,80,0,1
82592,-100,4,2,10,80,0,1
83174,-100,4,2,2,80,0,1
83465,-100,4,2,9,80,0,1
83757,-100,4,2,1,80,0,1
84048,-100,4,2,1,50,0,0
91475,-100,4,2,1,60,0,0
98029,-100,4,2,1,60,0,0

[Colours]
Combo1 : 75,226,197
Combo2 : 79,159,240
Combo3 : 155,123,221
Combo4 : 153,209,90

[HitObjects]
438,32,165,6,0,L|454:165,1,112.5,6|2,2:2|2:2,0:0:0:0:
361,175,893,1,2,2:2:0:0:
361,175,1038,2,0,L|339:0,2,150,2|0|2,2:2|0:0|2:2,0:0:0:0:
440,232,2495,2,0,L|424:365,1,112.5,2|2,2:2|2:2,0:0:0:0:
332,346,3223,1,2,2:2:0:0:
332,346,3368,2,0,L|353:170,2,150,2|2|0,2:2|2:2|0:0,0:0:0:0:
239,377,4825,6,0,P|190:369|173:305,1,112.5,2|2,2:2|2:2,0:0:0:0:
244,250,5553,1,2,2:2:0:0:
244,250,5698,2,0,L|262:82,1,150,2|2,2:2|2:2,0:0:0:0:
206,25,6572,1,8,2:2:0:0:
206,25,6718,2,0,P|184:5|137:15,1,75,2|0,2:2|0:0,0:0:0:0:
98,32,7155,1,2,2:2:0:0:
10,149,7592,1,2,2:2:0:0:
154,168,8029,1,2,2:2:0:0:
63,282,8465,6,0,L|-3:272,2,37.5,2|2|2,2:2|2:2|2:2,0:0:0:0:
96,317,8902,2,0,L|159:326,1,37.5,10|2,2:2|2:2,0:0:0:0:
171,353,9194,2,0,L|234:362,1,37.5,2|2,2:2|2:2,0:0:0:0:
250,382,9485,5,6,1:2:0:0:
327,322,9776,1,2,2:2:0:0:
327,322,9922,2,0,L|434:338,1,75,2|2,2:2|2:2,0:0:0:0:
444,310,10359,2,0,P|481:284|446:182,1,150,2|2,2:2|1:2,0:0:0:0:
396,123,11232,1,8,2:2:0:0:
396,123,11378,1,2,2:2:0:0:
509,31,11815,6,0,L|498:107,2,75,2|2|8,1:2|1:2|2:2,0:0:0:0:
413,11,12689,2,0,B|358:2|358:2|332:16|332:16|260:6,1,150,2|0,2:2|1:1,0:0:0:0:
230,38,13417,1,2,2:2:0:0:
230,38,13563,2,0,L|219:95,2,37.5,10|2|2,2:2|2:2|2:2,0:0:0:0:
139,1,14145,5,2,1:2:0:0:
57,54,14436,1,2,2:2:0:0:
57,54,14582,2,0,L|74:161,1,75,2|2,2:2|2:2,0:0:0:0:
40,168,15019,2,0,P|18:223|87:282,1,150,2|2,2:2|1:2,0:0:0:0:
172,313,15893,1,8,2:2:0:0:
172,313,16038,1,2,2:2:0:0:
306,291,16475,2,0,P|312:365|253:387,2,112.5,2|2|2,1:2|2:2|2:2,0:0:0:0:
306,291,18805,6,0,P|332:233|271:175,1,150,6|10,1:2|2:2,0:0:0:0:
195,125,19679,1,2,1:2:0:0:
246,46,19970,2,0,L|352:29,1,75,2|0,2:2|0:0,0:0:0:0:
367,60,20407,1,0,0:0:0:0:
367,60,20553,2,0,L|473:43,1,75,10|2,2:2|2:2,0:0:0:0:
505,121,21135,5,0,1:1:0:0:
459,207,21427,2,0,L|384:218,2,75,2|10|2,2:2|2:2|1:2,0:0:0:0:
510,292,22300,2,0,L|352:317,1,150,2|8,2:2|2:2,0:0:0:0:
281,371,23174,1,2,2:2:0:0:
233,285,23465,5,0,1:1:0:0:
137,305,23757,2,0,L|124:378,2,75,2|10|2,2:2|2:2|1:2,0:0:0:0:
66,237,24631,2,0,P|44:207|49:171,1,75,2|2,2:2|2:2,0:0:0:0:
78,133,25067,1,0,0:0:0:0:
78,133,25213,2,0,L|90:59,1,75,10|2,2:2|2:2,0:0:0:0:
178,17,25796,6,0,P|242:23|254:69,1,112.5,2|2,1:2|1:2,0:0:0:0:
230,103,26378,2,0,L|220:161,1,37.5,8|0,2:2|0:0,0:0:0:0:
189,174,26669,2,0,P|225:245|300:232,1,150,2|0,1:2|1:1,0:0:0:0:
337,159,27543,2,0,L|397:168,2,37.5,10|2|2,2:2|2:2|2:2,0:0:0:0:
354,62,28126,6,0,L|507:83,1,150,2|10,1:2|2:2,0:0:0:0:
488,178,28999,1,2,1:2:0:0:
476,275,29291,2,0,L|374:260,1,75,2|0,2:2|0:0,0:0:0:0:
362,293,29728,1,0,0:0:0:0:
362,293,29873,2,0,L|260:278,1,75,8|2,2:2|2:2,0:0:0:0:
212,345,30456,1,0,1:1:0:0:
142,276,30747,6,0,L|124:171,2,75,2|10|2,2:2|2:2|1:2,0:0:0:0:
60,329,31621,2,0,L|31:162,1,150,2|8,2:2|2:2,0:0:0:0:
16,85,32495,1,2,2:2:0:0:
90,22,32786,5,0,1:1:0:0:
171,75,33077,2,0,L|187:157,2,75,2|10|2,2:2|2:2|1:2,0:0:0:0:
247,14,33951,2,0,P|293:14|315:51,1,75,2|2,2:2|2:2,0:0:0:0:
328,129,34533,2,0,P|355:152|391:148,1,75,10|2,2:2|2:2,0:0:0:0:
461,79,35116,5,10,1:2:0:0:
484,178,35407,1,0,0:0:0:0:
484,178,35553,2,0,L|500:265,1,75,10|0,1:2|0:0,0:0:0:0:
509,299,35990,1,10,1:2:0:0:
424,347,36281,2,0,L|434:395,2,37.5,2|10|10,3:2|2:2|2:2,0:0:0:0:
346,287,36864,2,0,P|314:261|233:334,1,150,10|2,2:2|3:2,0:0:0:0:
94,348,37883,5,0,3:3:0:0:
94,348,38029,2,0,L|106:272,1,75,2|0,3:2|3:3,0:0:0:0:
22,223,38611,2,0,L|34:147,1,75,2|0,2:2|3:3,0:0:0:0:
126,118,39194,2,0,L|138:42,1,75,2|0,3:2|3:3,0:0:0:0:
151,0,39631,1,0,3:3:0:0:
151,0,39776,1,2,3:2:0:0:
300,15,40213,5,0,3:3:0:0:
300,15,40359,2,0,L|288:91,1,75,2|0,3:2|3:3,0:0:0:0:
372,140,40941,2,0,L|360:216,1,75,2|0,2:2|3:3,0:0:0:0:
268,245,41524,2,0,L|256:321,1,75,2|0,3:2|3:3,0:0:0:0:
252,371,41961,1,0,3:3:0:0:
252,371,42106,1,2,3:2:0:0:
402,369,42543,5,0,3:3:0:0:
402,369,42689,2,0,P|450:370|466:327,1,75,2|2,3:2|3:2,0:0:0:0:
506,263,43271,2,0,P|507:215|464:199,1,75,2|2,2:2|3:2,0:0:0:0:
410,141,43854,1,2,3:2:0:0:
484,77,44145,1,2,3:2:0:0:
407,16,44436,6,0,L|400:52,2,37.5,10|8|8,3:2|2:2|2:2,0:0:0:0:
310,28,45019,2,0,L|303:64,2,37.5,10|8|8,3:2|2:2|3:2,0:0:0:0:
214,46,45601,2,0,L|207:82,2,37.5,10|8|10,2:2|3:2|3:2,0:0:0:0:
117,61,46184,2,0,L|111:98,1,37.5,2|0,3:2|0:0,0:0:0:0:
68,121,46475,2,0,L|62:158,1,37.5,0|0,3:3|3:3,0:0:0:0:
24,188,46766,6,0,P|-4:218|24:283,1,112.5,10|8,1:2|3:2,0:0:0:0:
53,312,47349,1,10,1:2:0:0:
140,269,47640,1,8,3:2:0:0:
183,356,47931,2,0,P|220:367|248:334,1,75,2|8,1:2|3:2,0:0:0:0:
268,250,48514,2,0,L|254:157,1,75,10|0,1:2|3:3,0:0:0:0:
348,141,49097,6,0,L|369:276,1,112.5,10|8,1:2|3:2,0:0:0:0:
372,300,49679,1,10,1:2:0:0:
447,360,49970,1,10,3:2:0:0:
506,282,50262,2,0,L|493:200,1,75,2|10,1:2|3:2,0:0:0:0:
474,112,50844,2,0,P|475:64|434:53,1,75,10|0,1:2|3:3,0:0:0:0:
418,30,51281,1,0,3:3:0:0:
418,30,51427,6,0,L|344:16,1,75,10|8,1:2|1:2,0:0:0:0:
287,95,52009,2,0,L|213:81,1,75,10|8,1:2|1:2,0:0:0:0:
191,43,52446,1,8,2:2:0:0:
191,43,52592,2,0,P|167:25|108:46,1,75,10|8,1:2|1:2,0:0:0:0:
85,60,53029,1,8,1:2:0:0:
85,60,53174,2,0,P|38:111|66:189,1,150,10|2,1:2|1:1,0:0:0:0:
58,182,54922,6,0,L|117:195,2,37.5,10|10|10,2:2|2:2|2:2,0:0:0:0:
23,216,55359,1,10,2:2:0:0:
23,216,55504,2,0,P|-1:245|10:282,1,75,10|10,2:2|2:2,0:0:0:0:
93,339,56087,6,0,L|85:375,2,37.5,6|2|2,1:1|2:2|2:2,0:0:0:0:
107,291,56524,1,2,2:2:0:0:
107,291,56669,1,8,2:2:0:0:
208,320,56961,2,0,L|200:356,2,37.5,2|2|2,1:2|2:2|2:2,0:0:0:0:
221,272,57398,1,2,2:2:0:0:
221,272,57543,1,2,2:3:0:0:
143,196,57834,2,0,P|137:151|166:124,1,75,10|2,2:2|2:2,0:0:0:0:
231,58,58417,6,0,L|223:21,2,37.5,2|2|2,1:2|2:2|1:2,0:0:0:0:
245,106,58854,1,2,2:2:0:0:
245,106,58999,1,8,2:2:0:0:
346,77,59291,2,0,L|338:40,2,37.5,2|2|2,1:2|2:2|2:2,0:0:0:0:
355,126,59728,1,2,2:2:0:0:
355,126,59873,2,0,L|371:225,2,75,2|8|2,1:2|2:2|2:2,0:0:0:0:
424,47,60747,6,0,P|440:38|469:50,1,37.5,2|0,1:2|0:0,0:0:0:0:
500,71,61038,2,0,L|516:170,1,75,2|10,2:2|2:2,0:0:0:0:
475,243,61621,1,2,1:2:0:0:
443,345,61912,1,2,2:2:0:0:
443,345,62058,2,0,P|418:363|362:339,1,75,2|2,2:2|2:2,0:0:0:0:
336,321,62495,2,0,P|300:312|269:331,1,75,8|2,2:2|2:2,0:0:0:0:
165,348,63077,6,0,L|155:384,2,37.5,10|8|10,1:2|2:2|2:2,0:0:0:0:
139,302,63514,2,0,L|160:208,1,75,10|8,1:2|2:2,0:0:0:0:
135,180,63951,2,0,L|144:143,2,37.5,10|8|8,1:2|2:2|2:2,0:0:0:0:
51,243,64533,1,10,1:2:0:0:
0,154,64825,2,0,P|1:104|29:87,1,75,10|2,2:2|2:2,0:0:0:0:
107,35,65407,6,0,L|97:-1,2,37.5,6|2|2,1:2|2:2|2:2,0:0:0:0:
121,90,65844,1,2,2:2:0:0:
121,90,65990,1,8,2:2:0:0:
223,67,66281,2,0,L|213:30,2,37.5,2|2|2,1:2|2:2|2:2,0:0:0:0:
237,122,66718,1,2,2:2:0:0:
237,122,66864,1,2,2:3:0:0:
158,191,67155,2,0,P|139:234|165:264,1,75,10|2,2:2|2:2,0:0:0:0:
240,310,67737,6,0,L|232:346,2,37.5,2|2|2,1:2|2:2|1:2,0:0:0:0:
254,262,68174,1,2,2:2:0:0:
254,262,68319,1,8,2:2:0:0:
353,295,68611,2,0,L|345:331,2,37.5,2|2|2,1:2|2:2|2:2,0:0:0:0:
366,247,69048,1,2,2:2:0:0:
366,247,69194,2,0,L|384:159,2,75,2|8|2,1:2|2:2|2:2,0:0:0:0:
454,303,70067,2,0,L|465:253,1,37.5,2|0,1:2|0:0,0:0:0:0:
473,214,70359,2,0,L|490:124,1,75,2|10,2:2|2:2,0:0:0:0:
421,58,70941,1,2,1:2:0:0:
324,99,71232,5,2,2:2:0:0:
324,99,71378,2,0,P|280:128|241:107,1,75,2|2,2:2|2:2,0:0:0:0:
215,97,71815,2,0,P|178:96|152:122,1,75,8|2,2:2|2:2,0:0:0:0:
60,69,72398,2,0,L|72:16,2,37.5,10|8|10,1:2|2:2|2:2,0:0:0:0:
50,120,72834,2,0,L|31:207,1,75,10|8,1:2|2:2,0:0:0:0:
21,244,73271,2,0,L|12:280,2,37.5,10|8|8,1:2|2:2|2:2,0:0:0:0:
125,236,73854,1,2,1:2:0:0:
109,339,74145,2,0,P|144:374|204:340,1,112.5,10|0,2:2|0:0,0:0:0:0:
236,317,74728,6,0,P|274:268|237:202,1,112.5,6|0,1:2|0:0,0:0:0:0:
235,177,75310,2,0,P|225:123|261:82,1,112.5,10|0,2:2|1:1,0:0:0:0:
307,55,75893,1,2,2:2:0:0:
407,24,76184,1,2,1:3:0:0:
488,90,76475,2,0,L|479:148,1,37.5,10|0,2:2|0:0,0:0:0:0:
475,179,76766,1,2,2:2:0:0:
501,280,77058,6,0,P|508:316|476:348,1,75,2|2,1:2|1:3,0:0:0:0:
437,366,77495,2,0,L|335:348,1,75,2|2,2:2|2:2,0:0:0:0:
333,310,77931,1,2,2:2:0:0:
353,206,78223,2,0,L|366:132,1,75,2|2,2:2|1:3,0:0:0:0:
309,43,78805,1,10,2:2:0:0:
205,24,79097,1,2,2:2:0:0:
101,5,79388,6,0,P|59:35|85:99,1,112.5,2|0,1:2|0:0,0:0:0:0:
121,104,79970,2,0,P|133:155|91:188,1,112.5,10|0,2:2|1:1,0:0:0:0:
39,177,80553,2,0,P|-2:207|23:271,1,112.5,2|0,2:2|0:0,0:0:0:0:
32,308,81135,1,10,2:2:0:0:
108,379,81427,1,2,2:2:0:0:
203,334,81718,6,0,L|224:235,1,75,2|2,1:2|1:3,0:0:0:0:
232,209,82155,2,0,L|253:110,1,75,2|0,2:2|0:0,0:0:0:0:
261,84,82592,2,0,P|311:33|380:53,1,150,2|2,2:2|1:3,0:0:0:0:
464,116,83465,2,0,L|443:218,1,75,10|2,2:2|2:3,0:0:0:0:
427,292,84048,6,0,P|437:350|396:382,2,112.5,6|2|2,2:2|2:2|2:2,0:0:0:0:
427,292,85504,1,2,2:2:0:0:
353,225,85796,1,2,2:2:0:0:
353,225,85941,1,2,2:2:0:0:
229,323,86378,6,0,P|177:330|139:268,2,112.5,2|2|2,2:2|2:2|2:2,0:0:0:0:
229,323,87834,1,2,2:2:0:0:
245,219,88126,2,0,L|258:132,1,75,2|0,2:2|0:0,0:0:0:0:
264,96,88563,1,0,0:0:0:0:
264,96,88708,6,0,P|241:68|160:99,1,112.5,2|2,2:2|2:2,0:0:0:0:
35,157,89582,2,0,P|-4:184|36:276,1,150,2|2,2:2|2:2,0:0:0:0:
232,381,91475,5,2,2:2:0:0:
256,192,91621,12,0,98029,0:0:0:0:
