osu file format v14

[General]
AudioFilename: audio.mp3
AudioLeadIn: 0
PreviewTime: 55431
Countdown: 0
SampleSet: Soft
StackLeniency: 0.4
Mode: 0
LetterboxInBreaks: 0
WidescreenStoryboard: 1

[Editor]
DistanceSpacing: 2.2
BeatDivisor: 8
GridSize: 16
TimelineZoom: 1.2

[Metadata]
Title:Target for Love
TitleUnicode:Target for Love
Artist:Lee Jin Ah
ArtistUnicode:이진아
Creator:KeyWee
Version:Hard
Source:ブルーアーカイブ -Blue Archive-
Tags:Korean Pop K-Pop Kpop midorijeon Riana Video Game Blue Archive Yostar Nat Games
BeatmapID:4437860
BeatmapSetID:2113613

[Difficulty]
HPDrainRate:5
CircleSize:4
OverallDifficulty:6
ApproachRate:8
SliderMultiplier:2.4
SliderTickRate:1

[Events]
//Background and Video events
0,0,"BA BG.jpg",0,0
//Break Periods
2,16675,18055
//Storyboard Layer 0 (Background)
//Storyboard Layer 1 (Fail)
//Storyboard Layer 2 (Pass)
//Storyboard Layer 3 (Foreground)
//Storyboard Layer 4 (Overlay)
//Storyboard Sound Samples

[TimingPoints]
165,582.52427184466,4,2,1,50,1,0
165,-125,4,2,1,50,0,0
9485,-125,4,2,1,55,0,0
18805,-142.857142857143,4,2,1,60,0,0
27543,-142.857142857143,4,2,2,60,0,0
27689,-142.857142857143,4,2,1,60,0,0
35116,-142.857142857143,4,2,3,60,0,0
35698,-142.857142857143,4,2,1,60,0,0
35990,-142.857142857143,4,2,3,60,0,0
36281,-142.857142857143,4,2,1,60,0,0
36427,-142.857142857143,4,2,4,60,0,0
36864,-142.857142857143,4,2,5,60,0,0
37009,-142.857142857143,4,2,6,60,0,0
37446,-125,4,2,6,65,0,0
46184,-125,4,2,2,65,0,0
46766,-125,4,2,7,70,0,0
47931,-125,4,2,1,70,0,0
48077,-125,4,2,7,70,0,0
50262,-125,4,2,1,70,0,0
50407,-125,4,2,7,70,0,0
51427,-125,4,2,6,70,0,0
53757,-125,4,2,1,70,0,0
54922,-111.111111111111,4,2,3,70,0,0
55067,-111.111111111111,4,2,4,70,0,0
55359,-111.111111111111,4,2,3,70,0,0
55504,-111.111111111111,4,2,8,70,0,0
55650,-111.111111111111,4,2,9,70,0,0
56087,-99.9999999999999,4,2,2,80,0,1
56232,-99.9999999999999,4,2,1,80,0,1
56378,-99.9999999999999,4,2,10,80,0,1
56524,-99.9999999999999,4,2,9,80,0,1
56961,-99.9999999999999,4,2,10,80,0,1
57106,-99.9999999999999,4,2,1,80,0,1
57834,-99.9999999999999,4,2,9,80,0,1
58126,-99.9999999999999,4,2,10,80,0,1
58417,-99.9999999999999,4,2,4,80,0,1
58708,-99.9999999999999,4,2,10,80,0,1
58854,-99.9999999999999,4,2,9,80,0,1
59291,-99.9999999999999,4,2,10,80,0,1
59436,-99.9999999999999,4,2,1,80,0,1
59873,-99.9999999999999,4,2,10,80,0,1
60164,-99.9999999999999,4,2,9,80,0,1
60456,-99.9999999999999,4,2,10,80,0,1
60747,-99.9999999999999,4,2,4,80,0,1
61038,-99.9999999999999,4,2,10,80,0,1
61330,-99.9999999999999,4,2,9,80,0,1
61621,-99.9999999999999,4,2,10,80,0,1
61912,-99.9999999999999,4,2,1,80,0,1
62203,-99.9999999999999,4,2,2,80,0,1
62349,-99.9999999999999,4,2,9,80,0,1
62786,-99.9999999999999,4,2,10,80,0,1
63077,-99.9999999999999,4,2,11,80,0,1
63150,-99.9999999999999,4,2,12,80,0,1
63514,-99.9999999999999,4,2,11,80,0,1
63660,-99.9999999999999,4,2,10,80,0,1
63732,-99.9999999999999,4,2,6,80,0,1
63951,-99.9999999999999,4,2,13,80,0,1
64097,-99.9999999999999,4,2,12,80,0,1
64825,-99.9999999999999,4,2,14,80,0,1
65116,-99.9999999999999,4,2,10,80,0,1
65407,-99.9999999999999,4,2,4,80,0,1
65698,-99.9999999999999,4,2,10,80,0,1
65844,-99.9999999999999,4,2,9,80,0,1
66281,-99.9999999999999,4,2,10,80,0,1
66427,-99.9999999999999,4,2,1,80,0,1
67155,-99.9999999999999,4,2,9,80,0,1
67446,-99.9999999999999,4,2,10,80,0,1
67737,-99.9999999999999,4,2,4,80,0,1
68029,-99.9999999999999,4,2,10,80,0,1
68174,-99.9999999999999,4,2,9,80,0,1
68611,-99.9999999999999,4,2,10,80,0,1
68757,-99.9999999999999,4,2,1,80,0,1
69194,-99.9999999999999,4,2,10,80,0,1
69485,-99.9999999999999,4,2,9,80,0,1
69776,-99.9999999999999,4,2,10,80,0,1
70067,-99.9999999999999,4,2,4,80,0,1
70359,-99.9999999999999,4,2,10,80,0,1
70650,-99.9999999999999,4,2,9,80,0,1
70941,-99.9999999999999,4,2,10,80,0,1
71232,-99.9999999999999,4,2,1,80,0,1
71524,-99.9999999999999,4,2,2,80,0,1
71669,-99.9999999999999,4,2,9,80,0,1
72106,-99.9999999999999,4,2,10,80,0,1
72398,-99.9999999999999,4,2,11,80,0,1
72470,-99.9999999999999,4,2,12,80,0,1
72834,-99.9999999999999,4,2,11,80,0,1
72980,-99.9999999999999,4,2,10,80,0,1
73053,-99.9999999999999,4,2,6,80,0,1
73271,-99.9999999999999,4,2,13,80,0,1
73417,-99.9999999999999,4,2,6,80,0,1
73563,-99.9999999999999,4,2,1,80,0,1
73708,-99.9999999999999,4,2,6,80,0,1
73854,-99.9999999999999,4,2,10,80,0,1
74145,-99.9999999999999,4,2,15,80,0,0
74728,-90.9090909090909,4,2,4,80,0,1
75019,-90.9090909090909,4,2,1,80,0,1
75310,-90.9090909090909,4,2,9,80,0,1
75601,-90.9090909090909,4,2,2,80,0,1
75893,-90.9090909090909,4,2,1,80,0,1
76184,-90.9090909090909,4,2,2,80,0,1
76475,-90.9090909090909,4,2,9,80,0,1
76766,-90.9090909090909,4,2,10,80,0,1
77058,-90.9090909090909,4,2,4,80,0,1
77349,-90.9090909090909,4,2,2,80,0,1
77495,-90.9090909090909,4,2,9,80,0,1
77931,-90.9090909090909,4,2,10,80,0,1
78223,-90.9090909090909,4,2,1,80,0,1
78514,-90.9090909090909,4,2,2,80,0,1
78805,-90.9090909090909,4,2,9,80,0,1
79097,-90.9090909090909,4,2,10,80,0,1
79388,-90.9090909090909,4,2,4,80,0,1
79679,-90.9090909090909,4,2,1,80,0,1
79970,-90.9090909090909,4,2,9,80,0,1
80262,-90.9090909090909,4,2,2,80,0,1
80553,-90.9090909090909,4,2,1,80,0,1
80844,-90.9090909090909,4,2,2,80,0,1
81135,-90.9090909090909,4,2,9,80,0,1
81427,-90.9090909090909,4,2,10,80,0,1
81718,-90.9090909090909,4,2,4,80,0,1
82009,-90.9090909090909,4,2,2,80,0,1
82155,-90.9090909090909,4,2,9,80,0,1
82592,-90.9090909090909,4,2,10,80,0,1
83174,-90.9090909090909,4,2,2,80,0,1
83465,-90.9090909090909,4,2,9,80,0,1
83757,-90.9090909090909,4,2,1,80,0,1
84048,-142.857142857143,4,2,1,50,0,0
91475,-142.857142857143,4,2,1,60,0,0
98029,-142.857142857143,4,2,1,60,0,0

[Colours]
Combo1 : 75,226,197
Combo2 : 79,159,240
Combo3 : 155,123,221
Combo4 : 153,209,90

[HitObjects]
23,182,165,6,0,P|60:147|111:172,1,96,6|2,2:2|2:2,0:0:0:0:
165,213,601,2,0,L|146:323,1,96,2|2,2:2|2:2,0:0:0:0:
215,362,1038,2,0,P|271:381|270:219,1,288,2|8,2:2|2:2,0:0:0:0:
241,103,2203,1,2,2:2:0:0:
241,103,2495,6,0,L|229:182,2,48,2|2|2,2:2|2:2|2:2,0:0:0:0:
182,40,2931,2,0,P|201:16|270:31,1,96,2|2,2:2|2:2,0:0:0:0:
328,74,3368,2,0,P|369:145|415:12,1,288,2|8,2:2|2:2,0:0:0:0:
445,28,4825,6,0,P|416:62|457:128,1,96,2|2,2:2|2:2,0:0:0:0:
482,174,5262,2,0,P|492:219|462:255,1,96,2|2,2:2|2:2,0:0:0:0:
377,241,5698,2,0,P|299:236|340:332,1,192,2|2,2:2|2:2,0:0:0:0:
433,369,6572,1,8,2:2:0:0:
433,369,6718,1,2,2:2:0:0:
296,239,7155,6,0,P|232:247|221:285,1,96,2|0,2:2|0:0,0:0:0:0:
168,338,7592,2,0,P|122:343|93:307,1,96,2|0,2:2|0:0,0:0:0:0:
45,235,8029,1,2,2:2:0:0:
162,116,8465,2,0,L|231:129,2,48,2|2|2,2:2|2:2|2:2,0:0:0:0:
77,147,8902,2,0,L|29:138,1,48,10|2,2:2|2:2,0:0:0:0:
44,53,9194,2,0,L|91:61,1,48,2|2,2:2|2:2,0:0:0:0:
171,27,9485,6,0,P|215:14|259:60,1,96,6|2,1:2|2:2,0:0:0:0:
300,119,9922,2,0,L|417:92,1,96,2|2,2:2|2:2,0:0:0:0:
479,66,10359,2,0,P|430:103|481:184,1,144,2|0,2:2|0:0,0:0:0:0:
504,248,10941,2,0,L|483:341,1,96,2|8,1:2|2:2,0:0:0:0:
397,373,11378,1,2,2:2:0:0:
220,246,11815,6,0,L|230:199,1,48,2|2,1:2|2:2,0:0:0:0:
313,221,12106,2,0,L|302:267,1,48,2|2,1:2|2:2,0:0:0:0:
391,288,12398,2,0,L|402:242,1,48,8|2,2:2|2:2,0:0:0:0:
424,152,12689,2,0,P|440:87|327:77,1,192,2|0,2:2|1:1,0:0:0:0:
259,102,13417,1,2,2:2:0:0:
259,102,13563,2,0,P|233:102|214:68,1,48,10|2,2:2|2:2,0:0:0:0:
171,9,13854,1,2,2:2:0:0:
34,40,14145,6,0,P|31:98|80:108,1,96,2|2,1:2|2:2,0:0:0:0:
142,147,14582,2,0,P|177:174|166:218,1,96,2|2,2:2|2:2,0:0:0:0:
140,306,15019,2,0,L|-1:274,1,144,2|0,2:2|0:0,0:0:0:0:
31,189,15601,2,0,L|77:198,1,48,2|0,1:2|0:0,0:0:0:0:
172,224,15893,1,8,2:2:0:0:
172,223,16038,1,2,2:2:0:0:
272,363,16475,1,2,1:2:0:0:
272,363,18805,6,0,L|399:338,1,125.999996154785,6|0,1:2|0:0,0:0:0:0:
470,290,19388,2,0,P|494:252|466:217,1,83.9999974365235,10|2,2:2|1:2,0:0:0:0:
389,116,19970,2,0,P|371:79|395:47,1,83.9999974365235,2|0,2:2|0:0,0:0:0:0:
487,61,20407,1,0,0:0:0:0:
487,61,20553,2,0,P|504:97|480:129,1,83.9999974365235,10|2,2:2|2:2,0:0:0:0:
376,223,21135,1,0,1:1:0:0:
376,223,21427,6,0,L|314:236,1,41.9999987182618,2|0,2:2|1:1,0:0:0:0:
255,275,21718,2,0,P|231:236|273:195,1,83.9999974365235,10|2,2:2|1:2,0:0:0:0:
307,140,22155,1,0,0:0:0:0:
307,140,22300,2,0,P|321:102|298:69,1,83.9999974365235,2|0,2:2|0:0,0:0:0:0:
229,13,22737,1,0,0:0:0:0:
229,13,22883,1,8,2:2:0:0:
151,124,23174,1,2,2:2:0:0:
42,37,23465,5,0,1:1:0:0:
42,37,23757,2,0,L|140:24,2,83.9999974365235,2|10|2,2:2|2:2|1:2,0:0:0:0:
4,118,24485,1,0,0:0:0:0:
4,118,24631,2,0,P|-7:165|21:187,1,83.9999974365235,2|2,2:2|2:2,0:0:0:0:
91,240,25067,1,0,0:0:0:0:
91,240,25213,2,0,L|101:336,1,83.9999974365235,10|2,2:2|2:2,0:0:0:0:
233,378,25796,6,0,P|264:346|249:301,1,83.9999974365235,2|0,1:2|0:0,0:0:0:0:
201,242,26232,2,0,P|195:201|225:174,1,83.9999974365235,2|0,1:2|0:0,0:0:0:0:
308,143,26669,2,0,P|358:161|329:267,1,167.999994873047,2|0,1:2|1:1,0:0:0:0:
442,372,27543,2,0,L|454:294,1,41.9999987182618,10|2,2:2|2:2,0:0:0:0:
498,257,27834,2,0,P|519:230|491:175,1,83.9999974365235,2|2,2:2|1:2,0:0:0:0:
424,81,28417,5,0,0:0:0:0:
424,81,28708,2,0,L|404:-2,1,83.9999974365235,10|2,2:2|1:2,0:0:0:0:
272,34,29291,2,0,L|291:115,1,83.9999974365235,2|0,2:2|0:0,0:0:0:0:
221,183,29728,1,0,0:0:0:0:
221,183,29873,1,8,2:2:0:0:
186,57,30164,2,0,P|133:23|99:48,1,83.9999974365235,2|0,2:2|1:1,0:0:0:0:
0,81,30747,5,2,2:2:0:0:
0,81,30893,1,0,1:1:0:0:
18,175,31038,2,0,L|6:225,1,41.9999987182618,10|0,2:2|0:0,0:0:0:0:
103,194,31330,2,0,L|89:258,1,41.9999987182618,2|0,1:2|0:0,0:0:0:0:
10,302,31621,2,0,P|49:330|95:312,1,83.9999974365235,2|0,2:2|0:0,0:0:0:0:
176,290,32058,1,0,0:0:0:0:
176,290,32203,1,8,2:2:0:0:
285,211,32495,1,2,2:2:0:0:
304,338,32786,5,0,1:1:0:0:
304,338,33077,2,0,L|364:355,1,41.9999987182618,2|0,2:2|0:0,0:0:0:0:
431,318,33368,2,0,P|457:286|439:241,1,83.9999974365235,10|2,2:2|1:2,0:0:0:0:
364,129,33951,2,0,P|358:82|393:52,1,83.9999974365235,2|2,2:2|2:2,0:0:0:0:
475,78,34388,1,0,0:0:0:0:
475,78,34533,2,0,P|483:117|458:150,1,83.9999974365235,10|2,2:2|2:2,0:0:0:0:
345,236,35116,5,10,1:2:0:0:
261,129,35407,1,0,0:0:0:0:
261,129,35553,1,10,1:2:0:0:
179,18,35844,1,0,0:0:0:0:
179,18,35990,2,0,L|113:34,1,41.9999987182618,10|0,1:2|0:0,0:0:0:0:
75,95,36281,2,0,L|16:106,3,41.9999987182618,2|10|10|0,3:2|2:2|2:2|0:0,0:0:0:0:
12,193,36864,2,0,L|143:166,1,125.999996154785,10|2,2:2|2:2,0:0:0:0:
207,226,37446,5,2,3:2:0:0:
101,321,37737,2,0,L|91:375,1,48,0|0,0:0|3:3,0:0:0:0:
183,382,38029,2,0,L|191:334,3,48,2|0|0|0,3:2|0:0|3:3|0:0,0:0:0:0:
277,304,38611,2,0,L|285:256,3,48,2|0|0|0,2:2|3:3|3:3|0:0,0:0:0:0:
377,251,39194,2,0,L|358:365,1,96,2|0,3:2|3:3,0:0:0:0:
499,361,39776,5,2,3:2:0:0:
499,361,40067,2,0,L|479:300,1,48,0|0,0:0|3:3,0:0:0:0:
510,227,40359,2,0,L|490:166,3,48,2|0|0|0,3:2|0:0|3:3|0:0,0:0:0:0:
407,156,40941,2,0,L|387:95,3,48,2|0|0|0,2:2|3:3|3:3|0:0,0:0:0:0:
447,36,41524,2,0,P|393:75|318:-14,1,192,2|2,3:2|3:2,0:0:0:0:
233,114,42398,5,0,0:0:0:0:
233,114,42689,2,0,P|198:143|207:188,1,96,2|2,3:2|3:2,0:0:0:0:
277,254,43126,1,0,0:0:0:0:
277,254,43271,2,0,P|286:298|251:328,1,96,2|2,2:2|3:2,0:0:0:0:
179,383,43708,1,0,0:0:0:0:
179,383,43854,1,2,3:2:0:0:
43,343,44145,1,2,3:2:0:0:
142,249,44436,6,0,L|132:295,2,48,10|8|8,3:2|2:2|2:2,0:0:0:0:
64,211,44873,1,8,3:2:0:0:
64,211,45019,2,0,L|54:257,2,48,10|8|8,3:2|2:2|3:2,0:0:0:0:
16,136,45456,1,8,2:2:0:0:
16,136,45601,2,0,P|7:80|44:57,1,96,10|10,2:2|3:2,0:0:0:0:
115,17,46038,1,8,2:2:0:0:
115,17,46184,2,0,L|175:32,1,48,2|0,3:2|0:0,0:0:0:0:
209,106,46475,2,0,L|194:166,2,48,0|0|10,3:3|3:3|1:2,0:0:0:0:
321,21,47058,5,0,0:0:0:0:
321,21,47203,1,8,3:2:0:0:
364,101,47349,2,0,L|472:115,1,96,10|8,1:2|3:2,0:0:0:0:
506,197,47786,1,0,0:0:0:0:
506,197,47931,2,0,P|518:243|484:289,1,96,2|8,1:2|3:2,0:0:0:0:
365,337,48514,2,0,L|357:408,2,48,10|0|0,1:2|0:0|3:3,0:0:0:0:
315,266,48951,1,0,3:3:0:0:
315,266,49097,2,0,P|279:238|220:265,1,96,10|0,1:2|0:0,0:0:0:0:
157,299,49533,1,8,3:2:0:0:
157,299,49679,5,10,1:2:0:0:
36,370,49970,1,10,3:2:0:0:
36,228,50262,2,0,L|61:129,1,96,2|10,1:2|3:2,0:0:0:0:
43,49,50698,1,0,0:0:0:0:
43,49,50844,2,0,P|105:50|122:91,1,96,10|0,1:2|3:3,0:0:0:0:
217,172,51427,6,0,L|198:249,2,48,10|8|8,1:2|2:2|1:2,0:0:0:0:
214,84,51864,1,8,2:2:0:0:
214,84,52009,2,0,L|225:37,2,48,10|8|8,1:2|2:2|1:2,0:0:0:0:
298,129,52446,1,8,2:2:0:0:
298,129,52592,6,0,L|324:19,1,96,10|8,1:2|1:2,0:0:0:0:
408,5,53029,1,8,1:2:0:0:
408,5,53174,2,0,P|436:6|453:22,1,48,10|8,1:2|1:2,0:0:0:0:
507,89,53465,2,0,P|505:117|489:134,1,48,8|8,1:2|1:2,0:0:0:0:
418,184,53757,5,2,1:1:0:0:
418,184,54922,5,10,2:2:0:0:
482,249,55067,1,10,2:2:0:0:
432,326,55213,2,0,L|354:339,1,53.9999983520508,10|10,2:2|2:2,0:0:0:0:
320,263,55504,2,0,P|265:224|227:250,1,107.999996704102,10|10,2:2|2:2,0:0:0:0:
235,239,56087,6,0,L|246:310,1,60,6|2,1:1|2:2,0:0:0:0:
172,371,56378,1,2,2:2:0:0:
85,347,56524,2,0,L|61:184,1,120,2|0,2:2|0:0,0:0:0:0:
145,171,56961,2,0,L|157:250,2,60,2|2|2,1:2|2:2|2:2,0:0:0:0:
60,125,57398,2,0,P|57:74|137:62,1,120,2|0,2:2|0:0,0:0:0:0:
195,97,57834,2,0,P|251:123|294:68,1,120,10|2,2:2|2:2,0:0:0:0:
487,71,58417,6,0,L|498:12,1,60,2|2,1:2|2:2,0:0:0:0:
406,0,58708,2,0,L|387:100,1,60,2|2,1:2|2:2,0:0:0:0:
372,152,58999,1,8,2:2:0:0:
493,282,59291,6,0,L|480:340,2,60,2|2|2,1:2|2:2|2:2,0:0:0:0:
443,205,59728,1,2,2:2:0:0:
443,205,59873,2,0,P|367:215|366:282,1,120,2|8,1:2|2:2,0:0:0:0:
306,328,60310,1,0,0:0:0:0:
306,328,60456,2,0,P|275:375|218:370,1,120,2|2,2:2|1:2,0:0:0:0:
32,316,61038,6,0,L|89:332,1,60,2|0,2:2|0:0,0:0:0:0:
178,265,61330,2,0,L|62:231,1,120,10|2,2:2|1:2,0:0:0:0:
11,150,61766,1,0,0:0:0:0:
11,150,61912,2,0,P|0:84|89:68,1,120,2|2,2:2|1:3,0:0:0:0:
115,118,62349,1,2,2:2:0:0:
115,118,62495,2,0,P|148:120|172:100,1,60,8|0,2:2|0:0,0:0:0:0:
217,21,62786,2,0,P|241:5|271:8,1,60,2|0,2:2|0:0,0:0:0:0:
341,73,63077,6,0,L|370:66,2,30,10|8|8,1:2|2:2|2:2,0:0:0:0:
294,157,63368,1,10,2:2:0:0:
214,210,63514,2,0,L|184:203,2,30,10|0|8,1:2|0:0|2:2,0:0:0:0:
261,294,63805,1,8,2:2:0:0:
347,336,63951,6,0,L|414:320,1,60,10|8,1:2|2:2,0:0:0:0:
469,249,64242,2,0,L|455:190,1,60,8|8,2:2|2:2,0:0:0:0:
377,157,64533,1,10,1:2:0:0:
377,157,64679,1,8,2:2:0:0:
426,74,64825,2,0,P|431:43|404:17,2,60,10|0|2,2:2|0:0|2:2,0:0:0:0:
377,157,65262,1,0,0:0:0:0:
299,100,65407,6,0,L|281:15,1,60,6|2,1:2|2:2,0:0:0:0:
195,8,65698,1,2,2:2:0:0:
123,72,65844,2,0,L|154:211,1,120,2|0,2:2|0:0,0:0:0:0:
53,182,66281,2,0,L|37:117,2,60,2|2|2,1:2|2:2|2:2,0:0:0:0:
9,267,66718,2,0,P|0:336|86:338,1,120,2|0,2:2|0:0,0:0:0:0:
99,286,67155,2,0,P|136:243|191:258,1,120,10|2,2:2|2:2,0:0:0:0:
378,318,67737,6,0,L|366:376,1,60,2|2,1:2|2:2,0:0:0:0:
271,355,68029,2,0,L|285:286,1,60,2|2,1:2|2:2,0:0:0:0:
343,221,68320,1,8,2:2:0:0:
483,85,68611,6,0,L|469:17,2,60,2|2|2,1:2|2:2|2:2,0:0:0:0:
405,140,69048,1,2,2:2:0:0:
405,140,69194,2,0,P|340:180|301:132,1,120,2|8,1:2|2:2,0:0:0:0:
276,76,69631,1,0,0:0:0:0:
276,76,69776,2,0,P|236:35|182:54,1,120,2|2,2:2|1:2,0:0:0:0:
26,165,70359,6,0,L|9:77,1,60,2|0,2:2|0:0,0:0:0:0:
95,54,70650,2,0,L|115:172,1,120,10|2,2:2|1:2,0:0:0:0:
59,251,71087,1,0,0:0:0:0:
59,251,71232,2,0,P|29:287|87:351,1,120,2|2,2:2|1:3,0:0:0:0:
148,309,71669,1,2,2:2:0:0:
148,309,71815,2,0,L|166:227,1,60,8|0,2:2|0:0,0:0:0:0:
255,268,72106,2,0,L|242:326,1,60,2|0,2:2|0:0,0:0:0:0:
334,354,72398,6,0,L|340:383,2,30,10|8|8,1:2|2:2|2:2,0:0:0:0:
358,261,72689,1,10,2:2:0:0:
436,315,72834,2,0,L|442:344,2,30,10|0|8,1:2|0:0|2:2,0:0:0:0:
460,222,73125,1,8,2:2:0:0:
377,172,73271,6,0,P|373:142|389:118,1,60,10|8,1:2|2:2,0:0:0:0:
482,89,73563,2,0,P|498:64|494:35,1,60,8|8,2:2|2:2,0:0:0:0:
402,22,73854,1,2,1:2:0:0:
402,22,73999,1,0,0:0:0:0:
306,7,74145,2,0,B|288:70|288:70|296:105|296:105|270:188,1,180,10|0,2:2|0:0,0:0:0:0:
322,265,74728,6,0,P|312:321|191:308,1,198.000006042481,6|0,1:2|0:0,0:0:0:0:
198,217,75310,2,0,P|156:297|71:268,1,198.000006042481,10|0,2:2|1:1,0:0:0:0:
7,191,75893,2,0,B|23:112|23:112|9:76|9:76|29:-25,1,198.000006042481,2|0,2:2|0:0,0:0:0:0:
123,6,76475,2,0,L|108:70,1,66.0000020141602,10|0,2:2|0:0,0:0:0:0:
191,133,76766,1,2,2:2:0:0:
191,133,76912,1,0,0:0:0:0:
246,50,77058,6,0,P|270:15|358:42,1,132.00000402832,2|2,1:2|1:3,0:0:0:0:
399,112,77495,2,0,L|475:94,1,66.0000020141602,2|8,2:2|2:2,0:0:0:0:
505,177,77786,1,2,2:2:0:0:
499,275,77931,2,0,L|434:290,1,66.0000020141602,2|0,2:2|1:1,0:0:0:0:
370,361,78223,2,0,P|391:302|347:257,1,132.00000402832,2|2,2:2|1:3,0:0:0:0:
269,213,78660,1,0,0:0:0:0:
269,213,78805,2,0,L|281:137,1,66.0000020141602,10|0,2:2|0:0,0:0:0:0:
188,134,79097,2,0,L|177:199,1,66.0000020141602,2|0,2:2|0:0,0:0:0:0:
219,289,79388,6,0,P|203:364|93:341,1,198.000006042481,2|0,1:2|0:0,0:0:0:0:
117,256,79970,2,0,P|86:341|-1:321,1,198.000006042481,10|0,2:2|1:1,0:0:0:0:
19,223,80553,2,0,B|30:142|30:142|14:103|14:103|29:10,1,198.000006042481,2|0,2:2|0:0,0:0:0:0:
124,21,81135,2,0,L|113:86,1,66.0000020141602,10|0,2:2|0:0,0:0:0:0:
182,165,81427,1,2,2:2:0:0:
182,165,81572,1,0,0:0:0:0:
274,129,81718,6,0,L|255:-5,1,132.00000402832,2|2,1:2|1:3,0:0:0:0:
352,20,82155,2,0,L|370:150,1,132.00000402832,2|0,2:2|0:0,0:0:0:0:
469,126,82592,1,2,2:2:0:0:
469,126,82737,2,0,P|490:164|414:227,1,132.00000402832,0|0,1:1|0:0,0:0:0:0:
345,244,83174,2,0,P|327:270|330:303,1,66.0000020141602,2|0,1:3|0:0,0:0:0:0:
412,359,83465,2,0,B|329:344|329:344|306:321|306:321|226:306,1,198.000006042481,10|0,2:2|0:0,0:0:0:0:
150,360,84048,6,0,P|104:360|70:292,1,125.999996154785,6|2,2:2|2:2,0:0:0:0:
69,295,84922,2,0,P|133:245|93:170,1,167.999994873047,2|2,2:2|2:2,0:0:0:0:
104,175,85796,1,2,2:2:0:0:
31,121,85941,2,0,P|22:80|59:53,1,83.9999974365235,2|0,2:2|0:0,0:0:0:0:
135,16,86378,2,0,L|269:49,1,125.999996154785,2|2,2:2|2:2,0:0:0:0:
257,46,87252,6,0,L|224:180,1,125.999996154785,2|0,2:2|0:0,0:0:0:0:
319,165,87834,2,0,L|338:80,2,83.9999974365235,2|2|0,2:2|2:2|0:0,0:0:0:0:
292,254,88563,1,0,0:0:0:0:
292,254,88708,2,0,P|301:307|377:313,1,125.999996154785,2|2,2:2|2:2,0:0:0:0:
364,321,89582,2,0,P|377:273|481:281,1,167.999994873047,2|2,2:2|2:2,0:0:0:0:
477,276,91475,5,2,2:2:0:0:
256,192,91621,12,0,98029,0:0:0:0:
