osu file format v14

[General]
AudioFilename: audio.mp3
AudioLeadIn: 0
PreviewTime: -1
Countdown: 1
SampleSet: None
StackLeniency: 0.7
Mode: 0
LetterboxInBreaks: 0
WidescreenStoryboard: 1

[Editor]
DistanceSpacing: 0.8
BeatDivisor: 4
GridSize: 16
TimelineZoom: 1

[Metadata]
Title:Spagete
TitleUnicode:Špagete
Artist:LeatherIceCream
ArtistUnicode:LeatherIceCream
Creator:Bonk
Version:Spagete Truck
Source:Serbertale
Tags:
BeatmapID:1121174
BeatmapSetID:528623

[Difficulty]
HPDrainRate:6
CircleSize:5
OverallDifficulty:6
ApproachRate:7
SliderMultiplier:1.4
SliderTickRate:1

[Events]
//Background and Video events
0,0,"82dc953cc930198f90d639fc9e763cac.png",0,0
//Break Periods
//Storyboard Layer 0 (Background)
//Storyboard Layer 1 (Fail)
//Storyboard Layer 2 (Pass)
//Storyboard Layer 3 (Foreground)
//Storyboard Sound Samples

[TimingPoints]
40,400,4,2,0,100,1,0
33140,-100,4,2,0,100,0,0

[HitObjects]
48,96,40,5,0,0:0:0:0:
160,128,440,1,0,0:0:0:0:
224,144,640,1,0,0:0:0:0:
272,96,840,2,0,B|320:112|320:112|352:96,4,70
160,48,2040,1,0,0:0:0:0:
96,96,2240,1,0,0:0:0:0:
115,168,2440,1,0,0:0:0:0:
196,168,2640,1,0,0:0:0:0:
224,96,2840,1,0,0:0:0:0:
384,224,3240,6,0,L|336:288,1,70
240,256,3640,1,0,0:0:0:0:
144,288,3840,1,0,0:0:0:0:
144,288,3940,1,0,0:0:0:0:
144,288,4040,1,0,0:0:0:0:
96,224,4240,2,0,B|48:160|48:160|80:80|80:80|48:48,1,210
112,80,5040,1,0,0:0:0:0:
176,48,5240,1,0,0:0:0:0:
240,80,5440,1,0,0:0:0:0:
304,48,5640,1,0,0:0:0:0:
368,80,5840,1,0,0:0:0:0:
432,48,6040,1,0,0:0:0:0:
432,176,6440,5,0,0:0:0:0:
431,251,6640,1,0,0:0:0:0:
404,266,6740,1,0,0:0:0:0:
377,281,6840,1,0,0:0:0:0:
320,240,7040,1,0,0:0:0:0:
240,256,7240,2,0,L|160:256,2,70
80,176,8040,5,0,0:0:0:0:
96,254,8240,1,0,0:0:0:0:
118,331,8440,1,0,0:0:0:0:
188,332,8640,1,0,0:0:0:0:
211,255,8840,1,0,0:0:0:0:
228,176,9040,1,0,0:0:0:0:
310,177,9240,1,0,0:0:0:0:
435,50,9640,5,0,0:0:0:0:
342,52,10040,1,0,0:0:0:0:
273,108,10240,1,0,0:0:0:0:
273,108,10340,1,0,0:0:0:0:
273,108,10440,1,0,0:0:0:0:
336,147,10640,2,0,B|399:187|420:209|420:209|328:277,1,210
272,272,11440,1,0,0:0:0:0:
208,272,11640,1,0,0:0:0:0:
32,208,12040,1,0,0:0:0:0:
96,176,12240,1,0,0:0:0:0:
160,144,12440,1,0,0:0:0:0:
256,128,12840,6,0,L|272:160,2,35
416,160,13240,2,0,B|400:224|352:272|352:272|320:256,1,140
288,240,13840,1,0,0:0:0:0:
224,208,14040,1,0,0:0:0:0:
112,48,14440,1,0,0:0:0:0:
48,112,14640,1,0,0:0:0:0:
144,128,14840,1,0,0:0:0:0:
176,208,15040,1,0,0:0:0:0:
112,272,15240,1,0,0:0:0:0:
208,288,15440,1,0,0:0:0:0:
272,224,15640,1,0,0:0:0:0:
256,192,16040,12,0,17640,0:0:0:0:
64,176,18040,5,0,0:0:0:0:
128,144,18240,1,0,0:0:0:0:
192,112,18440,1,0,0:0:0:0:
192,112,18540,1,0,0:0:0:0:
192,112,18640,1,0,0:0:0:0:
272,144,18840,2,0,P|320:144|352:128,1,70
339,135,19140,1,0,0:0:0:0:
339,135,19240,1,0,0:0:0:0:
369,66,19440,5,0,0:0:0:0:
448,64,19640,1,0,0:0:0:0:
384,128,19840,1,0,0:0:0:0:
464,128,20040,1,0,0:0:0:0:
400,192,20240,1,0,0:0:0:0:
480,192,20440,1,0,0:0:0:0:
79,282,20840,5,0,0:0:0:0:
121,232,21040,1,0,0:0:0:0:
160,181,21240,1,0,0:0:0:0:
261,35,21640,1,0,0:0:0:0:
333,36,21840,1,0,0:0:0:0:
297,101,22040,1,0,0:0:0:0:
375,101,22240,1,0,0:0:0:0:
375,101,22340,1,0,0:0:0:0:
375,101,22440,5,0,0:0:0:0:
432,192,22640,2,0,P|432:240|416:272,1,70
352,304,23040,2,0,P|352:256|368:224,1,70
288,192,23440,2,0,P|288:240|272:272,1,70
194,237,23840,1,0,0:0:0:0:
103,212,24040,1,0,0:0:0:0:
256,192,24090,12,0,25640,0:0:0:0:
38,163,25840,5,0,0:0:0:0:
98,138,26040,1,0,0:0:0:0:
162,138,26240,1,0,0:0:0:0:
162,138,26340,1,0,0:0:0:0:
162,138,26440,2,0,B|204:136|204:136|241:149,1,70
230,219,26840,2,0,B|198:236|197:235|198:235|198:235|160:233|159:233,1,70
65,163,27240,5,0,0:0:0:0:
144,130,27440,1,0,0:0:0:0:
65,163,27640,1,0,0:0:0:0:
144,130,27840,1,0,0:0:0:0:
221,144,28040,2,0,B|305:146|305:146|329:107|329:106|329:106|349:116,2,140
156,164,29040,1,0,0:0:0:0:
155,227,29240,1,0,0:0:0:0:
237,295,29640,1,0,0:0:0:0:
269,357,29840,1,0,0:0:0:0:
304,299,30040,1,0,0:0:0:0:
336,363,30240,1,0,0:0:0:0:
373,305,30440,2,0,L|376:231,1,70
363,159,30840,2,0,L|360:144,6,11.6666666666667
285,124,31240,1,0,0:0:0:0:
218,107,31440,1,0,0:0:0:0:
150,90,31640,5,0,0:0:0:0:
29,203,33240,2,0,L|105:197,1,70
59,281,33640,2,0,L|143:275,1,70
89,362,34040,2,0,B|144:359|186:340|207:325|210:285,1,140
284,239,34840,1,0,0:0:0:0:
352,212,35040,1,0,0:0:0:0:
341,282,35240,1,0,0:0:0:0:
458,362,35640,1,0,0:0:0:0:
438,292,35840,1,0,0:0:0:0:
459,220,36040,1,0,0:0:0:0:
437,150,36240,1,0,0:0:0:0:
454,78,36440,5,0,0:0:0:0:
325,63,36840,1,0,0:0:0:0:
259,58,37040,1,0,0:0:0:0:
254,122,37240,2,0,B|217:186|217:186|145:185,1,140
64,184,37840,1,0,0:0:0:0:
65,322,38040,2,0,B|100:319|100:319|157:342,1,87.5
158,344,38340,2,0,L|162:325,1,17.5
223,341,38640,1,0,0:0:0:0:
287,346,38840,2,0,B|325:276|325:276|293:215,2,140
