osu file format v14

[General]
AudioFilename: audio.mp3
AudioLeadIn: 0
PreviewTime: -1
Countdown: 1
SampleSet: None
StackLeniency: 0.7
Mode: 0
LetterboxInBreaks: 0
WidescreenStoryboard: 0

[Editor]
DistanceSpacing: 0.8
BeatDivisor: 4
GridSize: 16
TimelineZoom: 1

[Metadata]
Title:Spagete
TitleUnicode:Špagete
Artist:LeatherIceCream
ArtistUnicode:LeatherIceCream
Creator:Bonk
Version:Spagete Plate
Source:Serbertale
Tags:
BeatmapID:1121172
BeatmapSetID:528623

[Difficulty]
HPDrainRate:2
CircleSize:3
OverallDifficulty:3
ApproachRate:5
SliderMultiplier:1.4
SliderTickRate:1

[Events]
//Background and Video events
0,0,"82dc953cc930198f90d639fc9e763cac.png",0,0
//Break Periods
//Storyboard Layer 0 (Background)
//Storyboard Layer 1 (Fail)
//Storyboard Layer 2 (Pass)
//Storyboard Layer 3 (Foreground)
//Storyboard Sound Samples

[TimingPoints]
40,400,4,2,0,100,1,0
33140,-100,4,2,0,100,0,0

[HitObjects]
240,192,40,5,0,0:0:0:0:
336,96,840,1,0,0:0:0:0:
384,144,1240,1,0,0:0:0:0:
432,192,1640,2,0,B|368:288|368:288|288:320|256:304|192:320|192:320,2,280
320,160,3640,5,0,0:0:0:0:
208,128,4040,1,0,0:0:0:0:
64,320,4840,2,0,B|112:320|160:336|208:336|256:352|304:352|352:368,1,280
64,128,6440,5,0,0:0:0:0:
144,80,6840,1,0,0:0:0:0:
224,128,7240,1,0,0:0:0:0:
448,240,8040,1,0,0:0:0:0:
368,288,8440,1,0,0:0:0:0:
288,240,8840,1,0,0:0:0:0:
48,240,9640,6,0,B|192:240|192:240|288:144|288:144|432:144,1,420
432,272,11240,1,0,0:0:0:0:
336,272,11640,1,0,0:0:0:0:
240,272,12040,1,0,0:0:0:0:
48,224,12840,5,0,0:0:0:0:
128,272,13240,1,0,0:0:0:0:
192,208,13640,2,0,B|240:208|272:176|336:176,1,140
416,128,14440,2,0,B|416:224|368:288|224:320,2,280
288,96,16440,5,0,0:0:0:0:
256,224,16840,1,0,0:0:0:0:
176,112,17240,1,0,0:0:0:0:
144,240,17640,2,0,B|224:256|224:256|256:320,1,140
448,288,18440,2,0,B|352:272|352:272|320:208,1,140
288,96,19240,5,0,0:0:0:0:
208,160,19640,1,0,0:0:0:0:
128,224,20040,2,0,B|80:224|80:224|48:208,2,70
80,224,20840,5,0,0:0:0:0:
176,224,21240,1,0,0:0:0:0:
272,224,21640,1,0,0:0:0:0:
272,320,22040,1,0,0:0:0:0:
384,320,22440,2,0,B|416:288|416:288|384:256|384:256|416:224|416:224|384:192|384:192|416:160|416:160|384:128|384:128|400:112|400:112,1,280
288,80,23640,1,0,0:0:0:0:
192,128,24040,1,0,0:0:0:0:
256,192,24090,12,0,25640,0:0:0:0:
160,112,26040,5,0,0:0:0:0:
288,112,26440,1,0,0:0:0:0:
224,192,26840,1,0,0:0:0:0:
96,192,27240,1,0,0:0:0:0:
160,272,27640,1,0,0:0:0:0:
288,272,28040,2,0,B|352:224|432:272|432:272|352:336|352:336|384:352,1,280
256,320,29240,5,0,0:0:0:0:
144,352,29640,2,0,B|80:224|80:224|160:112|160:112,1,280
256,160,30840,1,0,0:0:0:0:
176,208,31240,1,0,0:0:0:0:
256,256,31640,1,0,0:0:0:0:
64,128,33240,5,0,0:0:0:0:
192,128,33640,1,0,0:0:0:0:
128,32,34040,1,0,0:0:0:0:
256,32,34440,1,0,0:0:0:0:
320,128,34840,2,0,B|368:128|400:144|400:144|384:144,2,70
320,224,35640,2,0,P|368:224|400:240,4,70
224,256,36840,1,0,0:0:0:0:
128,240,37240,2,0,B|96:192|96:192|96:144|96:144|144:96|144:96|208:96|208:96|256:144|256:144,1,280
240,240,38440,1,0,0:0:0:0:
272,352,38840,1,0,0:0:0:0:
32,224,39640,5,0,0:0:0:0:
112,208,40040,1,0,0:0:0:0:
192,224,40440,1,0,0:0:0:0:
272,208,40840,1,0,0:0:0:0:
352,224,41240,2,0,B|416:256|416:256|448:320,2,140
256,192,42440,1,0,0:0:0:0:
64,160,42840,2,0,P|192:64|336:80,2,280
160,160,44840,1,0,0:0:0:0:
256,160,45240,1,0,0:0:0:0:
32,304,46040,5,0,0:0:0:0:
128,272,46440,2,0,L|144:352,2,70
240,304,47240,1,0,0:0:0:0:
336,272,47640,2,0,L|352:352,2,70
272,192,48440,2,0,B|224:176|176:176|176:176|176:128,2,140
368,256,49640,1,0,0:0:0:0:
272,320,50040,2,0,B|128:288|128:288|32:176,1,280
48,96,51240,2,0,P|128:80|192:96,1,140
256,192,52440,1,0,0:0:0:0:
256,192,52490,12,0,54040,0:0:0:0:
256,192,54840,5,0,0:0:0:0:
48,64,55640,1,0,0:0:0:0:
192,208,56440,1,0,0:0:0:0:
320,176,57240,1,0,0:0:0:0:
464,320,58040,1,0,0:0:0:0:
336,320,58440,2,0,B|256:320|256:320|192:288,2,140
