osu file format v14

[General]
AudioFilename: audio.mp3
AudioLeadIn: 0
PreviewTime: 141464
Countdown: 0
SampleSet: None
StackLeniency: 0.7
Mode: 3
LetterboxInBreaks: 0
SpecialStyle: 0
WidescreenStoryboard: 0

[Editor]
Bookmarks: 9248,9939,10278,10617,10956,11295,20773,21012,21238,21464,21803,21973,22129,31621,32977,42468,42820,43159,43498,43824,64163,65519,75011,76367,85858,87214,95363,98075,108909,119757,130604,140096,141451,142807,163159,164502,167214,169926,172638,175350,186197,188909
DistanceSpacing: 1
BeatDivisor: 4
GridSize: 4
TimelineZoom: 1.8

[Metadata]
Title:Rise (feat.The Word Alive)
TitleUnicode:Rise (feat.The Word Alive)
Artist:League of Legends,The Glitch Mob & Mako
ArtistUnicode:League of Legends,The Glitch Mob & Mako
Creator:Leniane
Version:Challenger
Source:League of Legends
Tags:SV slowjam riot games worlds 2018 리그오브레전드 롤 リーグ・オブ・レジェンド
BeatmapID:1808108
BeatmapSetID:864573

[Difficulty]
HPDrainRate:8
CircleSize:4
OverallDifficulty:8
ApproachRate:5
SliderMultiplier:1.4
SliderTickRate:1

[Events]
//Background and Video events
0,0,"2018Events_Worlds.png",0,0
//Break Periods
//Storyboard Layer 0 (Background)
//Storyboard Layer 1 (Fail)
//Storyboard Layer 2 (Pass)
//Storyboard Layer 3 (Foreground)
//Storyboard Sound Samples

[TimingPoints]
448,338.983050847458,4,1,0,35,1,0
448,-166.666666666667,4,1,0,35,0,0
9261,-250,4,1,0,35,0,0
9282,-125,4,1,0,35,0,0
9303,-250,4,1,0,35,0,0
9324,-125,4,1,0,35,0,0
9346,-250,4,1,0,35,0,0
9367,-125,4,1,0,35,0,0
9388,-250,4,1,0,35,0,0
9409,-125,4,1,0,35,0,0
9431,-250,4,1,0,35,0,0
9452,-125,4,1,0,35,0,0
9473,-250,4,1,0,35,0,0
9494,-125,4,1,0,35,0,0
9515,-250,4,1,0,35,0,0
9536,-125,4,1,0,35,0,0
9558,-250,4,1,0,35,0,0
9579,-125,4,1,0,35,0,0
9600,-250,4,1,0,35,0,0
9621,-125,4,1,0,35,0,0
9642,-250,4,1,0,35,0,0
9663,-125,4,1,0,35,0,0
9685,-250,4,1,0,35,0,0
9706,-125,4,1,0,35,0,0
9727,-250,4,1,0,35,0,0
9748,-125,4,1,0,35,0,0
9770,-250,4,1,0,35,0,0
9791,-125,4,1,0,35,0,0
9812,-250,4,1,0,35,0,0
9833,-125,4,1,0,35,0,0
9854,-250,4,1,0,35,0,0
9875,-125,4,1,0,35,0,0
9897,-250,4,1,0,35,0,0
9918,-125,4,1,0,35,0,0
9939,-13.8888888888889,4,1,0,35,0,0
9949,-625,4,1,0,35,0,0
10278,-13.8888888888889,4,1,0,35,0,0
10288,-625,4,1,0,35,0,0
10617,-13.8888888888889,4,1,0,35,0,0
10627,-625,4,1,0,35,0,0
10956,-13.8888888888889,4,1,0,35,0,0
10966,-625,4,1,0,35,0,0
11295,-80,4,1,0,35,0,0
11316,-285.714285714286,4,1,0,35,0,0
11337,-80,4,1,0,35,0,0
11358,-285.714285714286,4,1,0,35,0,0
11380,-80,4,1,0,35,0,0
11401,-285.714285714286,4,1,0,35,0,0
11422,-80,4,1,0,35,0,0
11443,-285.714285714286,4,1,0,35,0,0
11464,-80,4,1,0,35,0,0
11485,-285.714285714286,4,1,0,35,0,0
11507,-80,4,1,0,35,0,0
11528,-285.714285714286,4,1,0,35,0,0
11549,-80,4,1,0,35,0,0
11570,-285.714285714286,4,1,0,35,0,0
11592,-80,4,1,0,35,0,0
11613,-285.714285714286,4,1,0,35,0,0
11634,-80,4,1,0,35,0,0
11655,-285.714285714286,4,1,0,35,0,0
11676,-80,4,1,0,35,0,0
11697,-285.714285714286,4,1,0,35,0,0
11719,-80,4,1,0,35,0,0
11740,-285.714285714286,4,1,0,35,0,0
11761,-80,4,1,0,35,0,0
11782,-285.714285714286,4,1,0,35,0,0
11803,-80,4,1,0,35,0,0
11824,-285.714285714286,4,1,0,35,0,0
11846,-80,4,1,0,35,0,0
11867,-285.714285714286,4,1,0,35,0,0
11888,-80,4,1,0,35,0,0
11909,-285.714285714286,4,1,0,35,0,0
11931,-80,4,1,0,35,0,0
11952,-285.714285714286,4,1,0,35,0,0
11973,-10000,4,1,0,35,0,0
12651,-142.857142857143,4,1,0,35,0,0
14007,-80,4,1,0,35,0,0
14028,-285.714285714286,4,1,0,35,0,0
14049,-80,4,1,0,35,0,0
14070,-285.714285714286,4,1,0,35,0,0
14092,-80,4,1,0,35,0,0
14113,-285.714285714286,4,1,0,35,0,0
14134,-80,4,1,0,35,0,0
14155,-285.714285714286,4,1,0,35,0,0
14176,-80,4,1,0,35,0,0
14197,-285.714285714286,4,1,0,35,0,0
14219,-80,4,1,0,35,0,0
14240,-285.714285714286,4,1,0,35,0,0
14261,-80,4,1,0,35,0,0
14282,-285.714285714286,4,1,0,35,0,0
14304,-80,4,1,0,35,0,0
14325,-285.714285714286,4,1,0,35,0,0
14346,-80,4,1,0,35,0,0
14367,-285.714285714286,4,1,0,35,0,0
14388,-80,4,1,0,35,0,0
14409,-285.714285714286,4,1,0,35,0,0
14431,-80,4,1,0,35,0,0
14452,-285.714285714286,4,1,0,35,0,0
14473,-80,4,1,0,35,0,0
14494,-285.714285714286,4,1,0,35,0,0
14515,-80,4,1,0,35,0,0
14536,-285.714285714286,4,1,0,35,0,0
14558,-80,4,1,0,35,0,0
14579,-285.714285714286,4,1,0,35,0,0
14600,-80,4,1,0,35,0,0
14621,-285.714285714286,4,1,0,35,0,0
14643,-80,4,1,0,35,0,0
14664,-285.714285714286,4,1,0,35,0,0
14685,-31.25,4,1,0,35,0,0
14706,-10000,4,1,0,35,0,0
15024,-35.7142857142857,4,1,0,35,0,0
15045,-10000,4,1,0,35,0,0
15363,-142.857142857143,4,1,0,35,0,0
15702,-80,4,1,0,35,0,0
15723,-285.714285714286,4,1,0,35,0,0
15744,-80,4,1,0,35,0,0
15765,-285.714285714286,4,1,0,35,0,0
15787,-80,4,1,0,35,0,0
15808,-285.714285714286,4,1,0,35,0,0
15829,-80,4,1,0,35,0,0
15850,-285.714285714286,4,1,0,35,0,0
15871,-80,4,1,0,35,0,0
15892,-285.714285714286,4,1,0,35,0,0
15914,-80,4,1,0,35,0,0
15935,-285.714285714286,4,1,0,35,0,0
15956,-80,4,1,0,35,0,0
15977,-285.714285714286,4,1,0,35,0,0
15999,-80,4,1,0,35,0,0
16020,-285.714285714286,4,1,0,35,0,0
16041,-142.857142857143,4,1,0,35,0,0
16719,-80,4,1,0,35,0,0
16740,-285.714285714286,4,1,0,35,0,0
16761,-80,4,1,0,35,0,0
16782,-285.714285714286,4,1,0,35,0,0
16804,-80,4,1,0,35,0,0
16825,-285.714285714286,4,1,0,35,0,0
16846,-80,4,1,0,35,0,0
16867,-285.714285714286,4,1,0,35,0,0
16888,-80,4,1,0,35,0,0
16909,-285.714285714286,4,1,0,35,0,0
16931,-80,4,1,0,35,0,0
16952,-285.714285714286,4,1,0,35,0,0
16973,-80,4,1,0,35,0,0
16994,-285.714285714286,4,1,0,35,0,0
17016,-80,4,1,0,35,0,0
17037,-285.714285714286,4,1,0,35,0,0
17058,-80,4,1,0,35,0,0
17079,-285.714285714286,4,1,0,35,0,0
17100,-80,4,1,0,35,0,0
17121,-285.714285714286,4,1,0,35,0,0
17143,-80,4,1,0,35,0,0
17164,-285.714285714286,4,1,0,35,0,0
17185,-80,4,1,0,35,0,0
17206,-285.714285714286,4,1,0,35,0,0
17227,-80,4,1,0,35,0,0
17248,-285.714285714286,4,1,0,35,0,0
17270,-80,4,1,0,35,0,0
17291,-285.714285714286,4,1,0,35,0,0
17312,-80,4,1,0,35,0,0
17333,-285.714285714286,4,1,0,35,0,0
17355,-80,4,1,0,35,0,0
17376,-285.714285714286,4,1,0,35,0,0
17397,-10000,4,1,0,35,0,0
18075,-142.857142857143,4,1,0,35,0,0
18414,-80,4,1,0,35,0,0
18435,-285.714285714286,4,1,0,35,0,0
18456,-80,4,1,0,35,0,0
18477,-285.714285714286,4,1,0,35,0,0
18499,-80,4,1,0,35,0,0
18520,-285.714285714286,4,1,0,35,0,0
18541,-80,4,1,0,35,0,0
18562,-285.714285714286,4,1,0,35,0,0
18583,-80,4,1,0,35,0,0
18604,-285.714285714286,4,1,0,35,0,0
18626,-80,4,1,0,35,0,0
18647,-285.714285714286,4,1,0,35,0,0
18668,-80,4,1,0,35,0,0
18689,-285.714285714286,4,1,0,35,0,0
18711,-80,4,1,0,35,0,0
18732,-285.714285714286,4,1,0,35,0,0
18753,-142.857142857143,4,1,0,35,0,0
19431,-80,4,1,0,35,0,0
19452,-285.714285714286,4,1,0,35,0,0
19473,-80,4,1,0,35,0,0
19494,-285.714285714286,4,1,0,35,0,0
19516,-80,4,1,0,35,0,0
19537,-285.714285714286,4,1,0,35,0,0
19558,-80,4,1,0,35,0,0
19579,-285.714285714286,4,1,0,35,0,0
19600,-80,4,1,0,35,0,0
19621,-285.714285714286,4,1,0,35,0,0
19643,-80,4,1,0,35,0,0
19664,-285.714285714286,4,1,0,35,0,0
19685,-80,4,1,0,35,0,0
19706,-285.714285714286,4,1,0,35,0,0
19728,-80,4,1,0,35,0,0
19749,-285.714285714286,4,1,0,35,0,0
19770,-80,4,1,0,35,0,0
19791,-285.714285714286,4,1,0,35,0,0
19812,-80,4,1,0,35,0,0
19833,-285.714285714286,4,1,0,35,0,0
19855,-80,4,1,0,35,0,0
19876,-285.714285714286,4,1,0,35,0,0
19897,-80,4,1,0,35,0,0
19918,-285.714285714286,4,1,0,35,0,0
19939,-80,4,1,0,35,0,0
19960,-285.714285714286,4,1,0,35,0,0
19982,-80,4,1,0,35,0,0
20003,-285.714285714286,4,1,0,35,0,0
20024,-80,4,1,0,35,0,0
20045,-285.714285714286,4,1,0,35,0,0
20067,-80,4,1,0,35,0,0
20088,-285.714285714286,4,1,0,35,0,0
20109,-100,4,1,0,35,0,0
20448,-133.333333333333,4,1,0,35,0,0
20560,-200,4,1,0,35,0,0
20673,-400,4,1,0,35,0,0
20758,-36.3636363636364,4,1,0,35,0,0
20786,-666.666666666667,4,1,0,35,0,0
20984,-36.3636363636364,4,1,0,35,0,0
21012,-666.666666666667,4,1,0,35,0,0
21210,-36.3636363636364,4,1,0,35,0,0
21238,-666.666666666667,4,1,0,35,0,0
21436,-36.3636363636364,4,1,0,35,0,0
21464,-333.333333333333,4,1,0,35,0,0
21775,-36.3636363636364,4,1,0,35,0,0
21803,-500,4,1,0,35,0,0
21945,-36.3636363636364,4,1,0,35,0,0
21973,-83.3333333333333,4,1,0,35,0,0
22114,-303.030303030303,4,1,0,35,0,0
22142,-250,4,1,0,35,0,0
22163,-100,4,1,0,35,0,0
22185,-250,4,1,0,35,0,0
22206,-100,4,1,0,35,0,0
22227,-250,4,1,0,35,0,0
22248,-100,4,1,0,35,0,0
22270,-250,4,1,0,35,0,0
22291,-100,4,1,0,35,0,0
22312,-250,4,1,0,35,0,0
22333,-100,4,1,0,35,0,0
22354,-250,4,1,0,35,0,0
22375,-100,4,1,0,35,0,0
22397,-250,4,1,0,35,0,0
22418,-100,4,1,0,35,0,0
22439,-250,4,1,0,35,0,0
22460,-100,4,1,0,35,0,0
22481,-250,4,1,0,35,0,0
22502,-100,4,1,0,35,0,0
22524,-250,4,1,0,35,0,0
22545,-100,4,1,0,35,0,0
22566,-250,4,1,0,35,0,0
22587,-100,4,1,0,35,0,0
22609,-250,4,1,0,35,0,0
22630,-100,4,1,0,35,0,0
22651,-250,4,1,0,35,0,0
22672,-100,4,1,0,35,0,0
22693,-250,4,1,0,35,0,0
22714,-100,4,1,0,35,0,0
22736,-250,4,1,0,35,0,0
22757,-100,4,1,0,35,0,0
22778,-250,4,1,0,35,0,0
22799,-100,4,1,0,35,0,0
22820,-10000,4,1,0,35,0,0
23498,-125,4,1,0,35,0,0
23837,-250,4,1,0,35,0,0
23858,-100,4,1,0,35,0,0
23880,-250,4,1,0,35,0,0
23901,-100,4,1,0,35,0,0
23922,-250,4,1,0,35,0,0
23943,-100,4,1,0,35,0,0
23964,-250,4,1,0,35,0,0
23985,-100,4,1,0,35,0,0
24007,-250,4,1,0,35,0,0
24028,-100,4,1,0,35,0,0
24049,-250,4,1,0,35,0,0
24070,-100,4,1,0,35,0,0
24092,-250,4,1,0,35,0,0
24113,-100,4,1,0,35,0,0
24134,-250,4,1,0,35,0,0
24155,-100,4,1,0,35,0,0
24176,-125,4,1,0,35,0,0
24854,-250,4,1,0,35,0,0
24875,-100,4,1,0,35,0,0
24897,-250,4,1,0,35,0,0
24918,-100,4,1,0,35,0,0
24939,-250,4,1,0,35,0,0
24960,-100,4,1,0,35,0,0
24981,-250,4,1,0,35,0,0
25002,-100,4,1,0,35,0,0
25024,-250,4,1,0,35,0,0
25045,-100,4,1,0,35,0,0
25066,-250,4,1,0,35,0,0
25087,-100,4,1,0,35,0,0
25109,-250,4,1,0,35,0,0
25130,-100,4,1,0,35,0,0
25151,-250,4,1,0,35,0,0
25172,-100,4,1,0,35,0,0
25193,-250,4,1,0,35,0,0
25214,-100,4,1,0,35,0,0
25236,-250,4,1,0,35,0,0
25257,-100,4,1,0,35,0,0
25278,-250,4,1,0,35,0,0
25299,-100,4,1,0,35,0,0
25320,-250,4,1,0,35,0,0
25341,-100,4,1,0,35,0,0
25363,-250,4,1,0,35,0,0
25384,-100,4,1,0,35,0,0
25405,-250,4,1,0,35,0,0
25426,-100,4,1,0,35,0,0
25448,-250,4,1,0,35,0,0
25469,-100,4,1,0,35,0,0
25490,-250,4,1,0,35,0,0
25511,-100,4,1,0,35,0,0
25532,-10000,4,1,0,35,0,0
26210,-125,4,1,0,35,0,0
26549,-250,4,1,0,35,0,0
26570,-100,4,1,0,35,0,0
26592,-250,4,1,0,35,0,0
26613,-100,4,1,0,35,0,0
26634,-250,4,1,0,35,0,0
26655,-100,4,1,0,35,0,0
26676,-250,4,1,0,35,0,0
26697,-100,4,1,0,35,0,0
26719,-250,4,1,0,35,0,0
26740,-100,4,1,0,35,0,0
26761,-250,4,1,0,35,0,0
26782,-100,4,1,0,35,0,0
26803,-250,4,1,0,35,0,0
26824,-100,4,1,0,35,0,0
26846,-250,4,1,0,35,0,0
26867,-100,4,1,0,35,0,0
26888,-125,4,1,0,35,0,0
27566,-250,4,1,0,35,0,0
27587,-100,4,1,0,35,0,0
27609,-250,4,1,0,35,0,0
27630,-100,4,1,0,35,0,0
27651,-250,4,1,0,35,0,0
27672,-100,4,1,0,35,0,0
27693,-250,4,1,0,35,0,0
27714,-100,4,1,0,35,0,0
27736,-250,4,1,0,35,0,0
27757,-100,4,1,0,35,0,0
27778,-250,4,1,0,35,0,0
27799,-100,4,1,0,35,0,0
27820,-250,4,1,0,35,0,0
27841,-100,4,1,0,35,0,0
27863,-250,4,1,0,35,0,0
27884,-100,4,1,0,35,0,0
27905,-250,4,1,0,35,0,0
27926,-100,4,1,0,35,0,0
27948,-250,4,1,0,35,0,0
27969,-100,4,1,0,35,0,0
27990,-250,4,1,0,35,0,0
28011,-100,4,1,0,35,0,0
28032,-250,4,1,0,35,0,0
28053,-100,4,1,0,35,0,0
28075,-250,4,1,0,35,0,0
28096,-100,4,1,0,35,0,0
28117,-250,4,1,0,35,0,0
28138,-100,4,1,0,35,0,0
28159,-250,4,1,0,35,0,0
28180,-100,4,1,0,35,0,0
28202,-250,4,1,0,35,0,0
28223,-100,4,1,0,35,0,0
28244,-10000,4,1,0,35,0,0
28922,-125,4,1,0,35,0,0
29261,-250,4,1,0,35,0,0
29282,-100,4,1,0,35,0,0
29303,-250,4,1,0,35,0,0
29324,-100,4,1,0,35,0,0
29346,-250,4,1,0,35,0,0
29367,-100,4,1,0,35,0,0
29388,-250,4,1,0,35,0,0
29409,-100,4,1,0,35,0,0
29431,-250,4,1,0,35,0,0
29452,-100,4,1,0,35,0,0
29473,-250,4,1,0,35,0,0
29494,-100,4,1,0,35,0,0
29515,-250,4,1,0,35,0,0
29536,-100,4,1,0,35,0,0
29558,-250,4,1,0,35,0,0
29579,-100,4,1,0,35,0,0
29600,-125,4,1,0,35,0,0
30278,-250,4,1,0,35,0,0
30299,-100,4,1,0,35,0,0
30320,-250,4,1,0,35,0,0
30341,-100,4,1,0,35,0,0
30363,-250,4,1,0,35,0,0
30384,-100,4,1,0,35,0,0
30405,-250,4,1,0,35,0,0
30426,-100,4,1,0,35,0,0
30448,-250,4,1,0,35,0,0
30469,-100,4,1,0,35,0,0
30490,-250,4,1,0,35,0,0
30511,-100,4,1,0,35,0,0
30532,-250,4,1,0,35,0,0
30553,-100,4,1,0,35,0,0
30575,-250,4,1,0,35,0,0
30596,-100,4,1,0,35,0,0
30617,-250,4,1,0,35,0,0
30638,-100,4,1,0,35,0,0
30659,-250,4,1,0,35,0,0
30680,-100,4,1,0,35,0,0
30702,-250,4,1,0,35,0,0
30723,-100,4,1,0,35,0,0
30744,-250,4,1,0,35,0,0
30765,-100,4,1,0,35,0,0
30786,-250,4,1,0,35,0,0
30807,-100,4,1,0,35,0,0
30829,-250,4,1,0,35,0,0
30850,-100,4,1,0,35,0,0
30871,-250,4,1,0,35,0,0
30892,-100,4,1,0,35,0,0
30914,-250,4,1,0,35,0,0
30935,-100,4,1,0,35,0,0
30956,-333.333333333333,4,1,0,35,0,0
31125,-222.222222222222,4,1,0,35,0,0
31295,-166.666666666667,4,1,0,35,0,0
31464,-133.333333333333,4,1,0,35,0,0
31634,-121.212121212121,4,1,0,35,0,0
32990,-117.647058823529,4,1,0,35,0,0
35702,-111.111111111111,4,1,0,35,0,0
38414,-105.263157894737,4,1,0,35,0,0
41125,-100,4,1,0,35,0,0
42481,-13.8888888888889,4,1,0,35,0,0
42491,-625,4,1,0,35,0,0
42820,-13.8888888888889,4,1,0,35,0,0
42830,-625,4,1,0,35,0,0
43159,-13.8888888888889,4,1,0,35,0,0
43169,-625,4,1,0,35,0,0
43498,-13.8888888888889,4,1,0,35,0,0
43508,-625,4,1,0,35,0,0
43837,-1000,4,1,0,50,0,1
43859,-47.6190476190476,4,1,0,50,0,1
43880,-1000,4,1,0,50,0,1
43902,-47.6190476190476,4,1,0,50,0,1
43922,-1000,4,1,0,50,0,1
43944,-47.6190476190476,4,1,0,50,0,1
43964,-1000,4,1,0,50,0,1
43986,-47.6190476190476,4,1,0,50,0,1
44007,-1000,4,1,0,50,0,1
44029,-47.6190476190476,4,1,0,50,0,1
44049,-1000,4,1,0,50,0,1
44071,-47.6190476190476,4,1,0,50,0,1
44092,-1000,4,1,0,50,0,1
44114,-47.6190476190476,4,1,0,50,0,1
44134,-1000,4,1,0,50,0,1
44156,-47.6190476190476,4,1,0,50,0,1
44176,-1000,4,1,0,50,0,1
44198,-74.0740740740741,4,1,0,50,0,1
44219,-1000,4,1,0,50,0,1
44241,-74.0740740740741,4,1,0,50,0,1
44261,-1000,4,1,0,50,0,1
44283,-74.0740740740741,4,1,0,50,0,1
44303,-1000,4,1,0,50,0,1
44325,-74.0740740740741,4,1,0,50,0,1
44346,-1000,4,1,0,50,0,1
44368,-153.846153846154,4,1,0,50,0,1
44388,-1000,4,1,0,50,0,1
44410,-153.846153846154,4,1,0,50,0,1
44431,-1000,4,1,0,50,0,1
44453,-153.846153846154,4,1,0,50,0,1
44473,-1000,4,1,0,50,0,1
44495,-153.846153846154,4,1,0,50,0,1
44515,-60.6060606060606,4,1,0,50,0,1
45066,-303.030303030303,4,1,0,50,0,1
45109,-2000,4,1,0,50,0,1
45193,-1000,4,1,0,50,0,1
45215,-47.6190476190476,4,1,0,50,0,1
45236,-1000,4,1,0,50,0,1
45258,-47.6190476190476,4,1,0,50,0,1
45278,-1000,4,1,0,50,0,1
45300,-47.6190476190476,4,1,0,50,0,1
45320,-1000,4,1,0,50,0,1
45342,-47.6190476190476,4,1,0,50,0,1
45363,-1000,4,1,0,50,0,1
45385,-47.6190476190476,4,1,0,50,0,1
45405,-1000,4,1,0,50,0,1
45427,-47.6190476190476,4,1,0,50,0,1
45448,-1000,4,1,0,50,0,1
45470,-47.6190476190476,4,1,0,50,0,1
45490,-1000,4,1,0,50,0,1
45512,-47.6190476190476,4,1,0,50,0,1
45532,-1000,4,1,0,50,0,1
45554,-74.0740740740741,4,1,0,50,0,1
45575,-1000,4,1,0,50,0,1
45597,-74.0740740740741,4,1,0,50,0,1
45617,-1000,4,1,0,50,0,1
45639,-74.0740740740741,4,1,0,50,0,1
45659,-1000,4,1,0,50,0,1
45681,-74.0740740740741,4,1,0,50,0,1
45702,-1000,4,1,0,50,0,1
45724,-153.846153846154,4,1,0,50,0,1
45744,-1000,4,1,0,50,0,1
45766,-153.846153846154,4,1,0,50,0,1
45787,-1000,4,1,0,50,0,1
45809,-153.846153846154,4,1,0,50,0,1
45829,-1000,4,1,0,50,0,1
45851,-153.846153846154,4,1,0,50,0,1
45871,-60.6060606060606,4,1,0,50,0,1
46422,-303.030303030303,4,1,0,50,0,1
46465,-2000,4,1,0,50,0,1
46549,-38.4615384615385,4,1,0,50,0,1
46555,-2000,4,1,0,50,0,1
46570,-38.4615384615385,4,1,0,50,0,1
46576,-2000,4,1,0,50,0,1
46592,-38.4615384615385,4,1,0,50,0,1
46598,-2000,4,1,0,50,0,1
46613,-38.4615384615385,4,1,0,50,0,1
46619,-2000,4,1,0,50,0,1
46634,-38.4615384615385,4,1,0,50,0,1
46640,-2000,4,1,0,50,0,1
46655,-38.4615384615385,4,1,0,50,0,1
46661,-2000,4,1,0,50,0,1
46676,-38.4615384615385,4,1,0,50,0,1
46682,-2000,4,1,0,50,0,1
46698,-38.4615384615385,4,1,0,50,0,1
46704,-2000,4,1,0,50,0,1
46719,-38.4615384615385,4,1,0,50,0,1
46725,-2000,4,1,0,50,0,1
46740,-38.4615384615385,4,1,0,50,0,1
46746,-2000,4,1,0,50,0,1
46761,-38.4615384615385,4,1,0,50,0,1
46767,-2000,4,1,0,50,0,1
46782,-38.4615384615385,4,1,0,50,0,1
46788,-2000,4,1,0,50,0,1
46803,-38.4615384615385,4,1,0,50,0,1
46809,-2000,4,1,0,50,0,1
46825,-38.4615384615385,4,1,0,50,0,1
46831,-2000,4,1,0,50,0,1
46846,-38.4615384615385,4,1,0,50,0,1
46852,-2000,4,1,0,50,0,1
46867,-38.4615384615385,4,1,0,50,0,1
46873,-2000,4,1,0,50,0,1
46888,-38.4615384615385,4,1,0,50,0,1
46894,-2000,4,1,0,50,0,1
46909,-38.4615384615385,4,1,0,50,0,1
46915,-2000,4,1,0,50,0,1
46931,-38.4615384615385,4,1,0,50,0,1
46937,-2000,4,1,0,50,0,1
46952,-38.4615384615385,4,1,0,50,0,1
46958,-2000,4,1,0,50,0,1
46973,-38.4615384615385,4,1,0,50,0,1
46979,-2000,4,1,0,50,0,1
46994,-38.4615384615385,4,1,0,50,0,1
47000,-2000,4,1,0,50,0,1
47015,-38.4615384615385,4,1,0,50,0,1
47021,-2000,4,1,0,50,0,1
47036,-38.4615384615385,4,1,0,50,0,1
47042,-2000,4,1,0,50,0,1
47058,-38.4615384615385,4,1,0,50,0,1
47064,-2000,4,1,0,50,0,1
47079,-38.4615384615385,4,1,0,50,0,1
47085,-2000,4,1,0,50,0,1
47100,-38.4615384615385,4,1,0,50,0,1
47106,-2000,4,1,0,50,0,1
47121,-38.4615384615385,4,1,0,50,0,1
47127,-2000,4,1,0,50,0,1
47142,-38.4615384615385,4,1,0,50,0,1
47148,-2000,4,1,0,50,0,1
47164,-38.4615384615385,4,1,0,50,0,1
47170,-2000,4,1,0,50,0,1
47185,-38.4615384615385,4,1,0,50,0,1
47191,-2000,4,1,0,50,0,1
47206,-38.4615384615385,4,1,0,50,0,1
47212,-2000,4,1,0,50,0,1
47227,-100,4,1,0,50,0,1
47566,-500,4,1,0,50,0,1
47587,-83.3333333333333,4,1,0,50,0,1
47609,-500,4,1,0,50,0,1
47630,-83.3333333333333,4,1,0,50,0,1
47651,-500,4,1,0,50,0,1
47672,-83.3333333333333,4,1,0,50,0,1
47693,-500,4,1,0,50,0,1
47714,-83.3333333333333,4,1,0,50,0,1
47736,-500,4,1,0,50,0,1
47757,-83.3333333333333,4,1,0,50,0,1
47778,-500,4,1,0,50,0,1
47799,-83.3333333333333,4,1,0,50,0,1
47820,-500,4,1,0,50,0,1
47841,-83.3333333333333,4,1,0,50,0,1
47863,-500,4,1,0,50,0,1
47884,-83.3333333333333,4,1,0,50,0,1
47905,-303.030303030303,4,1,0,50,0,1
48244,-500,4,1,0,50,0,1
48265,-83.3333333333333,4,1,0,50,0,1
48286,-500,4,1,0,50,0,1
48307,-83.3333333333333,4,1,0,50,0,1
48329,-500,4,1,0,50,0,1
48350,-83.3333333333333,4,1,0,50,0,1
48371,-500,4,1,0,50,0,1
48392,-83.3333333333333,4,1,0,50,0,1
48414,-500,4,1,0,50,0,1
48435,-83.3333333333333,4,1,0,50,0,1
48456,-500,4,1,0,50,0,1
48477,-83.3333333333333,4,1,0,50,0,1
48498,-500,4,1,0,50,0,1
48519,-83.3333333333333,4,1,0,50,0,1
48541,-500,4,1,0,50,0,1
48562,-83.3333333333333,4,1,0,50,0,1
48583,-76.9230769230769,4,1,0,50,0,1
48922,-303.030303030303,4,1,0,50,0,1
49261,-1000,4,1,0,50,0,1
49283,-47.6190476190476,4,1,0,50,0,1
49304,-1000,4,1,0,50,0,1
49326,-47.6190476190476,4,1,0,50,0,1
49346,-1000,4,1,0,50,0,1
49368,-47.6190476190476,4,1,0,50,0,1
49388,-1000,4,1,0,50,0,1
49410,-47.6190476190476,4,1,0,50,0,1
49431,-1000,4,1,0,50,0,1
49453,-47.6190476190476,4,1,0,50,0,1
49473,-1000,4,1,0,50,0,1
49495,-47.6190476190476,4,1,0,50,0,1
49516,-1000,4,1,0,50,0,1
49538,-47.6190476190476,4,1,0,50,0,1
49558,-1000,4,1,0,50,0,1
49580,-47.6190476190476,4,1,0,50,0,1
49600,-1000,4,1,0,50,0,1
49622,-74.0740740740741,4,1,0,50,0,1
49643,-1000,4,1,0,50,0,1
49665,-74.0740740740741,4,1,0,50,0,1
49685,-1000,4,1,0,50,0,1
49707,-74.0740740740741,4,1,0,50,0,1
49727,-1000,4,1,0,50,0,1
49749,-74.0740740740741,4,1,0,50,0,1
49770,-1000,4,1,0,50,0,1
49792,-153.846153846154,4,1,0,50,0,1
49812,-1000,4,1,0,50,0,1
49834,-153.846153846154,4,1,0,50,0,1
49855,-1000,4,1,0,50,0,1
49877,-153.846153846154,4,1,0,50,0,1
49897,-1000,4,1,0,50,0,1
49919,-153.846153846154,4,1,0,50,0,1
49939,-60.6060606060606,4,1,0,50,0,1
50109,-117.647058823529,4,1,0,50,0,1
50194,-303.030303030303,4,1,0,50,0,1
50278,-500,4,1,0,50,0,1
50300,-68.9655172413793,4,1,0,50,0,1
50321,-500,4,1,0,50,0,1
50343,-68.9655172413793,4,1,0,50,0,1
50363,-500,4,1,0,50,0,1
50385,-68.9655172413793,4,1,0,50,0,1
50406,-500,4,1,0,50,0,1
50428,-68.9655172413793,4,1,0,50,0,1
50448,-500,4,1,0,50,0,1
50470,-68.9655172413793,4,1,0,50,0,1
50490,-500,4,1,0,50,0,1
50512,-68.9655172413793,4,1,0,50,0,1
50533,-500,4,1,0,50,0,1
50555,-68.9655172413793,4,1,0,50,0,1
50575,-500,4,1,0,50,0,1
50597,-68.9655172413793,4,1,0,50,0,1
50617,-500,4,1,0,50,0,1
50639,-68.9655172413793,4,1,0,50,0,1
50660,-500,4,1,0,50,0,1
50682,-68.9655172413793,4,1,0,50,0,1
50702,-500,4,1,0,50,0,1
50724,-68.9655172413793,4,1,0,50,0,1
50745,-500,4,1,0,50,0,1
50767,-68.9655172413793,4,1,0,50,0,1
50787,-500,4,1,0,50,0,1
50809,-68.9655172413793,4,1,0,50,0,1
50829,-500,4,1,0,50,0,1
50851,-68.9655172413793,4,1,0,50,0,1
50872,-500,4,1,0,50,0,1
50894,-68.9655172413793,4,1,0,50,0,1
50914,-500,4,1,0,50,0,1
50936,-68.9655172413793,4,1,0,50,0,1
50956,-74.0740740740741,4,1,0,50,0,1
51211,-303.030303030303,4,1,0,50,0,1
51295,-100,4,1,0,50,0,1
51634,-83.3333333333333,4,1,0,50,0,1
51662,-166.666666666667,4,1,0,50,0,1
51690,-83.3333333333333,4,1,0,50,0,1
51718,-166.666666666667,4,1,0,50,0,1
51747,-83.3333333333333,4,1,0,50,0,1
51775,-166.666666666667,4,1,0,50,0,1
51803,-83.3333333333333,4,1,0,50,0,1
51831,-166.666666666667,4,1,0,50,0,1
51860,-83.3333333333333,4,1,0,50,0,1
51888,-166.666666666667,4,1,0,50,0,1
51916,-83.3333333333333,4,1,0,50,0,1
51944,-166.666666666667,4,1,0,50,0,1
51973,-1000,4,1,0,50,0,1
51995,-47.6190476190476,4,1,0,50,0,1
52016,-1000,4,1,0,50,0,1
52038,-47.6190476190476,4,1,0,50,0,1
52058,-1000,4,1,0,50,0,1
52080,-47.6190476190476,4,1,0,50,0,1
52100,-1000,4,1,0,50,0,1
52122,-47.6190476190476,4,1,0,50,0,1
52143,-1000,4,1,0,50,0,1
52165,-47.6190476190476,4,1,0,50,0,1
52185,-1000,4,1,0,50,0,1
52207,-47.6190476190476,4,1,0,50,0,1
52228,-1000,4,1,0,50,0,1
52250,-47.6190476190476,4,1,0,50,0,1
52270,-1000,4,1,0,50,0,1
52292,-47.6190476190476,4,1,0,50,0,1
52312,-1000,4,1,0,50,0,1
52334,-74.0740740740741,4,1,0,50,0,1
52355,-1000,4,1,0,50,0,1
52377,-74.0740740740741,4,1,0,50,0,1
52397,-1000,4,1,0,50,0,1
52419,-74.0740740740741,4,1,0,50,0,1
52439,-1000,4,1,0,50,0,1
52461,-74.0740740740741,4,1,0,50,0,1
52482,-1000,4,1,0,50,0,1
52504,-153.846153846154,4,1,0,50,0,1
52524,-1000,4,1,0,50,0,1
52546,-153.846153846154,4,1,0,50,0,1
52567,-1000,4,1,0,50,0,1
52589,-153.846153846154,4,1,0,50,0,1
52609,-1000,4,1,0,50,0,1
52631,-153.846153846154,4,1,0,50,0,1
52651,-100,4,1,0,50,0,1
52990,-500,4,1,0,50,0,1
53011,-83.3333333333333,4,1,0,50,0,1
53033,-500,4,1,0,50,0,1
53054,-83.3333333333333,4,1,0,50,0,1
53075,-500,4,1,0,50,0,1
53096,-83.3333333333333,4,1,0,50,0,1
53117,-500,4,1,0,50,0,1
53138,-83.3333333333333,4,1,0,50,0,1
53160,-500,4,1,0,50,0,1
53181,-83.3333333333333,4,1,0,50,0,1
53202,-500,4,1,0,50,0,1
53223,-83.3333333333333,4,1,0,50,0,1
53244,-500,4,1,0,50,0,1
53265,-83.3333333333333,4,1,0,50,0,1
53287,-500,4,1,0,50,0,1
53308,-83.3333333333333,4,1,0,50,0,1
53329,-303.030303030303,4,1,0,50,0,1
53668,-500,4,1,0,50,0,1
53689,-83.3333333333333,4,1,0,50,0,1
53710,-500,4,1,0,50,0,1
53731,-83.3333333333333,4,1,0,50,0,1
53753,-500,4,1,0,50,0,1
53774,-83.3333333333333,4,1,0,50,0,1
53795,-500,4,1,0,50,0,1
53816,-83.3333333333333,4,1,0,50,0,1
53838,-500,4,1,0,50,0,1
53859,-83.3333333333333,4,1,0,50,0,1
53880,-500,4,1,0,50,0,1
53901,-83.3333333333333,4,1,0,50,0,1
53922,-500,4,1,0,50,0,1
53943,-83.3333333333333,4,1,0,50,0,1
53965,-500,4,1,0,50,0,1
53986,-83.3333333333333,4,1,0,50,0,1
54007,-100,4,1,0,50,0,1
54176,-303.030303030303,4,1,0,50,0,1
54685,-1000,4,1,0,50,0,1
54707,-47.6190476190476,4,1,0,50,0,1
54728,-1000,4,1,0,50,0,1
54750,-47.6190476190476,4,1,0,50,0,1
54770,-1000,4,1,0,50,0,1
54792,-47.6190476190476,4,1,0,50,0,1
54812,-1000,4,1,0,50,0,1
54834,-47.6190476190476,4,1,0,50,0,1
54855,-1000,4,1,0,50,0,1
54877,-47.6190476190476,4,1,0,50,0,1
54897,-1000,4,1,0,50,0,1
54919,-47.6190476190476,4,1,0,50,0,1
54940,-1000,4,1,0,50,0,1
54962,-47.6190476190476,4,1,0,50,0,1
54982,-1000,4,1,0,50,0,1
55004,-47.6190476190476,4,1,0,50,0,1
55024,-1000,4,1,0,50,0,1
55046,-74.0740740740741,4,1,0,50,0,1
55067,-1000,4,1,0,50,0,1
55089,-74.0740740740741,4,1,0,50,0,1
55109,-1000,4,1,0,50,0,1
55131,-74.0740740740741,4,1,0,50,0,1
55151,-1000,4,1,0,50,0,1
55173,-74.0740740740741,4,1,0,50,0,1
55194,-1000,4,1,0,50,0,1
55216,-153.846153846154,4,1,0,50,0,1
55236,-1000,4,1,0,50,0,1
55258,-153.846153846154,4,1,0,50,0,1
55279,-1000,4,1,0,50,0,1
55301,-153.846153846154,4,1,0,50,0,1
55321,-1000,4,1,0,50,0,1
55343,-153.846153846154,4,1,0,50,0,1
55363,-60.6060606060606,4,1,0,50,0,1
55914,-303.030303030303,4,1,0,50,0,1
55957,-2000,4,1,0,50,0,1
56041,-1000,4,1,0,50,0,1
56063,-47.6190476190476,4,1,0,50,0,1
56084,-1000,4,1,0,50,0,1
56106,-47.6190476190476,4,1,0,50,0,1
56126,-1000,4,1,0,50,0,1
56148,-47.6190476190476,4,1,0,50,0,1
56168,-1000,4,1,0,50,0,1
56190,-47.6190476190476,4,1,0,50,0,1
56211,-1000,4,1,0,50,0,1
56233,-47.6190476190476,4,1,0,50,0,1
56253,-1000,4,1,0,50,0,1
56275,-47.6190476190476,4,1,0,50,0,1
56296,-1000,4,1,0,50,0,1
56318,-47.6190476190476,4,1,0,50,0,1
56338,-1000,4,1,0,50,0,1
56360,-47.6190476190476,4,1,0,50,0,1
56380,-1000,4,1,0,50,0,1
56402,-74.0740740740741,4,1,0,50,0,1
56423,-1000,4,1,0,50,0,1
56445,-74.0740740740741,4,1,0,50,0,1
56465,-1000,4,1,0,50,0,1
56487,-74.0740740740741,4,1,0,50,0,1
56507,-1000,4,1,0,50,0,1
56529,-74.0740740740741,4,1,0,50,0,1
56550,-1000,4,1,0,50,0,1
56572,-153.846153846154,4,1,0,50,0,1
56592,-1000,4,1,0,50,0,1
56614,-153.846153846154,4,1,0,50,0,1
56635,-1000,4,1,0,50,0,1
56657,-153.846153846154,4,1,0,50,0,1
56677,-1000,4,1,0,50,0,1
56699,-153.846153846154,4,1,0,50,0,1
56719,-60.6060606060606,4,1,0,50,0,1
57270,-303.030303030303,4,1,0,50,0,1
57313,-2000,4,1,0,50,0,1
57397,-38.4615384615385,4,1,0,50,0,1
57403,-2000,4,1,0,50,0,1
57418,-38.4615384615385,4,1,0,50,0,1
57424,-2000,4,1,0,50,0,1
57440,-38.4615384615385,4,1,0,50,0,1
57446,-2000,4,1,0,50,0,1
57461,-38.4615384615385,4,1,0,50,0,1
57467,-2000,4,1,0,50,0,1
57482,-38.4615384615385,4,1,0,50,0,1
57488,-2000,4,1,0,50,0,1
57503,-38.4615384615385,4,1,0,50,0,1
57509,-2000,4,1,0,50,0,1
57524,-38.4615384615385,4,1,0,50,0,1
57530,-2000,4,1,0,50,0,1
57546,-38.4615384615385,4,1,0,50,0,1
57552,-2000,4,1,0,50,0,1
57567,-38.4615384615385,4,1,0,50,0,1
57573,-2000,4,1,0,50,0,1
57588,-38.4615384615385,4,1,0,50,0,1
57594,-2000,4,1,0,50,0,1
57609,-38.4615384615385,4,1,0,50,0,1
57615,-2000,4,1,0,50,0,1
57630,-38.4615384615385,4,1,0,50,0,1
57636,-2000,4,1,0,50,0,1
57651,-38.4615384615385,4,1,0,50,0,1
57657,-2000,4,1,0,50,0,1
57673,-38.4615384615385,4,1,0,50,0,1
57679,-2000,4,1,0,50,0,1
57694,-38.4615384615385,4,1,0,50,0,1
57700,-2000,4,1,0,50,0,1
57715,-38.4615384615385,4,1,0,50,0,1
57721,-2000,4,1,0,50,0,1
57736,-38.4615384615385,4,1,0,50,0,1
57742,-2000,4,1,0,50,0,1
57757,-38.4615384615385,4,1,0,50,0,1
57763,-2000,4,1,0,50,0,1
57779,-38.4615384615385,4,1,0,50,0,1
57785,-2000,4,1,0,50,0,1
57800,-38.4615384615385,4,1,0,50,0,1
57806,-2000,4,1,0,50,0,1
57821,-38.4615384615385,4,1,0,50,0,1
57827,-2000,4,1,0,50,0,1
57842,-38.4615384615385,4,1,0,50,0,1
57848,-2000,4,1,0,50,0,1
57863,-38.4615384615385,4,1,0,50,0,1
57869,-2000,4,1,0,50,0,1
57884,-38.4615384615385,4,1,0,50,0,1
57890,-2000,4,1,0,50,0,1
57906,-38.4615384615385,4,1,0,50,0,1
57912,-2000,4,1,0,50,0,1
57927,-38.4615384615385,4,1,0,50,0,1
57933,-2000,4,1,0,50,0,1
57948,-38.4615384615385,4,1,0,50,0,1
57954,-2000,4,1,0,50,0,1
57969,-38.4615384615385,4,1,0,50,0,1
57975,-2000,4,1,0,50,0,1
57990,-38.4615384615385,4,1,0,50,0,1
57996,-2000,4,1,0,50,0,1
58012,-38.4615384615385,4,1,0,50,0,1
58018,-2000,4,1,0,50,0,1
58033,-38.4615384615385,4,1,0,50,0,1
58039,-2000,4,1,0,50,0,1
58054,-38.4615384615385,4,1,0,50,0,1
58060,-2000,4,1,0,50,0,1
58075,-100,4,1,0,50,0,1
58414,-500,4,1,0,50,0,1
58435,-83.3333333333333,4,1,0,50,0,1
58457,-500,4,1,0,50,0,1
58478,-83.3333333333333,4,1,0,50,0,1
58499,-500,4,1,0,50,0,1
58520,-83.3333333333333,4,1,0,50,0,1
58541,-500,4,1,0,50,0,1
58562,-83.3333333333333,4,1,0,50,0,1
58584,-500,4,1,0,50,0,1
58605,-83.3333333333333,4,1,0,50,0,1
58626,-500,4,1,0,50,0,1
58647,-83.3333333333333,4,1,0,50,0,1
58668,-500,4,1,0,50,0,1
58689,-83.3333333333333,4,1,0,50,0,1
58711,-500,4,1,0,50,0,1
58732,-83.3333333333333,4,1,0,50,0,1
58753,-303.030303030303,4,1,0,50,0,1
59092,-500,4,1,0,50,0,1
59113,-83.3333333333333,4,1,0,50,0,1
59134,-500,4,1,0,50,0,1
59155,-83.3333333333333,4,1,0,50,0,1
59177,-500,4,1,0,50,0,1
59198,-83.3333333333333,4,1,0,50,0,1
59219,-500,4,1,0,50,0,1
59240,-83.3333333333333,4,1,0,50,0,1
59262,-500,4,1,0,50,0,1
59283,-83.3333333333333,4,1,0,50,0,1
59304,-500,4,1,0,50,0,1
59325,-83.3333333333333,4,1,0,50,0,1
59346,-500,4,1,0,50,0,1
59367,-83.3333333333333,4,1,0,50,0,1
59389,-500,4,1,0,50,0,1
59410,-83.3333333333333,4,1,0,50,0,1
59431,-76.9230769230769,4,1,0,50,0,1
59770,-303.030303030303,4,1,0,50,0,1
60109,-1000,4,1,0,50,0,1
60131,-47.6190476190476,4,1,0,50,0,1
60152,-1000,4,1,0,50,0,1
60174,-47.6190476190476,4,1,0,50,0,1
60194,-1000,4,1,0,50,0,1
60216,-47.6190476190476,4,1,0,50,0,1
60236,-1000,4,1,0,50,0,1
60258,-47.6190476190476,4,1,0,50,0,1
60279,-1000,4,1,0,50,0,1
60301,-47.6190476190476,4,1,0,50,0,1
60321,-1000,4,1,0,50,0,1
60343,-47.6190476190476,4,1,0,50,0,1
60364,-1000,4,1,0,50,0,1
60386,-47.6190476190476,4,1,0,50,0,1
60406,-1000,4,1,0,50,0,1
60428,-47.6190476190476,4,1,0,50,0,1
60448,-1000,4,1,0,50,0,1
60470,-74.0740740740741,4,1,0,50,0,1
60491,-1000,4,1,0,50,0,1
60513,-74.0740740740741,4,1,0,50,0,1
60533,-1000,4,1,0,50,0,1
60555,-74.0740740740741,4,1,0,50,0,1
60575,-1000,4,1,0,50,0,1
60597,-74.0740740740741,4,1,0,50,0,1
60618,-1000,4,1,0,50,0,1
60640,-153.846153846154,4,1,0,50,0,1
60660,-1000,4,1,0,50,0,1
60682,-153.846153846154,4,1,0,50,0,1
60703,-1000,4,1,0,50,0,1
60725,-153.846153846154,4,1,0,50,0,1
60745,-1000,4,1,0,50,0,1
60767,-153.846153846154,4,1,0,50,0,1
60787,-60.6060606060606,4,1,0,50,0,1
60956,-117.647058823529,4,1,0,50,0,1
61041,-303.030303030303,4,1,0,50,0,1
61125,-500,4,1,0,50,0,1
61147,-68.9655172413793,4,1,0,50,0,1
61168,-500,4,1,0,50,0,1
61190,-68.9655172413793,4,1,0,50,0,1
61210,-500,4,1,0,50,0,1
61232,-68.9655172413793,4,1,0,50,0,1
61253,-500,4,1,0,50,0,1
61275,-68.9655172413793,4,1,0,50,0,1
61295,-500,4,1,0,50,0,1
61317,-68.9655172413793,4,1,0,50,0,1
61337,-500,4,1,0,50,0,1
61359,-68.9655172413793,4,1,0,50,0,1
61380,-500,4,1,0,50,0,1
61402,-68.9655172413793,4,1,0,50,0,1
61422,-500,4,1,0,50,0,1
61444,-68.9655172413793,4,1,0,50,0,1
61464,-500,4,1,0,50,0,1
61486,-68.9655172413793,4,1,0,50,0,1
61507,-500,4,1,0,50,0,1
61529,-68.9655172413793,4,1,0,50,0,1
61549,-500,4,1,0,50,0,1
61571,-68.9655172413793,4,1,0,50,0,1
61592,-500,4,1,0,50,0,1
61614,-68.9655172413793,4,1,0,50,0,1
61634,-500,4,1,0,50,0,1
61656,-68.9655172413793,4,1,0,50,0,1
61676,-500,4,1,0,50,0,1
61698,-68.9655172413793,4,1,0,50,0,1
61719,-500,4,1,0,50,0,1
61741,-68.9655172413793,4,1,0,50,0,1
61761,-500,4,1,0,50,0,1
61783,-68.9655172413793,4,1,0,50,0,1
61803,-74.0740740740741,4,1,0,50,0,1
62058,-303.030303030303,4,1,0,50,0,1
62142,-100,4,1,0,50,0,1
62481,-83.3333333333333,4,1,0,50,0,1
62509,-166.666666666667,4,1,0,50,0,1
62537,-83.3333333333333,4,1,0,50,0,1
62565,-166.666666666667,4,1,0,50,0,1
62594,-83.3333333333333,4,1,0,50,0,1
62622,-166.666666666667,4,1,0,50,0,1
62650,-83.3333333333333,4,1,0,50,0,1
62678,-166.666666666667,4,1,0,50,0,1
62707,-83.3333333333333,4,1,0,50,0,1
62735,-166.666666666667,4,1,0,50,0,1
62763,-83.3333333333333,4,1,0,50,0,1
62791,-166.666666666667,4,1,0,50,0,1
62820,-1000,4,1,0,50,0,1
62842,-47.6190476190476,4,1,0,50,0,1
62863,-1000,4,1,0,50,0,1
62885,-47.6190476190476,4,1,0,50,0,1
62905,-1000,4,1,0,50,0,1
62927,-47.6190476190476,4,1,0,50,0,1
62947,-1000,4,1,0,50,0,1
62969,-47.6190476190476,4,1,0,50,0,1
62990,-1000,4,1,0,50,0,1
63012,-47.6190476190476,4,1,0,50,0,1
63032,-1000,4,1,0,50,0,1
63054,-47.6190476190476,4,1,0,50,0,1
63075,-1000,4,1,0,50,0,1
63097,-47.6190476190476,4,1,0,50,0,1
63117,-1000,4,1,0,50,0,1
63139,-47.6190476190476,4,1,0,50,0,1
63159,-1000,4,1,0,50,0,1
63181,-74.0740740740741,4,1,0,50,0,1
63202,-1000,4,1,0,50,0,1
63224,-74.0740740740741,4,1,0,50,0,1
63244,-1000,4,1,0,50,0,1
63266,-74.0740740740741,4,1,0,50,0,1
63286,-1000,4,1,0,50,0,1
63308,-74.0740740740741,4,1,0,50,0,1
63329,-1000,4,1,0,50,0,1
63351,-153.846153846154,4,1,0,50,0,1
63371,-1000,4,1,0,50,0,1
63393,-153.846153846154,4,1,0,50,0,1
63414,-1000,4,1,0,50,0,1
63436,-153.846153846154,4,1,0,50,0,1
63456,-1000,4,1,0,50,0,1
63478,-153.846153846154,4,1,0,50,0,1
63498,-100,4,1,0,50,0,1
63837,-500,4,1,0,50,0,1
63858,-83.3333333333333,4,1,0,50,0,1
63880,-500,4,1,0,50,0,1
63901,-83.3333333333333,4,1,0,50,0,1
63922,-500,4,1,0,50,0,1
63943,-83.3333333333333,4,1,0,50,0,1
63964,-500,4,1,0,50,0,1
63985,-83.3333333333333,4,1,0,50,0,1
64007,-500,4,1,0,50,0,1
64028,-83.3333333333333,4,1,0,50,0,1
64049,-500,4,1,0,50,0,1
64070,-83.3333333333333,4,1,0,50,0,1
64091,-500,4,1,0,50,0,1
64112,-83.3333333333333,4,1,0,50,0,1
64134,-500,4,1,0,50,0,1
64155,-83.3333333333333,4,1,0,50,0,1
64176,-303.030303030303,4,1,0,50,0,0
64515,-500,4,1,0,50,0,0
64536,-83.3333333333333,4,1,0,50,0,0
64557,-500,4,1,0,50,0,0
64578,-83.3333333333333,4,1,0,50,0,0
64600,-500,4,1,0,50,0,0
64621,-83.3333333333333,4,1,0,50,0,0
64642,-500,4,1,0,50,0,0
64663,-83.3333333333333,4,1,0,50,0,0
64685,-500,4,1,0,50,0,0
64706,-83.3333333333333,4,1,0,50,0,0
64727,-500,4,1,0,50,0,0
64748,-83.3333333333333,4,1,0,50,0,0
64769,-500,4,1,0,50,0,0
64790,-83.3333333333333,4,1,0,50,0,0
64812,-500,4,1,0,50,0,0
64833,-83.3333333333333,4,1,0,50,0,0
64854,-90.9090909090909,4,1,0,50,0,0
65024,-500,4,1,0,50,0,0
65045,-83.3333333333333,4,1,0,50,0,0
65066,-500,4,1,0,50,0,0
65087,-83.3333333333333,4,1,0,50,0,0
65109,-500,4,1,0,50,0,0
65130,-83.3333333333333,4,1,0,50,0,0
65151,-500,4,1,0,50,0,0
65172,-83.3333333333333,4,1,0,50,0,0
65194,-500,4,1,0,50,0,0
65215,-83.3333333333333,4,1,0,50,0,0
65236,-500,4,1,0,50,0,0
65257,-83.3333333333333,4,1,0,50,0,0
65278,-500,4,1,0,50,0,0
65299,-83.3333333333333,4,1,0,50,0,0
65321,-500,4,1,0,50,0,0
65342,-83.3333333333333,4,1,0,50,0,0
65363,-500,4,1,0,50,0,0
65384,-83.3333333333333,4,1,0,50,0,0
65405,-500,4,1,0,50,0,0
65426,-83.3333333333333,4,1,0,50,0,0
65448,-500,4,1,0,50,0,0
65469,-83.3333333333333,4,1,0,50,0,0
65490,-500,4,1,0,50,0,0
65511,-83.3333333333333,4,1,0,50,0,0
65532,-250,4,1,0,35,0,0
65553,-100,4,1,0,35,0,0
65575,-250,4,1,0,35,0,0
65596,-100,4,1,0,35,0,0
65617,-250,4,1,0,35,0,0
65638,-100,4,1,0,35,0,0
65660,-250,4,1,0,35,0,0
65681,-100,4,1,0,35,0,0
65702,-250,4,1,0,35,0,0
65723,-100,4,1,0,35,0,0
65744,-250,4,1,0,35,0,0
65765,-100,4,1,0,35,0,0
65787,-250,4,1,0,35,0,0
65808,-100,4,1,0,35,0,0
65829,-250,4,1,0,35,0,0
65850,-100,4,1,0,35,0,0
65871,-250,4,1,0,35,0,0
65892,-100,4,1,0,35,0,0
65914,-250,4,1,0,35,0,0
65935,-100,4,1,0,35,0,0
65956,-250,4,1,0,35,0,0
65977,-100,4,1,0,35,0,0
65999,-250,4,1,0,35,0,0
66020,-100,4,1,0,35,0,0
66041,-250,4,1,0,35,0,0
66062,-100,4,1,0,35,0,0
66083,-250,4,1,0,35,0,0
66104,-100,4,1,0,35,0,0
66126,-250,4,1,0,35,0,0
66147,-100,4,1,0,35,0,0
66168,-250,4,1,0,35,0,0
66189,-100,4,1,0,35,0,0
66210,-10000,4,1,0,35,0,0
66888,-125,4,1,0,35,0,0
67227,-250,4,1,0,35,0,0
67248,-100,4,1,0,35,0,0
67270,-250,4,1,0,35,0,0
67291,-100,4,1,0,35,0,0
67312,-250,4,1,0,35,0,0
67333,-100,4,1,0,35,0,0
67354,-250,4,1,0,35,0,0
67375,-100,4,1,0,35,0,0
67397,-250,4,1,0,35,0,0
67418,-100,4,1,0,35,0,0
67439,-250,4,1,0,35,0,0
67460,-100,4,1,0,35,0,0
67482,-250,4,1,0,35,0,0
67503,-100,4,1,0,35,0,0
67524,-250,4,1,0,35,0,0
67545,-100,4,1,0,35,0,0
67566,-125,4,1,0,35,0,0
68244,-250,4,1,0,35,0,0
68265,-100,4,1,0,35,0,0
68287,-250,4,1,0,35,0,0
68308,-100,4,1,0,35,0,0
68329,-250,4,1,0,35,0,0
68350,-100,4,1,0,35,0,0
68371,-250,4,1,0,35,0,0
68392,-100,4,1,0,35,0,0
68414,-250,4,1,0,35,0,0
68435,-100,4,1,0,35,0,0
68456,-250,4,1,0,35,0,0
68477,-100,4,1,0,35,0,0
68499,-250,4,1,0,35,0,0
68520,-100,4,1,0,35,0,0
68541,-250,4,1,0,35,0,0
68562,-100,4,1,0,35,0,0
68583,-250,4,1,0,35,0,0
68604,-100,4,1,0,35,0,0
68626,-250,4,1,0,35,0,0
68647,-100,4,1,0,35,0,0
68668,-250,4,1,0,35,0,0
68689,-100,4,1,0,35,0,0
68710,-250,4,1,0,35,0,0
68731,-100,4,1,0,35,0,0
68753,-250,4,1,0,35,0,0
68774,-100,4,1,0,35,0,0
68795,-250,4,1,0,35,0,0
68816,-100,4,1,0,35,0,0
68838,-250,4,1,0,35,0,0
68859,-100,4,1,0,35,0,0
68880,-250,4,1,0,35,0,0
68901,-100,4,1,0,35,0,0
68922,-10000,4,1,0,35,0,0
69600,-125,4,1,0,35,0,0
69939,-250,4,1,0,35,0,0
69960,-100,4,1,0,35,0,0
69982,-250,4,1,0,35,0,0
70003,-100,4,1,0,35,0,0
70024,-250,4,1,0,35,0,0
70045,-100,4,1,0,35,0,0
70066,-250,4,1,0,35,0,0
70087,-100,4,1,0,35,0,0
70109,-250,4,1,0,35,0,0
70130,-100,4,1,0,35,0,0
70151,-250,4,1,0,35,0,0
70172,-100,4,1,0,35,0,0
70193,-250,4,1,0,35,0,0
70214,-100,4,1,0,35,0,0
70236,-250,4,1,0,35,0,0
70257,-100,4,1,0,35,0,0
70278,-125,4,1,0,35,0,0
70956,-250,4,1,0,35,0,0
70977,-100,4,1,0,35,0,0
70999,-250,4,1,0,35,0,0
71020,-100,4,1,0,35,0,0
71041,-250,4,1,0,35,0,0
71062,-100,4,1,0,35,0,0
71083,-250,4,1,0,35,0,0
71104,-100,4,1,0,35,0,0
71126,-250,4,1,0,35,0,0
71147,-100,4,1,0,35,0,0
71168,-250,4,1,0,35,0,0
71189,-100,4,1,0,35,0,0
71210,-250,4,1,0,35,0,0
71231,-100,4,1,0,35,0,0
71253,-250,4,1,0,35,0,0
71274,-100,4,1,0,35,0,0
71295,-250,4,1,0,35,0,0
71316,-100,4,1,0,35,0,0
71338,-250,4,1,0,35,0,0
71359,-100,4,1,0,35,0,0
71380,-250,4,1,0,35,0,0
71401,-100,4,1,0,35,0,0
71422,-250,4,1,0,35,0,0
71443,-100,4,1,0,35,0,0
71465,-250,4,1,0,35,0,0
71486,-100,4,1,0,35,0,0
71507,-250,4,1,0,35,0,0
71528,-100,4,1,0,35,0,0
71549,-250,4,1,0,35,0,0
71570,-100,4,1,0,35,0,0
71592,-250,4,1,0,35,0,0
71613,-100,4,1,0,35,0,0
71634,-10000,4,1,0,35,0,0
72312,-125,4,1,0,35,0,0
72651,-250,4,1,0,35,0,0
72672,-100,4,1,0,35,0,0
72693,-250,4,1,0,35,0,0
72714,-100,4,1,0,35,0,0
72736,-250,4,1,0,35,0,0
72757,-100,4,1,0,35,0,0
72778,-250,4,1,0,35,0,0
72799,-100,4,1,0,35,0,0
72821,-250,4,1,0,35,0,0
72842,-100,4,1,0,35,0,0
72863,-250,4,1,0,35,0,0
72884,-100,4,1,0,35,0,0
72905,-250,4,1,0,35,0,0
72926,-100,4,1,0,35,0,0
72948,-250,4,1,0,35,0,0
72969,-100,4,1,0,35,0,0
72990,-125,4,1,0,35,0,0
73668,-250,4,1,0,35,0,0
73689,-100,4,1,0,35,0,0
73710,-250,4,1,0,35,0,0
73731,-100,4,1,0,35,0,0
73753,-250,4,1,0,35,0,0
73774,-100,4,1,0,35,0,0
73795,-250,4,1,0,35,0,0
73816,-100,4,1,0,35,0,0
73838,-250,4,1,0,35,0,0
73859,-100,4,1,0,35,0,0
73880,-250,4,1,0,35,0,0
73901,-100,4,1,0,35,0,0
73922,-250,4,1,0,35,0,0
73943,-100,4,1,0,35,0,0
73965,-250,4,1,0,35,0,0
73986,-100,4,1,0,35,0,0
74007,-250,4,1,0,35,0,0
74028,-100,4,1,0,35,0,0
74049,-250,4,1,0,35,0,0
74070,-100,4,1,0,35,0,0
74092,-250,4,1,0,35,0,0
74113,-100,4,1,0,35,0,0
74134,-250,4,1,0,35,0,0
74155,-100,4,1,0,35,0,0
74176,-250,4,1,0,35,0,0
74197,-100,4,1,0,35,0,0
74219,-250,4,1,0,35,0,0
74240,-100,4,1,0,35,0,0
74261,-250,4,1,0,35,0,0
74282,-100,4,1,0,35,0,0
74304,-250,4,1,0,35,0,0
74325,-100,4,1,0,35,0,0
74346,-333.333333333333,4,1,0,35,0,0
74431,-222.222222222222,4,1,0,35,0,0
74515,-166.666666666667,4,1,0,35,0,0
74600,-133.333333333333,4,1,0,35,0,0
74685,-121.212121212121,4,1,0,35,0,0
76380,-117.647058823529,4,1,0,35,0,0
79092,-111.111111111111,4,1,0,35,0,0
81804,-105.263157894737,4,1,0,35,0,0
84515,-100,4,1,0,35,0,0
85871,-13.8888888888889,4,1,0,35,0,0
85881,-625,4,1,0,35,0,0
86210,-13.8888888888889,4,1,0,35,0,0
86220,-625,4,1,0,35,0,0
86549,-13.8888888888889,4,1,0,35,0,0
86559,-625,4,1,0,35,0,0
86888,-13.8888888888889,4,1,0,35,0,0
86898,-625,4,1,0,35,0,0
87227,-1000,4,1,0,50,0,1
87249,-47.6190476190476,4,1,0,50,0,1
87270,-1000,4,1,0,50,0,1
87292,-47.6190476190476,4,1,0,50,0,1
87312,-1000,4,1,0,50,0,1
87334,-47.6190476190476,4,1,0,50,0,1
87354,-1000,4,1,0,50,0,1
87376,-47.6190476190476,4,1,0,50,0,1
87397,-1000,4,1,0,50,0,1
87419,-47.6190476190476,4,1,0,50,0,1
87439,-1000,4,1,0,50,0,1
87461,-47.6190476190476,4,1,0,50,0,1
87482,-1000,4,1,0,50,0,1
87504,-47.6190476190476,4,1,0,50,0,1
87524,-1000,4,1,0,50,0,1
87546,-47.6190476190476,4,1,0,50,0,1
87566,-1000,4,1,0,50,0,1
87588,-74.0740740740741,4,1,0,50,0,1
87609,-1000,4,1,0,50,0,1
87631,-74.0740740740741,4,1,0,50,0,1
87651,-1000,4,1,0,50,0,1
87673,-74.0740740740741,4,1,0,50,0,1
87693,-1000,4,1,0,50,0,1
87715,-74.0740740740741,4,1,0,50,0,1
87736,-1000,4,1,0,50,0,1
87758,-153.846153846154,4,1,0,50,0,1
87778,-1000,4,1,0,50,0,1
87800,-153.846153846154,4,1,0,50,0,1
87821,-1000,4,1,0,50,0,1
87843,-153.846153846154,4,1,0,50,0,1
87863,-1000,4,1,0,50,0,1
87885,-153.846153846154,4,1,0,50,0,1
87905,-60.6060606060606,4,1,0,50,0,1
88456,-303.030303030303,4,1,0,50,0,1
88499,-2000,4,1,0,50,0,1
88583,-1000,4,1,0,50,0,1
88605,-47.6190476190476,4,1,0,50,0,1
88626,-1000,4,1,0,50,0,1
88648,-47.6190476190476,4,1,0,50,0,1
88668,-1000,4,1,0,50,0,1
88690,-47.6190476190476,4,1,0,50,0,1
88710,-1000,4,1,0,50,0,1
88732,-47.6190476190476,4,1,0,50,0,1
88753,-1000,4,1,0,50,0,1
88775,-47.6190476190476,4,1,0,50,0,1
88795,-1000,4,1,0,50,0,1
88817,-47.6190476190476,4,1,0,50,0,1
88838,-1000,4,1,0,50,0,1
88860,-47.6190476190476,4,1,0,50,0,1
88880,-1000,4,1,0,50,0,1
88902,-47.6190476190476,4,1,0,50,0,1
88922,-1000,4,1,0,50,0,1
88944,-74.0740740740741,4,1,0,50,0,1
88965,-1000,4,1,0,50,0,1
88987,-74.0740740740741,4,1,0,50,0,1
89007,-1000,4,1,0,50,0,1
89029,-74.0740740740741,4,1,0,50,0,1
89049,-1000,4,1,0,50,0,1
89071,-74.0740740740741,4,1,0,50,0,1
89092,-1000,4,1,0,50,0,1
89114,-153.846153846154,4,1,0,50,0,1
89134,-1000,4,1,0,50,0,1
89156,-153.846153846154,4,1,0,50,0,1
89177,-1000,4,1,0,50,0,1
89199,-153.846153846154,4,1,0,50,0,1
89219,-1000,4,1,0,50,0,1
89241,-153.846153846154,4,1,0,50,0,1
89261,-60.6060606060606,4,1,0,50,0,1
89812,-303.030303030303,4,1,0,50,0,1
89855,-2000,4,1,0,50,0,1
89939,-38.4615384615385,4,1,0,50,0,1
89945,-2000,4,1,0,50,0,1
89960,-38.4615384615385,4,1,0,50,0,1
89966,-2000,4,1,0,50,0,1
89982,-38.4615384615385,4,1,0,50,0,1
89988,-2000,4,1,0,50,0,1
90003,-38.4615384615385,4,1,0,50,0,1
90009,-2000,4,1,0,50,0,1
90024,-38.4615384615385,4,1,0,50,0,1
90030,-2000,4,1,0,50,0,1
90045,-38.4615384615385,4,1,0,50,0,1
90051,-2000,4,1,0,50,0,1
90066,-38.4615384615385,4,1,0,50,0,1
90072,-2000,4,1,0,50,0,1
90088,-38.4615384615385,4,1,0,50,0,1
90094,-2000,4,1,0,50,0,1
90109,-38.4615384615385,4,1,0,50,0,1
90115,-2000,4,1,0,50,0,1
90130,-38.4615384615385,4,1,0,50,0,1
90136,-2000,4,1,0,50,0,1
90151,-38.4615384615385,4,1,0,50,0,1
90157,-2000,4,1,0,50,0,1
90172,-38.4615384615385,4,1,0,50,0,1
90178,-2000,4,1,0,50,0,1
90193,-38.4615384615385,4,1,0,50,0,1
90199,-2000,4,1,0,50,0,1
90215,-38.4615384615385,4,1,0,50,0,1
90221,-2000,4,1,0,50,0,1
90236,-38.4615384615385,4,1,0,50,0,1
90242,-2000,4,1,0,50,0,1
90257,-38.4615384615385,4,1,0,50,0,1
90263,-2000,4,1,0,50,0,1
90278,-38.4615384615385,4,1,0,50,0,1
90284,-2000,4,1,0,50,0,1
90299,-38.4615384615385,4,1,0,50,0,1
90305,-2000,4,1,0,50,0,1
90321,-38.4615384615385,4,1,0,50,0,1
90327,-2000,4,1,0,50,0,1
90342,-38.4615384615385,4,1,0,50,0,1
90348,-2000,4,1,0,50,0,1
90363,-38.4615384615385,4,1,0,50,0,1
90369,-2000,4,1,0,50,0,1
90384,-38.4615384615385,4,1,0,50,0,1
90390,-2000,4,1,0,50,0,1
90405,-38.4615384615385,4,1,0,50,0,1
90411,-2000,4,1,0,50,0,1
90426,-38.4615384615385,4,1,0,50,0,1
90432,-2000,4,1,0,50,0,1
90448,-38.4615384615385,4,1,0,50,0,1
90454,-2000,4,1,0,50,0,1
90469,-38.4615384615385,4,1,0,50,0,1
90475,-2000,4,1,0,50,0,1
90490,-38.4615384615385,4,1,0,50,0,1
90496,-2000,4,1,0,50,0,1
90511,-38.4615384615385,4,1,0,50,0,1
90517,-2000,4,1,0,50,0,1
90532,-38.4615384615385,4,1,0,50,0,1
90538,-2000,4,1,0,50,0,1
90554,-38.4615384615385,4,1,0,50,0,1
90560,-2000,4,1,0,50,0,1
90575,-38.4615384615385,4,1,0,50,0,1
90581,-2000,4,1,0,50,0,1
90596,-38.4615384615385,4,1,0,50,0,1
90602,-2000,4,1,0,50,0,1
90617,-100,4,1,0,50,0,1
90956,-500,4,1,0,50,0,1
90977,-83.3333333333333,4,1,0,50,0,1
90999,-500,4,1,0,50,0,1
91020,-83.3333333333333,4,1,0,50,0,1
91041,-500,4,1,0,50,0,1
91062,-83.3333333333333,4,1,0,50,0,1
91083,-500,4,1,0,50,0,1
91104,-83.3333333333333,4,1,0,50,0,1
91126,-500,4,1,0,50,0,1
91147,-83.3333333333333,4,1,0,50,0,1
91168,-500,4,1,0,50,0,1
91189,-83.3333333333333,4,1,0,50,0,1
91210,-500,4,1,0,50,0,1
91231,-83.3333333333333,4,1,0,50,0,1
91253,-500,4,1,0,50,0,1
91274,-83.3333333333333,4,1,0,50,0,1
91295,-303.030303030303,4,1,0,50,0,1
91634,-500,4,1,0,50,0,1
91655,-83.3333333333333,4,1,0,50,0,1
91676,-500,4,1,0,50,0,1
91697,-83.3333333333333,4,1,0,50,0,1
91719,-500,4,1,0,50,0,1
91740,-83.3333333333333,4,1,0,50,0,1
91761,-500,4,1,0,50,0,1
91782,-83.3333333333333,4,1,0,50,0,1
91804,-500,4,1,0,50,0,1
91825,-83.3333333333333,4,1,0,50,0,1
91846,-500,4,1,0,50,0,1
91867,-83.3333333333333,4,1,0,50,0,1
91888,-500,4,1,0,50,0,1
91909,-83.3333333333333,4,1,0,50,0,1
91931,-500,4,1,0,50,0,1
91952,-83.3333333333333,4,1,0,50,0,1
91973,-76.9230769230769,4,1,0,50,0,1
92312,-303.030303030303,4,1,0,50,0,1
92651,-1000,4,1,0,50,0,1
92673,-47.6190476190476,4,1,0,50,0,1
92694,-1000,4,1,0,50,0,1
92716,-47.6190476190476,4,1,0,50,0,1
92736,-1000,4,1,0,50,0,1
92758,-47.6190476190476,4,1,0,50,0,1
92778,-1000,4,1,0,50,0,1
92800,-47.6190476190476,4,1,0,50,0,1
92821,-1000,4,1,0,50,0,1
92843,-47.6190476190476,4,1,0,50,0,1
92863,-1000,4,1,0,50,0,1
92885,-47.6190476190476,4,1,0,50,0,1
92906,-1000,4,1,0,50,0,1
92928,-47.6190476190476,4,1,0,50,0,1
92948,-1000,4,1,0,50,0,1
92970,-47.6190476190476,4,1,0,50,0,1
92990,-1000,4,1,0,50,0,1
93012,-74.0740740740741,4,1,0,50,0,1
93033,-1000,4,1,0,50,0,1
93055,-74.0740740740741,4,1,0,50,0,1
93075,-1000,4,1,0,50,0,1
93097,-74.0740740740741,4,1,0,50,0,1
93117,-1000,4,1,0,50,0,1
93139,-74.0740740740741,4,1,0,50,0,1
93160,-1000,4,1,0,50,0,1
93182,-153.846153846154,4,1,0,50,0,1
93202,-1000,4,1,0,50,0,1
93224,-153.846153846154,4,1,0,50,0,1
93245,-1000,4,1,0,50,0,1
93267,-153.846153846154,4,1,0,50,0,1
93287,-1000,4,1,0,50,0,1
93309,-153.846153846154,4,1,0,50,0,1
93329,-60.6060606060606,4,1,0,50,0,1
93499,-117.647058823529,4,1,0,50,0,1
93584,-303.030303030303,4,1,0,50,0,1
93668,-500,4,1,0,50,0,1
93690,-68.9655172413793,4,1,0,50,0,1
93711,-500,4,1,0,50,0,1
93733,-68.9655172413793,4,1,0,50,0,1
93753,-500,4,1,0,50,0,1
93775,-68.9655172413793,4,1,0,50,0,1
93796,-500,4,1,0,50,0,1
93818,-68.9655172413793,4,1,0,50,0,1
93838,-500,4,1,0,50,0,1
93860,-68.9655172413793,4,1,0,50,0,1
93880,-500,4,1,0,50,0,1
93902,-68.9655172413793,4,1,0,50,0,1
93923,-500,4,1,0,50,0,1
93945,-68.9655172413793,4,1,0,50,0,1
93965,-500,4,1,0,50,0,1
93987,-68.9655172413793,4,1,0,50,0,1
94007,-500,4,1,0,50,0,1
94029,-68.9655172413793,4,1,0,50,0,1
94050,-500,4,1,0,50,0,1
94072,-68.9655172413793,4,1,0,50,0,1
94092,-500,4,1,0,50,0,1
94114,-68.9655172413793,4,1,0,50,0,1
94135,-500,4,1,0,50,0,1
94157,-68.9655172413793,4,1,0,50,0,1
94177,-500,4,1,0,50,0,1
94199,-68.9655172413793,4,1,0,50,0,1
94219,-500,4,1,0,50,0,1
94241,-68.9655172413793,4,1,0,50,0,1
94262,-500,4,1,0,50,0,1
94284,-68.9655172413793,4,1,0,50,0,1
94304,-500,4,1,0,50,0,1
94326,-68.9655172413793,4,1,0,50,0,1
94346,-74.0740740740741,4,1,0,50,0,1
94601,-303.030303030303,4,1,0,50,0,1
94685,-100,4,1,0,50,0,1
95024,-83.3333333333333,4,1,0,50,0,1
95052,-166.666666666667,4,1,0,50,0,1
95080,-83.3333333333333,4,1,0,50,0,1
95108,-166.666666666667,4,1,0,50,0,1
95137,-83.3333333333333,4,1,0,50,0,1
95165,-166.666666666667,4,1,0,50,0,1
95193,-83.3333333333333,4,1,0,50,0,1
95221,-166.666666666667,4,1,0,50,0,1
95250,-83.3333333333333,4,1,0,50,0,1
95278,-166.666666666667,4,1,0,50,0,1
95306,-83.3333333333333,4,1,0,50,0,1
95334,-166.666666666667,4,1,0,50,0,1
95363,-1000,4,1,0,50,0,1
95385,-47.6190476190476,4,1,0,50,0,1
95406,-1000,4,1,0,50,0,1
95428,-47.6190476190476,4,1,0,50,0,1
95448,-1000,4,1,0,50,0,1
95470,-47.6190476190476,4,1,0,50,0,1
95490,-1000,4,1,0,50,0,1
95512,-47.6190476190476,4,1,0,50,0,1
95533,-1000,4,1,0,50,0,1
95555,-47.6190476190476,4,1,0,50,0,1
95575,-1000,4,1,0,50,0,1
95597,-47.6190476190476,4,1,0,50,0,1
95618,-1000,4,1,0,50,0,1
95640,-47.6190476190476,4,1,0,50,0,1
95660,-1000,4,1,0,50,0,1
95682,-47.6190476190476,4,1,0,50,0,1
95702,-1000,4,1,0,50,0,1
95724,-74.0740740740741,4,1,0,50,0,1
95745,-1000,4,1,0,50,0,1
95767,-74.0740740740741,4,1,0,50,0,1
95787,-1000,4,1,0,50,0,1
95809,-74.0740740740741,4,1,0,50,0,1
95829,-1000,4,1,0,50,0,1
95851,-74.0740740740741,4,1,0,50,0,1
95872,-1000,4,1,0,50,0,1
95894,-153.846153846154,4,1,0,50,0,1
95914,-1000,4,1,0,50,0,1
95936,-153.846153846154,4,1,0,50,0,1
95957,-1000,4,1,0,50,0,1
95979,-153.846153846154,4,1,0,50,0,1
95999,-1000,4,1,0,50,0,1
96021,-153.846153846154,4,1,0,50,0,1
96041,-100,4,1,0,50,0,1
96380,-500,4,1,0,50,0,1
96401,-83.3333333333333,4,1,0,50,0,1
96423,-500,4,1,0,50,0,1
96444,-83.3333333333333,4,1,0,50,0,1
96465,-500,4,1,0,50,0,1
96486,-83.3333333333333,4,1,0,50,0,1
96507,-500,4,1,0,50,0,1
96528,-83.3333333333333,4,1,0,50,0,1
96550,-500,4,1,0,50,0,1
96571,-83.3333333333333,4,1,0,50,0,1
96592,-500,4,1,0,50,0,1
96613,-83.3333333333333,4,1,0,50,0,1
96634,-500,4,1,0,50,0,1
96655,-83.3333333333333,4,1,0,50,0,1
96677,-500,4,1,0,50,0,1
96698,-83.3333333333333,4,1,0,50,0,1
96719,-303.030303030303,4,1,0,50,0,1
97058,-500,4,1,0,50,0,1
97079,-83.3333333333333,4,1,0,50,0,1
97100,-500,4,1,0,50,0,1
97121,-83.3333333333333,4,1,0,50,0,1
97143,-500,4,1,0,50,0,1
97164,-83.3333333333333,4,1,0,50,0,1
97185,-500,4,1,0,50,0,1
97206,-83.3333333333333,4,1,0,50,0,1
97228,-500,4,1,0,50,0,1
97249,-83.3333333333333,4,1,0,50,0,1
97270,-500,4,1,0,50,0,1
97291,-83.3333333333333,4,1,0,50,0,1
97312,-500,4,1,0,50,0,1
97333,-83.3333333333333,4,1,0,50,0,1
97355,-500,4,1,0,50,0,1
97376,-83.3333333333333,4,1,0,50,0,1
97397,-100,4,1,0,50,0,1
97566,-303.030303030303,4,1,0,50,0,1
98075,-1000,4,1,0,50,0,1
98097,-47.6190476190476,4,1,0,50,0,1
98118,-1000,4,1,0,50,0,1
98140,-47.6190476190476,4,1,0,50,0,1
98160,-1000,4,1,0,50,0,1
98182,-47.6190476190476,4,1,0,50,0,1
98202,-1000,4,1,0,50,0,1
98224,-47.6190476190476,4,1,0,50,0,1
98245,-1000,4,1,0,50,0,1
98267,-47.6190476190476,4,1,0,50,0,1
98287,-1000,4,1,0,50,0,1
98309,-47.6190476190476,4,1,0,50,0,1
98330,-1000,4,1,0,50,0,1
98352,-47.6190476190476,4,1,0,50,0,1
98372,-1000,4,1,0,50,0,1
98394,-47.6190476190476,4,1,0,50,0,1
98414,-1000,4,1,0,50,0,1
98436,-74.0740740740741,4,1,0,50,0,1
98457,-1000,4,1,0,50,0,1
98479,-74.0740740740741,4,1,0,50,0,1
98499,-1000,4,1,0,50,0,1
98521,-74.0740740740741,4,1,0,50,0,1
98541,-1000,4,1,0,50,0,1
98563,-74.0740740740741,4,1,0,50,0,1
98584,-1000,4,1,0,50,0,1
98606,-153.846153846154,4,1,0,50,0,1
98626,-1000,4,1,0,50,0,1
98648,-153.846153846154,4,1,0,50,0,1
98669,-1000,4,1,0,50,0,1
98691,-153.846153846154,4,1,0,50,0,1
98711,-1000,4,1,0,50,0,1
98733,-153.846153846154,4,1,0,50,0,1
98753,-60.6060606060606,4,1,0,50,0,1
99304,-303.030303030303,4,1,0,50,0,1
99347,-2000,4,1,0,50,0,1
99431,-1000,4,1,0,50,0,1
99453,-47.6190476190476,4,1,0,50,0,1
99474,-1000,4,1,0,50,0,1
99496,-47.6190476190476,4,1,0,50,0,1
99516,-1000,4,1,0,50,0,1
99538,-47.6190476190476,4,1,0,50,0,1
99558,-1000,4,1,0,50,0,1
99580,-47.6190476190476,4,1,0,50,0,1
99601,-1000,4,1,0,50,0,1
99623,-47.6190476190476,4,1,0,50,0,1
99643,-1000,4,1,0,50,0,1
99665,-47.6190476190476,4,1,0,50,0,1
99686,-1000,4,1,0,50,0,1
99708,-47.6190476190476,4,1,0,50,0,1
99728,-1000,4,1,0,50,0,1
99750,-47.6190476190476,4,1,0,50,0,1
99770,-1000,4,1,0,50,0,1
99792,-74.0740740740741,4,1,0,50,0,1
99813,-1000,4,1,0,50,0,1
99835,-74.0740740740741,4,1,0,50,0,1
99855,-1000,4,1,0,50,0,1
99877,-74.0740740740741,4,1,0,50,0,1
99897,-1000,4,1,0,50,0,1
99919,-74.0740740740741,4,1,0,50,0,1
99940,-1000,4,1,0,50,0,1
99962,-153.846153846154,4,1,0,50,0,1
99982,-1000,4,1,0,50,0,1
100004,-153.846153846154,4,1,0,50,0,1
100025,-1000,4,1,0,50,0,1
100047,-153.846153846154,4,1,0,50,0,1
100067,-1000,4,1,0,50,0,1
100089,-153.846153846154,4,1,0,50,0,1
100109,-60.6060606060606,4,1,0,50,0,1
100660,-303.030303030303,4,1,0,50,0,1
100703,-2000,4,1,0,50,0,1
100787,-38.4615384615385,4,1,0,50,0,1
100793,-2000,4,1,0,50,0,1
100808,-38.4615384615385,4,1,0,50,0,1
100814,-2000,4,1,0,50,0,1
100830,-38.4615384615385,4,1,0,50,0,1
100836,-2000,4,1,0,50,0,1
100851,-38.4615384615385,4,1,0,50,0,1
100857,-2000,4,1,0,50,0,1
100872,-38.4615384615385,4,1,0,50,0,1
100878,-2000,4,1,0,50,0,1
100893,-38.4615384615385,4,1,0,50,0,1
100899,-2000,4,1,0,50,0,1
100914,-38.4615384615385,4,1,0,50,0,1
100920,-2000,4,1,0,50,0,1
100936,-38.4615384615385,4,1,0,50,0,1
100942,-2000,4,1,0,50,0,1
100957,-38.4615384615385,4,1,0,50,0,1
100963,-2000,4,1,0,50,0,1
100978,-38.4615384615385,4,1,0,50,0,1
100984,-2000,4,1,0,50,0,1
100999,-38.4615384615385,4,1,0,50,0,1
101005,-2000,4,1,0,50,0,1
101020,-38.4615384615385,4,1,0,50,0,1
101026,-2000,4,1,0,50,0,1
101041,-38.4615384615385,4,1,0,50,0,1
101047,-2000,4,1,0,50,0,1
101063,-38.4615384615385,4,1,0,50,0,1
101069,-2000,4,1,0,50,0,1
101084,-38.4615384615385,4,1,0,50,0,1
101090,-2000,4,1,0,50,0,1
101105,-38.4615384615385,4,1,0,50,0,1
101111,-2000,4,1,0,50,0,1
101126,-38.4615384615385,4,1,0,50,0,1
101132,-2000,4,1,0,50,0,1
101147,-38.4615384615385,4,1,0,50,0,1
101153,-2000,4,1,0,50,0,1
101169,-38.4615384615385,4,1,0,50,0,1
101175,-2000,4,1,0,50,0,1
101190,-38.4615384615385,4,1,0,50,0,1
101196,-2000,4,1,0,50,0,1
101211,-38.4615384615385,4,1,0,50,0,1
101217,-2000,4,1,0,50,0,1
101232,-38.4615384615385,4,1,0,50,0,1
101238,-2000,4,1,0,50,0,1
101253,-38.4615384615385,4,1,0,50,0,1
101259,-2000,4,1,0,50,0,1
101274,-38.4615384615385,4,1,0,50,0,1
101280,-2000,4,1,0,50,0,1
101296,-38.4615384615385,4,1,0,50,0,1
101302,-2000,4,1,0,50,0,1
101317,-38.4615384615385,4,1,0,50,0,1
101323,-2000,4,1,0,50,0,1
101338,-38.4615384615385,4,1,0,50,0,1
101344,-2000,4,1,0,50,0,1
101359,-38.4615384615385,4,1,0,50,0,1
101365,-2000,4,1,0,50,0,1
101380,-38.4615384615385,4,1,0,50,0,1
101386,-2000,4,1,0,50,0,1
101402,-38.4615384615385,4,1,0,50,0,1
101408,-2000,4,1,0,50,0,1
101423,-38.4615384615385,4,1,0,50,0,1
101429,-2000,4,1,0,50,0,1
101444,-38.4615384615385,4,1,0,50,0,1
101450,-2000,4,1,0,50,0,1
101465,-100,4,1,0,50,0,1
101804,-500,4,1,0,50,0,1
101825,-83.3333333333333,4,1,0,50,0,1
101847,-500,4,1,0,50,0,1
101868,-83.3333333333333,4,1,0,50,0,1
101889,-500,4,1,0,50,0,1
101910,-83.3333333333333,4,1,0,50,0,1
101931,-500,4,1,0,50,0,1
101952,-83.3333333333333,4,1,0,50,0,1
101974,-500,4,1,0,50,0,1
101995,-83.3333333333333,4,1,0,50,0,1
102016,-500,4,1,0,50,0,1
102037,-83.3333333333333,4,1,0,50,0,1
102058,-500,4,1,0,50,0,1
102079,-83.3333333333333,4,1,0,50,0,1
102101,-500,4,1,0,50,0,1
102122,-83.3333333333333,4,1,0,50,0,1
102143,-303.030303030303,4,1,0,50,0,1
102482,-500,4,1,0,50,0,1
102503,-83.3333333333333,4,1,0,50,0,1
102524,-500,4,1,0,50,0,1
102545,-83.3333333333333,4,1,0,50,0,1
102567,-500,4,1,0,50,0,1
102588,-83.3333333333333,4,1,0,50,0,1
102609,-500,4,1,0,50,0,1
102630,-83.3333333333333,4,1,0,50,0,1
102652,-500,4,1,0,50,0,1
102673,-83.3333333333333,4,1,0,50,0,1
102694,-500,4,1,0,50,0,1
102715,-83.3333333333333,4,1,0,50,0,1
102736,-500,4,1,0,50,0,1
102757,-83.3333333333333,4,1,0,50,0,1
102779,-500,4,1,0,50,0,1
102800,-83.3333333333333,4,1,0,50,0,1
102821,-76.9230769230769,4,1,0,50,0,1
103160,-303.030303030303,4,1,0,50,0,1
103499,-1000,4,1,0,50,0,1
103521,-47.6190476190476,4,1,0,50,0,1
103542,-1000,4,1,0,50,0,1
103564,-47.6190476190476,4,1,0,50,0,1
103584,-1000,4,1,0,50,0,1
103606,-47.6190476190476,4,1,0,50,0,1
103626,-1000,4,1,0,50,0,1
103648,-47.6190476190476,4,1,0,50,0,1
103669,-1000,4,1,0,50,0,1
103691,-47.6190476190476,4,1,0,50,0,1
103711,-1000,4,1,0,50,0,1
103733,-47.6190476190476,4,1,0,50,0,1
103754,-1000,4,1,0,50,0,1
103776,-47.6190476190476,4,1,0,50,0,1
103796,-1000,4,1,0,50,0,1
103818,-47.6190476190476,4,1,0,50,0,1
103838,-1000,4,1,0,50,0,1
103860,-74.0740740740741,4,1,0,50,0,1
103881,-1000,4,1,0,50,0,1
103903,-74.0740740740741,4,1,0,50,0,1
103923,-1000,4,1,0,50,0,1
103945,-74.0740740740741,4,1,0,50,0,1
103965,-1000,4,1,0,50,0,1
103987,-74.0740740740741,4,1,0,50,0,1
104008,-1000,4,1,0,50,0,1
104030,-153.846153846154,4,1,0,50,0,1
104050,-1000,4,1,0,50,0,1
104072,-153.846153846154,4,1,0,50,0,1
104093,-1000,4,1,0,50,0,1
104115,-153.846153846154,4,1,0,50,0,1
104135,-1000,4,1,0,50,0,1
104157,-153.846153846154,4,1,0,50,0,1
104177,-60.6060606060606,4,1,0,50,0,1
104346,-117.647058823529,4,1,0,50,0,1
104431,-303.030303030303,4,1,0,50,0,1
104515,-500,4,1,0,50,0,1
104537,-68.9655172413793,4,1,0,50,0,1
104558,-500,4,1,0,50,0,1
104580,-68.9655172413793,4,1,0,50,0,1
104600,-500,4,1,0,50,0,1
104622,-68.9655172413793,4,1,0,50,0,1
104643,-500,4,1,0,50,0,1
104665,-68.9655172413793,4,1,0,50,0,1
104685,-500,4,1,0,50,0,1
104707,-68.9655172413793,4,1,0,50,0,1
104727,-500,4,1,0,50,0,1
104749,-68.9655172413793,4,1,0,50,0,1
104770,-500,4,1,0,50,0,1
104792,-68.9655172413793,4,1,0,50,0,1
104812,-500,4,1,0,50,0,1
104834,-68.9655172413793,4,1,0,50,0,1
104854,-500,4,1,0,50,0,1
104876,-68.9655172413793,4,1,0,50,0,1
104897,-500,4,1,0,50,0,1
104919,-68.9655172413793,4,1,0,50,0,1
104939,-500,4,1,0,50,0,1
104961,-68.9655172413793,4,1,0,50,0,1
104982,-500,4,1,0,50,0,1
105004,-68.9655172413793,4,1,0,50,0,1
105024,-500,4,1,0,50,0,1
105046,-68.9655172413793,4,1,0,50,0,1
105066,-500,4,1,0,50,0,1
105088,-68.9655172413793,4,1,0,50,0,1
105109,-500,4,1,0,50,0,1
105131,-68.9655172413793,4,1,0,50,0,1
105151,-500,4,1,0,50,0,1
105173,-68.9655172413793,4,1,0,50,0,1
105193,-74.0740740740741,4,1,0,50,0,1
105448,-303.030303030303,4,1,0,50,0,1
105532,-100,4,1,0,50,0,1
105871,-83.3333333333333,4,1,0,50,0,1
105899,-166.666666666667,4,1,0,50,0,1
105927,-83.3333333333333,4,1,0,50,0,1
105955,-166.666666666667,4,1,0,50,0,1
105984,-83.3333333333333,4,1,0,50,0,1
106012,-166.666666666667,4,1,0,50,0,1
106040,-83.3333333333333,4,1,0,50,0,1
106068,-166.666666666667,4,1,0,50,0,1
106097,-83.3333333333333,4,1,0,50,0,1
106125,-166.666666666667,4,1,0,50,0,1
106153,-83.3333333333333,4,1,0,50,0,1
106181,-166.666666666667,4,1,0,50,0,1
106210,-1000,4,1,0,50,0,1
106232,-47.6190476190476,4,1,0,50,0,1
106253,-1000,4,1,0,50,0,1
106275,-47.6190476190476,4,1,0,50,0,1
106295,-1000,4,1,0,50,0,1
106317,-47.6190476190476,4,1,0,50,0,1
106337,-1000,4,1,0,50,0,1
106359,-47.6190476190476,4,1,0,50,0,1
106380,-1000,4,1,0,50,0,1
106402,-47.6190476190476,4,1,0,50,0,1
106422,-1000,4,1,0,50,0,1
106444,-47.6190476190476,4,1,0,50,0,1
106465,-1000,4,1,0,50,0,1
106487,-47.6190476190476,4,1,0,50,0,1
106507,-1000,4,1,0,50,0,1
106529,-47.6190476190476,4,1,0,50,0,1
106549,-1000,4,1,0,50,0,1
106571,-74.0740740740741,4,1,0,50,0,1
106592,-1000,4,1,0,50,0,1
106614,-74.0740740740741,4,1,0,50,0,1
106634,-1000,4,1,0,50,0,1
106656,-74.0740740740741,4,1,0,50,0,1
106676,-1000,4,1,0,50,0,1
106698,-74.0740740740741,4,1,0,50,0,1
106719,-1000,4,1,0,50,0,1
106741,-153.846153846154,4,1,0,50,0,1
106761,-1000,4,1,0,50,0,1
106783,-153.846153846154,4,1,0,50,0,1
106804,-1000,4,1,0,50,0,1
106826,-153.846153846154,4,1,0,50,0,1
106846,-1000,4,1,0,50,0,1
106868,-153.846153846154,4,1,0,50,0,1
106888,-100,4,1,0,50,0,1
107227,-500,4,1,0,50,0,1
107248,-83.3333333333333,4,1,0,50,0,1
107270,-500,4,1,0,50,0,1
107291,-83.3333333333333,4,1,0,50,0,1
107312,-500,4,1,0,50,0,1
107333,-83.3333333333333,4,1,0,50,0,1
107354,-500,4,1,0,50,0,1
107375,-83.3333333333333,4,1,0,50,0,1
107397,-500,4,1,0,50,0,1
107418,-83.3333333333333,4,1,0,50,0,1
107439,-500,4,1,0,50,0,1
107460,-83.3333333333333,4,1,0,50,0,1
107481,-500,4,1,0,50,0,1
107502,-83.3333333333333,4,1,0,50,0,1
107524,-500,4,1,0,50,0,1
107545,-83.3333333333333,4,1,0,50,0,1
107566,-303.030303030303,4,1,0,50,0,1
107905,-500,4,1,0,50,0,1
107926,-83.3333333333333,4,1,0,50,0,1
107947,-500,4,1,0,50,0,1
107968,-83.3333333333333,4,1,0,50,0,1
107990,-500,4,1,0,50,0,1
108011,-83.3333333333333,4,1,0,50,0,1
108032,-500,4,1,0,50,0,1
108053,-83.3333333333333,4,1,0,50,0,1
108075,-500,4,1,0,50,0,1
108096,-83.3333333333333,4,1,0,50,0,1
108117,-500,4,1,0,50,0,1
108138,-83.3333333333333,4,1,0,50,0,1
108159,-500,4,1,0,50,0,1
108180,-83.3333333333333,4,1,0,50,0,1
108202,-500,4,1,0,50,0,1
108223,-83.3333333333333,4,1,0,50,0,1
108244,-90.9090909090909,4,1,0,50,0,1
108414,-500,4,1,0,50,0,1
108435,-83.3333333333333,4,1,0,50,0,1
108456,-500,4,1,0,50,0,1
108477,-83.3333333333333,4,1,0,50,0,1
108499,-500,4,1,0,50,0,1
108520,-83.3333333333333,4,1,0,50,0,1
108541,-500,4,1,0,50,0,1
108562,-83.3333333333333,4,1,0,50,0,1
108584,-500,4,1,0,50,0,1
108605,-83.3333333333333,4,1,0,50,0,1
108626,-500,4,1,0,50,0,1
108647,-83.3333333333333,4,1,0,50,0,1
108668,-500,4,1,0,50,0,1
108689,-83.3333333333333,4,1,0,50,0,1
108711,-500,4,1,0,50,0,1
108732,-83.3333333333333,4,1,0,50,0,1
108753,-500,4,1,0,50,0,1
108774,-83.3333333333333,4,1,0,50,0,1
108795,-500,4,1,0,50,0,1
108816,-83.3333333333333,4,1,0,50,0,1
108838,-500,4,1,0,50,0,1
108859,-83.3333333333333,4,1,0,50,0,1
108880,-500,4,1,0,50,0,1
108901,-83.3333333333333,4,1,0,50,0,1
108922,-166.666666666667,4,1,0,15,0,0
119770,-142.857142857143,4,1,0,20,0,0
130617,-125,4,1,0,35,0,0
140109,-1000,4,1,0,35,0,0
141464,-13.8888888888889,4,1,0,35,0,0
141474,-625,4,1,0,35,0,0
141803,-13.8888888888889,4,1,0,35,0,0
141813,-625,4,1,0,35,0,0
142142,-13.8888888888889,4,1,0,35,0,0
142152,-625,4,1,0,35,0,0
142481,-13.8888888888889,4,1,0,35,0,0
142491,-625,4,1,0,35,0,0
142820,-1000,4,1,0,50,0,1
142842,-47.6190476190476,4,1,0,50,0,1
142863,-1000,4,1,0,50,0,1
142885,-47.6190476190476,4,1,0,50,0,1
142905,-1000,4,1,0,50,0,1
142927,-47.6190476190476,4,1,0,50,0,1
142947,-1000,4,1,0,50,0,1
142969,-47.6190476190476,4,1,0,50,0,1
142990,-1000,4,1,0,50,0,1
143012,-47.6190476190476,4,1,0,50,0,1
143032,-1000,4,1,0,50,0,1
143054,-47.6190476190476,4,1,0,50,0,1
143075,-1000,4,1,0,50,0,1
143097,-47.6190476190476,4,1,0,50,0,1
143117,-1000,4,1,0,50,0,1
143139,-47.6190476190476,4,1,0,50,0,1
143159,-1000,4,1,0,50,0,1
143181,-74.0740740740741,4,1,0,50,0,1
143202,-1000,4,1,0,50,0,1
143224,-74.0740740740741,4,1,0,50,0,1
143244,-1000,4,1,0,50,0,1
143266,-74.0740740740741,4,1,0,50,0,1
143286,-1000,4,1,0,50,0,1
143308,-74.0740740740741,4,1,0,50,0,1
143329,-1000,4,1,0,50,0,1
143351,-153.846153846154,4,1,0,50,0,1
143371,-1000,4,1,0,50,0,1
143393,-153.846153846154,4,1,0,50,0,1
143414,-1000,4,1,0,50,0,1
143436,-153.846153846154,4,1,0,50,0,1
143456,-1000,4,1,0,50,0,1
143478,-153.846153846154,4,1,0,50,0,1
143498,-60.6060606060606,4,1,0,50,0,1
144049,-303.030303030303,4,1,0,50,0,1
144092,-2000,4,1,0,50,0,1
144176,-1000,4,1,0,50,0,1
144198,-47.6190476190476,4,1,0,50,0,1
144219,-1000,4,1,0,50,0,1
144241,-47.6190476190476,4,1,0,50,0,1
144261,-1000,4,1,0,50,0,1
144283,-47.6190476190476,4,1,0,50,0,1
144303,-1000,4,1,0,50,0,1
144325,-47.6190476190476,4,1,0,50,0,1
144346,-1000,4,1,0,50,0,1
144368,-47.6190476190476,4,1,0,50,0,1
144388,-1000,4,1,0,50,0,1
144410,-47.6190476190476,4,1,0,50,0,1
144431,-1000,4,1,0,50,0,1
144453,-47.6190476190476,4,1,0,50,0,1
144473,-1000,4,1,0,50,0,1
144495,-47.6190476190476,4,1,0,50,0,1
144515,-1000,4,1,0,50,0,1
144537,-74.0740740740741,4,1,0,50,0,1
144558,-1000,4,1,0,50,0,1
144580,-74.0740740740741,4,1,0,50,0,1
144600,-1000,4,1,0,50,0,1
144622,-74.0740740740741,4,1,0,50,0,1
144642,-1000,4,1,0,50,0,1
144664,-74.0740740740741,4,1,0,50,0,1
144685,-1000,4,1,0,50,0,1
144707,-153.846153846154,4,1,0,50,0,1
144727,-1000,4,1,0,50,0,1
144749,-153.846153846154,4,1,0,50,0,1
144770,-1000,4,1,0,50,0,1
144792,-153.846153846154,4,1,0,50,0,1
144812,-1000,4,1,0,50,0,1
144834,-153.846153846154,4,1,0,50,0,1
144854,-60.6060606060606,4,1,0,50,0,1
145405,-303.030303030303,4,1,0,50,0,1
145448,-2000,4,1,0,50,0,1
145532,-38.4615384615385,4,1,0,50,0,1
145538,-2000,4,1,0,50,0,1
145553,-38.4615384615385,4,1,0,50,0,1
145559,-2000,4,1,0,50,0,1
145575,-38.4615384615385,4,1,0,50,0,1
145581,-2000,4,1,0,50,0,1
145596,-38.4615384615385,4,1,0,50,0,1
145602,-2000,4,1,0,50,0,1
145617,-38.4615384615385,4,1,0,50,0,1
145623,-2000,4,1,0,50,0,1
145638,-38.4615384615385,4,1,0,50,0,1
145644,-2000,4,1,0,50,0,1
145659,-38.4615384615385,4,1,0,50,0,1
145665,-2000,4,1,0,50,0,1
145681,-38.4615384615385,4,1,0,50,0,1
145687,-2000,4,1,0,50,0,1
145702,-38.4615384615385,4,1,0,50,0,1
145708,-2000,4,1,0,50,0,1
145723,-38.4615384615385,4,1,0,50,0,1
145729,-2000,4,1,0,50,0,1
145744,-38.4615384615385,4,1,0,50,0,1
145750,-2000,4,1,0,50,0,1
145765,-38.4615384615385,4,1,0,50,0,1
145771,-2000,4,1,0,50,0,1
145786,-38.4615384615385,4,1,0,50,0,1
145792,-2000,4,1,0,50,0,1
145808,-38.4615384615385,4,1,0,50,0,1
145814,-2000,4,1,0,50,0,1
145829,-38.4615384615385,4,1,0,50,0,1
145835,-2000,4,1,0,50,0,1
145850,-38.4615384615385,4,1,0,50,0,1
145856,-2000,4,1,0,50,0,1
145871,-38.4615384615385,4,1,0,50,0,1
145877,-2000,4,1,0,50,0,1
145892,-38.4615384615385,4,1,0,50,0,1
145898,-2000,4,1,0,50,0,1
145914,-38.4615384615385,4,1,0,50,0,1
145920,-2000,4,1,0,50,0,1
145935,-38.4615384615385,4,1,0,50,0,1
145941,-2000,4,1,0,50,0,1
145956,-38.4615384615385,4,1,0,50,0,1
145962,-2000,4,1,0,50,0,1
145977,-38.4615384615385,4,1,0,50,0,1
145983,-2000,4,1,0,50,0,1
145998,-38.4615384615385,4,1,0,50,0,1
146004,-2000,4,1,0,50,0,1
146019,-38.4615384615385,4,1,0,50,0,1
146025,-2000,4,1,0,50,0,1
146041,-38.4615384615385,4,1,0,50,0,1
146047,-2000,4,1,0,50,0,1
146062,-38.4615384615385,4,1,0,50,0,1
146068,-2000,4,1,0,50,0,1
146083,-38.4615384615385,4,1,0,50,0,1
146089,-2000,4,1,0,50,0,1
146104,-38.4615384615385,4,1,0,50,0,1
146110,-2000,4,1,0,50,0,1
146125,-38.4615384615385,4,1,0,50,0,1
146131,-2000,4,1,0,50,0,1
146147,-38.4615384615385,4,1,0,50,0,1
146153,-2000,4,1,0,50,0,1
146168,-38.4615384615385,4,1,0,50,0,1
146174,-2000,4,1,0,50,0,1
146189,-38.4615384615385,4,1,0,50,0,1
146195,-2000,4,1,0,50,0,1
146210,-100,4,1,0,50,0,1
146549,-500,4,1,0,50,0,1
146570,-83.3333333333333,4,1,0,50,0,1
146592,-500,4,1,0,50,0,1
146613,-83.3333333333333,4,1,0,50,0,1
146634,-500,4,1,0,50,0,1
146655,-83.3333333333333,4,1,0,50,0,1
146676,-500,4,1,0,50,0,1
146697,-83.3333333333333,4,1,0,50,0,1
146719,-500,4,1,0,50,0,1
146740,-83.3333333333333,4,1,0,50,0,1
146761,-500,4,1,0,50,0,1
146782,-83.3333333333333,4,1,0,50,0,1
146803,-500,4,1,0,50,0,1
146824,-83.3333333333333,4,1,0,50,0,1
146846,-500,4,1,0,50,0,1
146867,-83.3333333333333,4,1,0,50,0,1
146888,-303.030303030303,4,1,0,50,0,1
147227,-500,4,1,0,50,0,1
147248,-83.3333333333333,4,1,0,50,0,1
147269,-500,4,1,0,50,0,1
147290,-83.3333333333333,4,1,0,50,0,1
147312,-500,4,1,0,50,0,1
147333,-83.3333333333333,4,1,0,50,0,1
147354,-500,4,1,0,50,0,1
147375,-83.3333333333333,4,1,0,50,0,1
147397,-500,4,1,0,50,0,1
147418,-83.3333333333333,4,1,0,50,0,1
147439,-500,4,1,0,50,0,1
147460,-83.3333333333333,4,1,0,50,0,1
147481,-500,4,1,0,50,0,1
147502,-83.3333333333333,4,1,0,50,0,1
147524,-500,4,1,0,50,0,1
147545,-83.3333333333333,4,1,0,50,0,1
147566,-76.9230769230769,4,1,0,50,0,1
147905,-303.030303030303,4,1,0,50,0,1
148244,-1000,4,1,0,50,0,1
148266,-47.6190476190476,4,1,0,50,0,1
148287,-1000,4,1,0,50,0,1
148309,-47.6190476190476,4,1,0,50,0,1
148329,-1000,4,1,0,50,0,1
148351,-47.6190476190476,4,1,0,50,0,1
148371,-1000,4,1,0,50,0,1
148393,-47.6190476190476,4,1,0,50,0,1
148414,-1000,4,1,0,50,0,1
148436,-47.6190476190476,4,1,0,50,0,1
148456,-1000,4,1,0,50,0,1
148478,-47.6190476190476,4,1,0,50,0,1
148499,-1000,4,1,0,50,0,1
148521,-47.6190476190476,4,1,0,50,0,1
148541,-1000,4,1,0,50,0,1
148563,-47.6190476190476,4,1,0,50,0,1
148583,-1000,4,1,0,50,0,1
148605,-74.0740740740741,4,1,0,50,0,1
148626,-1000,4,1,0,50,0,1
148648,-74.0740740740741,4,1,0,50,0,1
148668,-1000,4,1,0,50,0,1
148690,-74.0740740740741,4,1,0,50,0,1
148710,-1000,4,1,0,50,0,1
148732,-74.0740740740741,4,1,0,50,0,1
148753,-1000,4,1,0,50,0,1
148775,-153.846153846154,4,1,0,50,0,1
148795,-1000,4,1,0,50,0,1
148817,-153.846153846154,4,1,0,50,0,1
148838,-1000,4,1,0,50,0,1
148860,-153.846153846154,4,1,0,50,0,1
148880,-1000,4,1,0,50,0,1
148902,-153.846153846154,4,1,0,50,0,1
148922,-60.6060606060606,4,1,0,50,0,1
149092,-117.647058823529,4,1,0,50,0,1
149177,-303.030303030303,4,1,0,50,0,1
149261,-500,4,1,0,50,0,1
149283,-68.9655172413793,4,1,0,50,0,1
149304,-500,4,1,0,50,0,1
149326,-68.9655172413793,4,1,0,50,0,1
149346,-500,4,1,0,50,0,1
149368,-68.9655172413793,4,1,0,50,0,1
149389,-500,4,1,0,50,0,1
149411,-68.9655172413793,4,1,0,50,0,1
149431,-500,4,1,0,50,0,1
149453,-68.9655172413793,4,1,0,50,0,1
149473,-500,4,1,0,50,0,1
149495,-68.9655172413793,4,1,0,50,0,1
149516,-500,4,1,0,50,0,1
149538,-68.9655172413793,4,1,0,50,0,1
149558,-500,4,1,0,50,0,1
149580,-68.9655172413793,4,1,0,50,0,1
149600,-500,4,1,0,50,0,1
149622,-68.9655172413793,4,1,0,50,0,1
149643,-500,4,1,0,50,0,1
149665,-68.9655172413793,4,1,0,50,0,1
149685,-500,4,1,0,50,0,1
149707,-68.9655172413793,4,1,0,50,0,1
149728,-500,4,1,0,50,0,1
149750,-68.9655172413793,4,1,0,50,0,1
149770,-500,4,1,0,50,0,1
149792,-68.9655172413793,4,1,0,50,0,1
149812,-500,4,1,0,50,0,1
149834,-68.9655172413793,4,1,0,50,0,1
149855,-500,4,1,0,50,0,1
149877,-68.9655172413793,4,1,0,50,0,1
149897,-500,4,1,0,50,0,1
149919,-68.9655172413793,4,1,0,50,0,1
149939,-74.0740740740741,4,1,0,50,0,1
150194,-303.030303030303,4,1,0,50,0,1
150278,-100,4,1,0,50,0,1
150617,-83.3333333333333,4,1,0,50,0,1
150645,-166.666666666667,4,1,0,50,0,1
150673,-83.3333333333333,4,1,0,50,0,1
150701,-166.666666666667,4,1,0,50,0,1
150730,-83.3333333333333,4,1,0,50,0,1
150758,-166.666666666667,4,1,0,50,0,1
150786,-83.3333333333333,4,1,0,50,0,1
150814,-166.666666666667,4,1,0,50,0,1
150843,-83.3333333333333,4,1,0,50,0,1
150871,-166.666666666667,4,1,0,50,0,1
150899,-83.3333333333333,4,1,0,50,0,1
150927,-166.666666666667,4,1,0,50,0,1
150956,-1000,4,1,0,50,0,1
150978,-47.6190476190476,4,1,0,50,0,1
150999,-1000,4,1,0,50,0,1
151021,-47.6190476190476,4,1,0,50,0,1
151041,-1000,4,1,0,50,0,1
151063,-47.6190476190476,4,1,0,50,0,1
151083,-1000,4,1,0,50,0,1
151105,-47.6190476190476,4,1,0,50,0,1
151126,-1000,4,1,0,50,0,1
151148,-47.6190476190476,4,1,0,50,0,1
151168,-1000,4,1,0,50,0,1
151190,-47.6190476190476,4,1,0,50,0,1
151211,-1000,4,1,0,50,0,1
151233,-47.6190476190476,4,1,0,50,0,1
151253,-1000,4,1,0,50,0,1
151275,-47.6190476190476,4,1,0,50,0,1
151295,-1000,4,1,0,50,0,1
151317,-74.0740740740741,4,1,0,50,0,1
151338,-1000,4,1,0,50,0,1
151360,-74.0740740740741,4,1,0,50,0,1
151380,-1000,4,1,0,50,0,1
151402,-74.0740740740741,4,1,0,50,0,1
151422,-1000,4,1,0,50,0,1
151444,-74.0740740740741,4,1,0,50,0,1
151465,-1000,4,1,0,50,0,1
151487,-153.846153846154,4,1,0,50,0,1
151507,-1000,4,1,0,50,0,1
151529,-153.846153846154,4,1,0,50,0,1
151550,-1000,4,1,0,50,0,1
151572,-153.846153846154,4,1,0,50,0,1
151592,-1000,4,1,0,50,0,1
151614,-153.846153846154,4,1,0,50,0,1
151634,-100,4,1,0,50,0,1
151973,-500,4,1,0,50,0,1
151994,-83.3333333333333,4,1,0,50,0,1
152016,-500,4,1,0,50,0,1
152037,-83.3333333333333,4,1,0,50,0,1
152058,-500,4,1,0,50,0,1
152079,-83.3333333333333,4,1,0,50,0,1
152100,-500,4,1,0,50,0,1
152121,-83.3333333333333,4,1,0,50,0,1
152143,-500,4,1,0,50,0,1
152164,-83.3333333333333,4,1,0,50,0,1
152185,-500,4,1,0,50,0,1
152206,-83.3333333333333,4,1,0,50,0,1
152227,-500,4,1,0,50,0,1
152248,-83.3333333333333,4,1,0,50,0,1
152270,-500,4,1,0,50,0,1
152291,-83.3333333333333,4,1,0,50,0,1
152312,-303.030303030303,4,1,0,50,0,1
152651,-500,4,1,0,50,0,1
152672,-83.3333333333333,4,1,0,50,0,1
152693,-500,4,1,0,50,0,1
152714,-83.3333333333333,4,1,0,50,0,1
152736,-500,4,1,0,50,0,1
152757,-83.3333333333333,4,1,0,50,0,1
152778,-500,4,1,0,50,0,1
152799,-83.3333333333333,4,1,0,50,0,1
152821,-500,4,1,0,50,0,1
152842,-83.3333333333333,4,1,0,50,0,1
152863,-500,4,1,0,50,0,1
152884,-83.3333333333333,4,1,0,50,0,1
152905,-500,4,1,0,50,0,1
152926,-83.3333333333333,4,1,0,50,0,1
152948,-500,4,1,0,50,0,1
152969,-83.3333333333333,4,1,0,50,0,1
152990,-100,4,1,0,50,0,1
153159,-303.030303030303,4,1,0,50,0,1
153668,-1000,4,1,0,50,0,1
153690,-47.6190476190476,4,1,0,50,0,1
153711,-1000,4,1,0,50,0,1
153733,-47.6190476190476,4,1,0,50,0,1
153753,-1000,4,1,0,50,0,1
153775,-47.6190476190476,4,1,0,50,0,1
153795,-1000,4,1,0,50,0,1
153817,-47.6190476190476,4,1,0,50,0,1
153838,-1000,4,1,0,50,0,1
153860,-47.6190476190476,4,1,0,50,0,1
153880,-1000,4,1,0,50,0,1
153902,-47.6190476190476,4,1,0,50,0,1
153923,-1000,4,1,0,50,0,1
153945,-47.6190476190476,4,1,0,50,0,1
153965,-1000,4,1,0,50,0,1
153987,-47.6190476190476,4,1,0,50,0,1
154007,-1000,4,1,0,50,0,1
154029,-74.0740740740741,4,1,0,50,0,1
154050,-1000,4,1,0,50,0,1
154072,-74.0740740740741,4,1,0,50,0,1
154092,-1000,4,1,0,50,0,1
154114,-74.0740740740741,4,1,0,50,0,1
154134,-1000,4,1,0,50,0,1
154156,-74.0740740740741,4,1,0,50,0,1
154177,-1000,4,1,0,50,0,1
154199,-153.846153846154,4,1,0,50,0,1
154219,-1000,4,1,0,50,0,1
154241,-153.846153846154,4,1,0,50,0,1
154262,-1000,4,1,0,50,0,1
154284,-153.846153846154,4,1,0,50,0,1
154304,-1000,4,1,0,50,0,1
154326,-153.846153846154,4,1,0,50,0,1
154346,-60.6060606060606,4,1,0,50,0,1
154897,-303.030303030303,4,1,0,50,0,1
154940,-2000,4,1,0,50,0,1
155024,-1000,4,1,0,50,0,1
155046,-47.6190476190476,4,1,0,50,0,1
155067,-1000,4,1,0,50,0,1
155089,-47.6190476190476,4,1,0,50,0,1
155109,-1000,4,1,0,50,0,1
155131,-47.6190476190476,4,1,0,50,0,1
155151,-1000,4,1,0,50,0,1
155173,-47.6190476190476,4,1,0,50,0,1
155194,-1000,4,1,0,50,0,1
155216,-47.6190476190476,4,1,0,50,0,1
155236,-1000,4,1,0,50,0,1
155258,-47.6190476190476,4,1,0,50,0,1
155279,-1000,4,1,0,50,0,1
155301,-47.6190476190476,4,1,0,50,0,1
155321,-1000,4,1,0,50,0,1
155343,-47.6190476190476,4,1,0,50,0,1
155363,-1000,4,1,0,50,0,1
155385,-74.0740740740741,4,1,0,50,0,1
155406,-1000,4,1,0,50,0,1
155428,-74.0740740740741,4,1,0,50,0,1
155448,-1000,4,1,0,50,0,1
155470,-74.0740740740741,4,1,0,50,0,1
155490,-1000,4,1,0,50,0,1
155512,-74.0740740740741,4,1,0,50,0,1
155533,-1000,4,1,0,50,0,1
155555,-153.846153846154,4,1,0,50,0,1
155575,-1000,4,1,0,50,0,1
155597,-153.846153846154,4,1,0,50,0,1
155618,-1000,4,1,0,50,0,1
155640,-153.846153846154,4,1,0,50,0,1
155660,-1000,4,1,0,50,0,1
155682,-153.846153846154,4,1,0,50,0,1
155702,-60.6060606060606,4,1,0,50,0,1
156253,-303.030303030303,4,1,0,50,0,1
156296,-2000,4,1,0,50,0,1
156380,-38.4615384615385,4,1,0,50,0,1
156386,-2000,4,1,0,50,0,1
156401,-38.4615384615385,4,1,0,50,0,1
156407,-2000,4,1,0,50,0,1
156423,-38.4615384615385,4,1,0,50,0,1
156429,-2000,4,1,0,50,0,1
156444,-38.4615384615385,4,1,0,50,0,1
156450,-2000,4,1,0,50,0,1
156465,-38.4615384615385,4,1,0,50,0,1
156471,-2000,4,1,0,50,0,1
156486,-38.4615384615385,4,1,0,50,0,1
156492,-2000,4,1,0,50,0,1
156507,-38.4615384615385,4,1,0,50,0,1
156513,-2000,4,1,0,50,0,1
156529,-38.4615384615385,4,1,0,50,0,1
156535,-2000,4,1,0,50,0,1
156550,-38.4615384615385,4,1,0,50,0,1
156556,-2000,4,1,0,50,0,1
156571,-38.4615384615385,4,1,0,50,0,1
156577,-2000,4,1,0,50,0,1
156592,-38.4615384615385,4,1,0,50,0,1
156598,-2000,4,1,0,50,0,1
156613,-38.4615384615385,4,1,0,50,0,1
156619,-2000,4,1,0,50,0,1
156634,-38.4615384615385,4,1,0,50,0,1
156640,-2000,4,1,0,50,0,1
156656,-38.4615384615385,4,1,0,50,0,1
156662,-2000,4,1,0,50,0,1
156677,-38.4615384615385,4,1,0,50,0,1
156683,-2000,4,1,0,50,0,1
156698,-38.4615384615385,4,1,0,50,0,1
156704,-2000,4,1,0,50,0,1
156719,-38.4615384615385,4,1,0,50,0,1
156725,-2000,4,1,0,50,0,1
156740,-38.4615384615385,4,1,0,50,0,1
156746,-2000,4,1,0,50,0,1
156762,-38.4615384615385,4,1,0,50,0,1
156768,-2000,4,1,0,50,0,1
156783,-38.4615384615385,4,1,0,50,0,1
156789,-2000,4,1,0,50,0,1
156804,-38.4615384615385,4,1,0,50,0,1
156810,-2000,4,1,0,50,0,1
156825,-38.4615384615385,4,1,0,50,0,1
156831,-2000,4,1,0,50,0,1
156846,-38.4615384615385,4,1,0,50,0,1
156852,-2000,4,1,0,50,0,1
156867,-38.4615384615385,4,1,0,50,0,1
156873,-2000,4,1,0,50,0,1
156889,-38.4615384615385,4,1,0,50,0,1
156895,-2000,4,1,0,50,0,1
156910,-38.4615384615385,4,1,0,50,0,1
156916,-2000,4,1,0,50,0,1
156931,-38.4615384615385,4,1,0,50,0,1
156937,-2000,4,1,0,50,0,1
156952,-38.4615384615385,4,1,0,50,0,1
156958,-2000,4,1,0,50,0,1
156973,-38.4615384615385,4,1,0,50,0,1
156979,-2000,4,1,0,50,0,1
156995,-38.4615384615385,4,1,0,50,0,1
157001,-2000,4,1,0,50,0,1
157016,-38.4615384615385,4,1,0,50,0,1
157022,-2000,4,1,0,50,0,1
157037,-38.4615384615385,4,1,0,50,0,1
157043,-2000,4,1,0,50,0,1
157058,-100,4,1,0,50,0,1
157397,-500,4,1,0,50,0,1
157418,-83.3333333333333,4,1,0,50,0,1
157440,-500,4,1,0,50,0,1
157461,-83.3333333333333,4,1,0,50,0,1
157482,-500,4,1,0,50,0,1
157503,-83.3333333333333,4,1,0,50,0,1
157524,-500,4,1,0,50,0,1
157545,-83.3333333333333,4,1,0,50,0,1
157567,-500,4,1,0,50,0,1
157588,-83.3333333333333,4,1,0,50,0,1
157609,-500,4,1,0,50,0,1
157630,-83.3333333333333,4,1,0,50,0,1
157651,-500,4,1,0,50,0,1
157672,-83.3333333333333,4,1,0,50,0,1
157694,-500,4,1,0,50,0,1
157715,-83.3333333333333,4,1,0,50,0,1
157736,-303.030303030303,4,1,0,50,0,1
158075,-500,4,1,0,50,0,1
158096,-83.3333333333333,4,1,0,50,0,1
158117,-500,4,1,0,50,0,1
158138,-83.3333333333333,4,1,0,50,0,1
158160,-500,4,1,0,50,0,1
158181,-83.3333333333333,4,1,0,50,0,1
158202,-500,4,1,0,50,0,1
158223,-83.3333333333333,4,1,0,50,0,1
158245,-500,4,1,0,50,0,1
158266,-83.3333333333333,4,1,0,50,0,1
158287,-500,4,1,0,50,0,1
158308,-83.3333333333333,4,1,0,50,0,1
158329,-500,4,1,0,50,0,1
158350,-83.3333333333333,4,1,0,50,0,1
158372,-500,4,1,0,50,0,1
158393,-83.3333333333333,4,1,0,50,0,1
158414,-76.9230769230769,4,1,0,50,0,1
158753,-303.030303030303,4,1,0,50,0,1
159092,-1000,4,1,0,50,0,1
159114,-47.6190476190476,4,1,0,50,0,1
159135,-1000,4,1,0,50,0,1
159157,-47.6190476190476,4,1,0,50,0,1
159177,-1000,4,1,0,50,0,1
159199,-47.6190476190476,4,1,0,50,0,1
159219,-1000,4,1,0,50,0,1
159241,-47.6190476190476,4,1,0,50,0,1
159262,-1000,4,1,0,50,0,1
159284,-47.6190476190476,4,1,0,50,0,1
159304,-1000,4,1,0,50,0,1
159326,-47.6190476190476,4,1,0,50,0,1
159347,-1000,4,1,0,50,0,1
159369,-47.6190476190476,4,1,0,50,0,1
159389,-1000,4,1,0,50,0,1
159411,-47.6190476190476,4,1,0,50,0,1
159431,-1000,4,1,0,50,0,1
159453,-74.0740740740741,4,1,0,50,0,1
159474,-1000,4,1,0,50,0,1
159496,-74.0740740740741,4,1,0,50,0,1
159516,-1000,4,1,0,50,0,1
159538,-74.0740740740741,4,1,0,50,0,1
159558,-1000,4,1,0,50,0,1
159580,-74.0740740740741,4,1,0,50,0,1
159601,-1000,4,1,0,50,0,1
159623,-153.846153846154,4,1,0,50,0,1
159643,-1000,4,1,0,50,0,1
159665,-153.846153846154,4,1,0,50,0,1
159686,-1000,4,1,0,50,0,1
159708,-153.846153846154,4,1,0,50,0,1
159728,-1000,4,1,0,50,0,1
159750,-153.846153846154,4,1,0,50,0,1
159770,-60.6060606060606,4,1,0,50,0,1
159939,-117.647058823529,4,1,0,50,0,1
160024,-303.030303030303,4,1,0,50,0,1
160108,-500,4,1,0,50,0,1
160130,-68.9655172413793,4,1,0,50,0,1
160151,-500,4,1,0,50,0,1
160173,-68.9655172413793,4,1,0,50,0,1
160193,-500,4,1,0,50,0,1
160215,-68.9655172413793,4,1,0,50,0,1
160236,-500,4,1,0,50,0,1
160258,-68.9655172413793,4,1,0,50,0,1
160278,-500,4,1,0,50,0,1
160300,-68.9655172413793,4,1,0,50,0,1
160320,-500,4,1,0,50,0,1
160342,-68.9655172413793,4,1,0,50,0,1
160363,-500,4,1,0,50,0,1
160385,-68.9655172413793,4,1,0,50,0,1
160405,-500,4,1,0,50,0,1
160427,-68.9655172413793,4,1,0,50,0,1
160447,-500,4,1,0,50,0,1
160469,-68.9655172413793,4,1,0,50,0,1
160490,-500,4,1,0,50,0,1
160512,-68.9655172413793,4,1,0,50,0,1
160532,-500,4,1,0,50,0,1
160554,-68.9655172413793,4,1,0,50,0,1
160575,-500,4,1,0,50,0,1
160597,-68.9655172413793,4,1,0,50,0,1
160617,-500,4,1,0,50,0,1
160639,-68.9655172413793,4,1,0,50,0,1
160659,-500,4,1,0,50,0,1
160681,-68.9655172413793,4,1,0,50,0,1
160702,-500,4,1,0,50,0,1
160724,-68.9655172413793,4,1,0,50,0,1
160744,-500,4,1,0,50,0,1
160766,-68.9655172413793,4,1,0,50,0,1
160786,-74.0740740740741,4,1,0,50,0,1
161041,-303.030303030303,4,1,0,50,0,1
161125,-100,4,1,0,50,0,1
161464,-83.3333333333333,4,1,0,50,0,1
161492,-166.666666666667,4,1,0,50,0,1
161520,-83.3333333333333,4,1,0,50,0,1
161548,-166.666666666667,4,1,0,50,0,1
161577,-83.3333333333333,4,1,0,50,0,1
161605,-166.666666666667,4,1,0,50,0,1
161633,-83.3333333333333,4,1,0,50,0,1
161661,-166.666666666667,4,1,0,50,0,1
161690,-83.3333333333333,4,1,0,50,0,1
161718,-166.666666666667,4,1,0,50,0,1
161746,-83.3333333333333,4,1,0,50,0,1
161774,-166.666666666667,4,1,0,50,0,1
161803,-1000,4,1,0,50,0,1
161825,-47.6190476190476,4,1,0,50,0,1
161846,-1000,4,1,0,50,0,1
161868,-47.6190476190476,4,1,0,50,0,1
161888,-1000,4,1,0,50,0,1
161910,-47.6190476190476,4,1,0,50,0,1
161930,-1000,4,1,0,50,0,1
161952,-47.6190476190476,4,1,0,50,0,1
161973,-1000,4,1,0,50,0,1
161995,-47.6190476190476,4,1,0,50,0,1
162015,-1000,4,1,0,50,0,1
162037,-47.6190476190476,4,1,0,50,0,1
162058,-1000,4,1,0,50,0,1
162080,-47.6190476190476,4,1,0,50,0,1
162100,-1000,4,1,0,50,0,1
162122,-47.6190476190476,4,1,0,50,0,1
162142,-1000,4,1,0,50,0,1
162164,-74.0740740740741,4,1,0,50,0,1
162185,-1000,4,1,0,50,0,1
162207,-74.0740740740741,4,1,0,50,0,1
162227,-1000,4,1,0,50,0,1
162249,-74.0740740740741,4,1,0,50,0,1
162269,-1000,4,1,0,50,0,1
162291,-74.0740740740741,4,1,0,50,0,1
162312,-1000,4,1,0,50,0,1
162334,-153.846153846154,4,1,0,50,0,1
162354,-1000,4,1,0,50,0,1
162376,-153.846153846154,4,1,0,50,0,1
162397,-1000,4,1,0,50,0,1
162419,-153.846153846154,4,1,0,50,0,1
162439,-1000,4,1,0,50,0,1
162461,-153.846153846154,4,1,0,50,0,1
162481,-100,4,1,0,50,0,1
162820,-500,4,1,0,50,0,1
162841,-83.3333333333333,4,1,0,50,0,1
162863,-500,4,1,0,50,0,1
162884,-83.3333333333333,4,1,0,50,0,1
162905,-500,4,1,0,50,0,1
162926,-83.3333333333333,4,1,0,50,0,1
162947,-500,4,1,0,50,0,1
162968,-83.3333333333333,4,1,0,50,0,1
162990,-500,4,1,0,50,0,1
163011,-83.3333333333333,4,1,0,50,0,1
163032,-500,4,1,0,50,0,1
163053,-83.3333333333333,4,1,0,50,0,1
163074,-500,4,1,0,50,0,1
163095,-83.3333333333333,4,1,0,50,0,1
163117,-500,4,1,0,50,0,1
163138,-83.3333333333333,4,1,0,50,0,1
163159,-13.8888888888889,4,1,0,35,0,0
163169,-625,4,1,0,35,0,0
163498,-13.8888888888889,4,1,0,35,0,0
163508,-625,4,1,0,35,0,0
163837,-13.8888888888889,4,1,0,35,0,0
163847,-625,4,1,0,35,0,0
164176,-13.8888888888889,4,1,0,35,0,0
164186,-625,4,1,0,35,0,0
164515,-100,4,1,0,35,0,0
167199,-36.3636363636364,4,1,0,35,0,0
167227,-666.666666666667,4,1,0,35,0,0
167425,-36.3636363636364,4,1,0,35,0,0
167453,-666.666666666667,4,1,0,35,0,0
167651,-36.3636363636364,4,1,0,35,0,0
167679,-666.666666666667,4,1,0,35,0,0
167877,-36.3636363636364,4,1,0,35,0,0
167905,-333.333333333333,4,1,0,35,0,0
168216,-36.3636363636364,4,1,0,35,0,0
168244,-500,4,1,0,35,0,0
168386,-36.3636363636364,4,1,0,35,0,0
168414,-83.3333333333333,4,1,0,35,0,0
168555,-303.030303030303,4,1,0,35,0,0
168583,-250,4,1,0,35,0,0
168604,-100,4,1,0,35,0,0
168626,-250,4,1,0,35,0,0
168647,-100,4,1,0,35,0,0
168668,-250,4,1,0,35,0,0
168689,-100,4,1,0,35,0,0
168711,-250,4,1,0,35,0,0
168732,-100,4,1,0,35,0,0
168753,-250,4,1,0,35,0,0
168774,-100,4,1,0,35,0,0
168795,-250,4,1,0,35,0,0
168816,-100,4,1,0,35,0,0
168838,-250,4,1,0,35,0,0
168859,-100,4,1,0,35,0,0
168880,-250,4,1,0,35,0,0
168901,-100,4,1,0,35,0,0
168922,-250,4,1,0,35,0,0
168943,-100,4,1,0,35,0,0
168965,-250,4,1,0,35,0,0
168986,-100,4,1,0,35,0,0
169007,-250,4,1,0,35,0,0
169028,-100,4,1,0,35,0,0
169050,-250,4,1,0,35,0,0
169071,-100,4,1,0,35,0,0
169092,-250,4,1,0,35,0,0
169113,-100,4,1,0,35,0,0
169134,-250,4,1,0,35,0,0
169155,-100,4,1,0,35,0,0
169177,-250,4,1,0,35,0,0
169198,-100,4,1,0,35,0,0
169219,-250,4,1,0,35,0,0
169240,-100,4,1,0,35,0,0
169261,-10000,4,1,0,35,0,0
169600,-142.857142857143,4,1,0,35,0,0
169939,-125,4,1,0,35,0,0
172651,-1000,4,1,0,50,0,0
172673,-47.6190476190476,4,1,0,50,0,0
172694,-1000,4,1,0,50,0,0
172716,-47.6190476190476,4,1,0,50,0,0
172736,-1000,4,1,0,50,0,0
172758,-47.6190476190476,4,1,0,50,0,0
172778,-1000,4,1,0,50,0,0
172800,-47.6190476190476,4,1,0,50,0,0
172821,-1000,4,1,0,50,0,0
172843,-47.6190476190476,4,1,0,50,0,0
172863,-1000,4,1,0,50,0,0
172885,-47.6190476190476,4,1,0,50,0,0
172906,-1000,4,1,0,50,0,0
172928,-47.6190476190476,4,1,0,50,0,0
172948,-1000,4,1,0,50,0,0
172970,-47.6190476190476,4,1,0,50,0,0
172990,-1000,4,1,0,50,0,0
173012,-74.0740740740741,4,1,0,50,0,0
173033,-1000,4,1,0,50,0,0
173055,-74.0740740740741,4,1,0,50,0,0
173075,-1000,4,1,0,50,0,0
173097,-74.0740740740741,4,1,0,50,0,0
173117,-1000,4,1,0,50,0,0
173139,-74.0740740740741,4,1,0,50,0,0
173160,-1000,4,1,0,50,0,0
173182,-153.846153846154,4,1,0,50,0,0
173202,-1000,4,1,0,50,0,0
173224,-153.846153846154,4,1,0,50,0,0
173245,-1000,4,1,0,50,0,0
173267,-153.846153846154,4,1,0,50,0,0
173287,-1000,4,1,0,50,0,0
173309,-153.846153846154,4,1,0,50,0,0
173329,-111.111111111111,4,1,0,50,0,0
173668,-500,4,1,0,50,0,0
173689,-83.3333333333333,4,1,0,50,0,0
173711,-500,4,1,0,50,0,0
173732,-83.3333333333333,4,1,0,50,0,0
173753,-500,4,1,0,50,0,0
173774,-83.3333333333333,4,1,0,50,0,0
173795,-500,4,1,0,50,0,0
173816,-83.3333333333333,4,1,0,50,0,0
173838,-500,4,1,0,50,0,0
173859,-83.3333333333333,4,1,0,50,0,0
173880,-500,4,1,0,50,0,0
173901,-83.3333333333333,4,1,0,50,0,0
173922,-500,4,1,0,50,0,0
173943,-83.3333333333333,4,1,0,50,0,0
173965,-500,4,1,0,50,0,0
173986,-83.3333333333333,4,1,0,50,0,0
174007,-303.030303030303,4,1,0,50,0,0
174346,-500,4,1,0,50,0,0
174367,-83.3333333333333,4,1,0,50,0,0
174388,-500,4,1,0,50,0,0
174409,-83.3333333333333,4,1,0,50,0,0
174431,-500,4,1,0,50,0,0
174452,-83.3333333333333,4,1,0,50,0,0
174473,-500,4,1,0,50,0,0
174494,-83.3333333333333,4,1,0,50,0,0
174516,-500,4,1,0,50,0,0
174537,-83.3333333333333,4,1,0,50,0,0
174558,-500,4,1,0,50,0,0
174579,-83.3333333333333,4,1,0,50,0,0
174600,-500,4,1,0,50,0,0
174621,-83.3333333333333,4,1,0,50,0,0
174643,-500,4,1,0,50,0,0
174664,-83.3333333333333,4,1,0,50,0,0
174685,-111.111111111111,4,1,0,50,0,0
174854,-303.030303030303,4,1,0,50,0,0
175363,-1000,4,1,0,50,0,1
175385,-47.6190476190476,4,1,0,50,0,1
175406,-1000,4,1,0,50,0,1
175428,-47.6190476190476,4,1,0,50,0,1
175448,-1000,4,1,0,50,0,1
175470,-47.6190476190476,4,1,0,50,0,1
175490,-1000,4,1,0,50,0,1
175512,-47.6190476190476,4,1,0,50,0,1
175533,-1000,4,1,0,50,0,1
175555,-47.6190476190476,4,1,0,50,0,1
175575,-1000,4,1,0,50,0,1
175597,-47.6190476190476,4,1,0,50,0,1
175618,-1000,4,1,0,50,0,1
175640,-47.6190476190476,4,1,0,50,0,1
175660,-1000,4,1,0,50,0,1
175682,-47.6190476190476,4,1,0,50,0,1
175702,-1000,4,1,0,50,0,1
175724,-74.0740740740741,4,1,0,50,0,1
175745,-1000,4,1,0,50,0,1
175767,-74.0740740740741,4,1,0,50,0,1
175787,-1000,4,1,0,50,0,1
175809,-74.0740740740741,4,1,0,50,0,1
175829,-1000,4,1,0,50,0,1
175851,-74.0740740740741,4,1,0,50,0,1
175872,-1000,4,1,0,50,0,1
175894,-153.846153846154,4,1,0,50,0,1
175914,-1000,4,1,0,50,0,1
175936,-153.846153846154,4,1,0,50,0,1
175957,-1000,4,1,0,50,0,1
175979,-153.846153846154,4,1,0,50,0,1
175999,-1000,4,1,0,50,0,1
176021,-153.846153846154,4,1,0,50,0,1
176041,-60.6060606060606,4,1,0,50,0,1
176592,-303.030303030303,4,1,0,50,0,1
176635,-2000,4,1,0,50,0,1
176719,-1000,4,1,0,50,0,1
176741,-47.6190476190476,4,1,0,50,0,1
176762,-1000,4,1,0,50,0,1
176784,-47.6190476190476,4,1,0,50,0,1
176804,-1000,4,1,0,50,0,1
176826,-47.6190476190476,4,1,0,50,0,1
176846,-1000,4,1,0,50,0,1
176868,-47.6190476190476,4,1,0,50,0,1
176889,-1000,4,1,0,50,0,1
176911,-47.6190476190476,4,1,0,50,0,1
176931,-1000,4,1,0,50,0,1
176953,-47.6190476190476,4,1,0,50,0,1
176974,-1000,4,1,0,50,0,1
176996,-47.6190476190476,4,1,0,50,0,1
177016,-1000,4,1,0,50,0,1
177038,-47.6190476190476,4,1,0,50,0,1
177058,-1000,4,1,0,50,0,1
177080,-74.0740740740741,4,1,0,50,0,1
177101,-1000,4,1,0,50,0,1
177123,-74.0740740740741,4,1,0,50,0,1
177143,-1000,4,1,0,50,0,1
177165,-74.0740740740741,4,1,0,50,0,1
177185,-1000,4,1,0,50,0,1
177207,-74.0740740740741,4,1,0,50,0,1
177228,-1000,4,1,0,50,0,1
177250,-153.846153846154,4,1,0,50,0,1
177270,-1000,4,1,0,50,0,1
177292,-153.846153846154,4,1,0,50,0,1
177313,-1000,4,1,0,50,0,1
177335,-153.846153846154,4,1,0,50,0,1
177355,-1000,4,1,0,50,0,1
177377,-153.846153846154,4,1,0,50,0,1
177397,-60.6060606060606,4,1,0,50,0,1
177948,-303.030303030303,4,1,0,50,0,1
177991,-2000,4,1,0,50,0,1
178075,-38.4615384615385,4,1,0,50,0,1
178081,-2000,4,1,0,50,0,1
178096,-38.4615384615385,4,1,0,50,0,1
178102,-2000,4,1,0,50,0,1
178118,-38.4615384615385,4,1,0,50,0,1
178124,-2000,4,1,0,50,0,1
178139,-38.4615384615385,4,1,0,50,0,1
178145,-2000,4,1,0,50,0,1
178160,-38.4615384615385,4,1,0,50,0,1
178166,-2000,4,1,0,50,0,1
178181,-38.4615384615385,4,1,0,50,0,1
178187,-2000,4,1,0,50,0,1
178202,-38.4615384615385,4,1,0,50,0,1
178208,-2000,4,1,0,50,0,1
178224,-38.4615384615385,4,1,0,50,0,1
178230,-2000,4,1,0,50,0,1
178245,-38.4615384615385,4,1,0,50,0,1
178251,-2000,4,1,0,50,0,1
178266,-38.4615384615385,4,1,0,50,0,1
178272,-2000,4,1,0,50,0,1
178287,-38.4615384615385,4,1,0,50,0,1
178293,-2000,4,1,0,50,0,1
178308,-38.4615384615385,4,1,0,50,0,1
178314,-2000,4,1,0,50,0,1
178329,-38.4615384615385,4,1,0,50,0,1
178335,-2000,4,1,0,50,0,1
178351,-38.4615384615385,4,1,0,50,0,1
178357,-2000,4,1,0,50,0,1
178372,-38.4615384615385,4,1,0,50,0,1
178378,-2000,4,1,0,50,0,1
178393,-38.4615384615385,4,1,0,50,0,1
178399,-2000,4,1,0,50,0,1
178414,-38.4615384615385,4,1,0,50,0,1
178420,-2000,4,1,0,50,0,1
178435,-38.4615384615385,4,1,0,50,0,1
178441,-2000,4,1,0,50,0,1
178457,-38.4615384615385,4,1,0,50,0,1
178463,-2000,4,1,0,50,0,1
178478,-38.4615384615385,4,1,0,50,0,1
178484,-2000,4,1,0,50,0,1
178499,-38.4615384615385,4,1,0,50,0,1
178505,-2000,4,1,0,50,0,1
178520,-38.4615384615385,4,1,0,50,0,1
178526,-2000,4,1,0,50,0,1
178541,-38.4615384615385,4,1,0,50,0,1
178547,-2000,4,1,0,50,0,1
178562,-38.4615384615385,4,1,0,50,0,1
178568,-2000,4,1,0,50,0,1
178584,-38.4615384615385,4,1,0,50,0,1
178590,-2000,4,1,0,50,0,1
178605,-38.4615384615385,4,1,0,50,0,1
178611,-2000,4,1,0,50,0,1
178626,-38.4615384615385,4,1,0,50,0,1
178632,-2000,4,1,0,50,0,1
178647,-38.4615384615385,4,1,0,50,0,1
178653,-2000,4,1,0,50,0,1
178668,-38.4615384615385,4,1,0,50,0,1
178674,-2000,4,1,0,50,0,1
178690,-38.4615384615385,4,1,0,50,0,1
178696,-2000,4,1,0,50,0,1
178711,-38.4615384615385,4,1,0,50,0,1
178717,-2000,4,1,0,50,0,1
178732,-38.4615384615385,4,1,0,50,0,1
178738,-2000,4,1,0,50,0,1
178753,-100,4,1,0,50,0,1
179092,-500,4,1,0,50,0,1
179113,-83.3333333333333,4,1,0,50,0,1
179135,-500,4,1,0,50,0,1
179156,-83.3333333333333,4,1,0,50,0,1
179177,-500,4,1,0,50,0,1
179198,-83.3333333333333,4,1,0,50,0,1
179219,-500,4,1,0,50,0,1
179240,-83.3333333333333,4,1,0,50,0,1
179262,-500,4,1,0,50,0,1
179283,-83.3333333333333,4,1,0,50,0,1
179304,-500,4,1,0,50,0,1
179325,-83.3333333333333,4,1,0,50,0,1
179346,-500,4,1,0,50,0,1
179367,-83.3333333333333,4,1,0,50,0,1
179389,-500,4,1,0,50,0,1
179410,-83.3333333333333,4,1,0,50,0,1
179431,-303.030303030303,4,1,0,50,0,1
179770,-500,4,1,0,50,0,1
179791,-83.3333333333333,4,1,0,50,0,1
179812,-500,4,1,0,50,0,1
179833,-83.3333333333333,4,1,0,50,0,1
179855,-500,4,1,0,50,0,1
179876,-83.3333333333333,4,1,0,50,0,1
179897,-500,4,1,0,50,0,1
179918,-83.3333333333333,4,1,0,50,0,1
179940,-500,4,1,0,50,0,1
179961,-83.3333333333333,4,1,0,50,0,1
179982,-500,4,1,0,50,0,1
180003,-83.3333333333333,4,1,0,50,0,1
180024,-500,4,1,0,50,0,1
180045,-83.3333333333333,4,1,0,50,0,1
180067,-500,4,1,0,50,0,1
180088,-83.3333333333333,4,1,0,50,0,1
180109,-76.9230769230769,4,1,0,50,0,1
180448,-303.030303030303,4,1,0,50,0,1
180787,-1000,4,1,0,50,0,1
180809,-47.6190476190476,4,1,0,50,0,1
180830,-1000,4,1,0,50,0,1
180852,-47.6190476190476,4,1,0,50,0,1
180872,-1000,4,1,0,50,0,1
180894,-47.6190476190476,4,1,0,50,0,1
180914,-1000,4,1,0,50,0,1
180936,-47.6190476190476,4,1,0,50,0,1
180957,-1000,4,1,0,50,0,1
180979,-47.6190476190476,4,1,0,50,0,1
180999,-1000,4,1,0,50,0,1
181021,-47.6190476190476,4,1,0,50,0,1
181042,-1000,4,1,0,50,0,1
181064,-47.6190476190476,4,1,0,50,0,1
181084,-1000,4,1,0,50,0,1
181106,-47.6190476190476,4,1,0,50,0,1
181126,-1000,4,1,0,50,0,1
181148,-74.0740740740741,4,1,0,50,0,1
181169,-1000,4,1,0,50,0,1
181191,-74.0740740740741,4,1,0,50,0,1
181211,-1000,4,1,0,50,0,1
181233,-74.0740740740741,4,1,0,50,0,1
181253,-1000,4,1,0,50,0,1
181275,-74.0740740740741,4,1,0,50,0,1
181296,-1000,4,1,0,50,0,1
181318,-153.846153846154,4,1,0,50,0,1
181338,-1000,4,1,0,50,0,1
181360,-153.846153846154,4,1,0,50,0,1
181381,-1000,4,1,0,50,0,1
181403,-153.846153846154,4,1,0,50,0,1
181423,-1000,4,1,0,50,0,1
181445,-153.846153846154,4,1,0,50,0,1
181465,-60.6060606060606,4,1,0,50,0,1
181635,-117.647058823529,4,1,0,50,0,1
181720,-303.030303030303,4,1,0,50,0,1
181804,-500,4,1,0,50,0,1
181826,-68.9655172413793,4,1,0,50,0,1
181847,-500,4,1,0,50,0,1
181869,-68.9655172413793,4,1,0,50,0,1
181889,-500,4,1,0,50,0,1
181911,-68.9655172413793,4,1,0,50,0,1
181932,-500,4,1,0,50,0,1
181954,-68.9655172413793,4,1,0,50,0,1
181974,-500,4,1,0,50,0,1
181996,-68.9655172413793,4,1,0,50,0,1
182016,-500,4,1,0,50,0,1
182038,-68.9655172413793,4,1,0,50,0,1
182059,-500,4,1,0,50,0,1
182081,-68.9655172413793,4,1,0,50,0,1
182101,-500,4,1,0,50,0,1
182123,-68.9655172413793,4,1,0,50,0,1
182143,-500,4,1,0,50,0,1
182165,-68.9655172413793,4,1,0,50,0,1
182186,-500,4,1,0,50,0,1
182208,-68.9655172413793,4,1,0,50,0,1
182228,-500,4,1,0,50,0,1
182250,-68.9655172413793,4,1,0,50,0,1
182271,-500,4,1,0,50,0,1
182293,-68.9655172413793,4,1,0,50,0,1
182313,-500,4,1,0,50,0,1
182335,-68.9655172413793,4,1,0,50,0,1
182355,-500,4,1,0,50,0,1
182377,-68.9655172413793,4,1,0,50,0,1
182398,-500,4,1,0,50,0,1
182420,-68.9655172413793,4,1,0,50,0,1
182440,-500,4,1,0,50,0,1
182462,-68.9655172413793,4,1,0,50,0,1
182482,-74.0740740740741,4,1,0,50,0,1
182737,-303.030303030303,4,1,0,50,0,1
182821,-100,4,1,0,50,0,1
183160,-83.3333333333333,4,1,0,50,0,1
183188,-166.666666666667,4,1,0,50,0,1
183216,-83.3333333333333,4,1,0,50,0,1
183244,-166.666666666667,4,1,0,50,0,1
183273,-83.3333333333333,4,1,0,50,0,1
183301,-166.666666666667,4,1,0,50,0,1
183329,-83.3333333333333,4,1,0,50,0,1
183357,-166.666666666667,4,1,0,50,0,1
183386,-83.3333333333333,4,1,0,50,0,1
183414,-166.666666666667,4,1,0,50,0,1
183442,-83.3333333333333,4,1,0,50,0,1
183470,-166.666666666667,4,1,0,50,0,1
183499,-1000,4,1,0,50,0,1
183521,-47.6190476190476,4,1,0,50,0,1
183542,-1000,4,1,0,50,0,1
183564,-47.6190476190476,4,1,0,50,0,1
183584,-1000,4,1,0,50,0,1
183606,-47.6190476190476,4,1,0,50,0,1
183626,-1000,4,1,0,50,0,1
183648,-47.6190476190476,4,1,0,50,0,1
183669,-1000,4,1,0,50,0,1
183691,-47.6190476190476,4,1,0,50,0,1
183711,-1000,4,1,0,50,0,1
183733,-47.6190476190476,4,1,0,50,0,1
183754,-1000,4,1,0,50,0,1
183776,-47.6190476190476,4,1,0,50,0,1
183796,-1000,4,1,0,50,0,1
183818,-47.6190476190476,4,1,0,50,0,1
183838,-1000,4,1,0,50,0,1
183860,-74.0740740740741,4,1,0,50,0,1
183881,-1000,4,1,0,50,0,1
183903,-74.0740740740741,4,1,0,50,0,1
183923,-1000,4,1,0,50,0,1
183945,-74.0740740740741,4,1,0,50,0,1
183965,-1000,4,1,0,50,0,1
183987,-74.0740740740741,4,1,0,50,0,1
184008,-1000,4,1,0,50,0,1
184030,-153.846153846154,4,1,0,50,0,1
184050,-1000,4,1,0,50,0,1
184072,-153.846153846154,4,1,0,50,0,1
184093,-1000,4,1,0,50,0,1
184115,-153.846153846154,4,1,0,50,0,1
184135,-1000,4,1,0,50,0,1
184157,-153.846153846154,4,1,0,50,0,1
184177,-100,4,1,0,50,0,1
184516,-500,4,1,0,50,0,1
184537,-83.3333333333333,4,1,0,50,0,1
184559,-500,4,1,0,50,0,1
184580,-83.3333333333333,4,1,0,50,0,1
184601,-500,4,1,0,50,0,1
184622,-83.3333333333333,4,1,0,50,0,1
184643,-500,4,1,0,50,0,1
184664,-83.3333333333333,4,1,0,50,0,1
184686,-500,4,1,0,50,0,1
184707,-83.3333333333333,4,1,0,50,0,1
184728,-500,4,1,0,50,0,1
184749,-83.3333333333333,4,1,0,50,0,1
184770,-500,4,1,0,50,0,1
184791,-83.3333333333333,4,1,0,50,0,1
184813,-500,4,1,0,50,0,1
184834,-83.3333333333333,4,1,0,50,0,1
184855,-303.030303030303,4,1,0,50,0,1
185194,-500,4,1,0,50,0,1
185215,-83.3333333333333,4,1,0,50,0,1
185236,-500,4,1,0,50,0,1
185257,-83.3333333333333,4,1,0,50,0,1
185279,-500,4,1,0,50,0,1
185300,-83.3333333333333,4,1,0,50,0,1
185321,-500,4,1,0,50,0,1
185342,-83.3333333333333,4,1,0,50,0,1
185364,-500,4,1,0,50,0,1
185385,-83.3333333333333,4,1,0,50,0,1
185406,-500,4,1,0,50,0,1
185427,-83.3333333333333,4,1,0,50,0,1
185448,-500,4,1,0,50,0,1
185469,-83.3333333333333,4,1,0,50,0,1
185491,-500,4,1,0,50,0,1
185512,-83.3333333333333,4,1,0,50,0,1
185533,-100,4,1,0,50,0,1
185702,-303.030303030303,4,1,0,50,0,1
186210,-100,4,1,0,35,0,0

[HitObjects]
448,192,448,5,0,0:0:0:0:
192,192,448,1,0,0:0:0:0:
320,192,617,1,0,0:0:0:0:
64,192,786,1,0,0:0:0:0:
192,192,956,1,0,0:0:0:0:
448,192,1125,1,0,0:0:0:0:
320,192,1295,1,0,0:0:0:0:
64,192,1464,1,0,0:0:0:0:
448,192,1464,1,0,0:0:0:0:
192,192,1634,1,0,0:0:0:0:
64,192,1803,1,0,0:0:0:0:
320,192,1803,1,0,0:0:0:0:
192,192,1973,1,0,0:0:0:0:
64,192,2142,1,0,0:0:0:0:
320,192,2312,1,0,0:0:0:0:
448,192,2481,1,0,0:0:0:0:
192,192,2651,1,0,0:0:0:0:
320,192,2820,1,0,0:0:0:0:
64,192,2820,1,0,0:0:0:0:
192,192,2990,1,0,0:0:0:0:
320,192,3159,1,0,0:0:0:0:
448,192,3159,1,0,0:0:0:0:
192,192,3329,1,0,0:0:0:0:
320,192,3498,1,0,0:0:0:0:
64,192,3668,1,0,0:0:0:0:
448,192,3837,1,0,0:0:0:0:
192,192,4007,1,0,0:0:0:0:
320,192,4176,1,0,0:0:0:0:
448,192,4176,1,0,0:0:0:0:
64,192,4346,1,0,0:0:0:0:
192,192,4515,1,0,0:0:0:0:
448,192,4515,1,0,0:0:0:0:
320,192,4685,1,0,0:0:0:0:
448,192,4854,1,0,0:0:0:0:
64,192,5024,1,0,0:0:0:0:
192,192,5193,1,0,0:0:0:0:
320,192,5363,1,0,0:0:0:0:
448,192,5532,1,0,0:0:0:0:
64,192,5532,1,0,0:0:0:0:
320,192,5702,1,0,0:0:0:0:
192,192,5871,1,0,0:0:0:0:
64,192,5871,1,0,0:0:0:0:
320,192,6041,1,0,0:0:0:0:
448,192,6210,1,0,0:0:0:0:
192,192,6380,1,0,0:0:0:0:
64,192,6549,1,0,0:0:0:0:
320,192,6719,1,0,0:0:0:0:
448,192,6888,1,0,0:0:0:0:
192,192,7058,1,0,0:0:0:0:
448,192,7227,1,0,0:0:0:0:
64,192,7227,1,0,0:0:0:0:
320,192,7397,1,0,0:0:0:0:
192,192,7566,1,0,0:0:0:0:
448,192,7736,1,0,0:0:0:0:
64,192,7905,1,0,0:0:0:0:
320,192,8075,1,0,0:0:0:0:
192,192,8244,1,0,0:0:0:0:
448,192,8414,1,0,0:0:0:0:
64,192,8583,1,0,0:0:0:0:
192,192,8583,1,0,0:0:0:0:
320,192,8753,1,0,0:0:0:0:
448,192,8922,1,0,0:0:0:0:
192,192,9092,1,0,0:0:0:0:
64,192,9261,128,0,9939:0:0:0:0:
448,192,9261,128,0,9939:0:0:0:0:
64,192,11295,1,0,0:0:0:0:
448,192,11295,128,0,11973:0:0:0:0:
320,192,11973,1,0,0:0:0:0:
192,192,11973,1,0,0:0:0:0:
64,192,11973,1,0,0:0:0:0:
64,192,13329,1,0,0:0:0:0:
192,192,13329,1,0,0:0:0:0:
448,192,13329,1,0,0:0:0:0:
320,192,13837,1,0,0:0:0:0:
448,192,13837,1,0,0:0:0:0:
448,192,14007,1,0,0:0:0:0:
192,192,14007,128,0,14685:0:0:0:0:
64,192,14685,1,0,0:0:0:0:
320,192,14685,1,0,0:0:0:0:
448,192,14685,1,0,0:0:0:0:
448,192,15702,1,0,0:0:0:0:
64,192,15702,128,0,16041:0:0:0:0:
192,192,16041,1,0,0:0:0:0:
320,192,16041,1,0,0:0:0:0:
448,192,16041,1,0,0:0:0:0:
192,192,16380,1,0,0:0:0:0:
64,192,16549,1,0,0:0:0:0:
320,192,16549,1,0,0:0:0:0:
64,192,16719,1,0,0:0:0:0:
320,192,16719,128,0,17397:0:0:0:0:
448,192,17397,1,0,0:0:0:0:
64,192,17397,1,0,0:0:0:0:
192,192,17397,1,0,0:0:0:0:
192,192,18414,1,0,0:0:0:0:
448,192,18414,128,0,18753:0:0:0:0:
64,192,18753,1,0,0:0:0:0:
192,192,18753,1,0,0:0:0:0:
320,192,18753,1,0,0:0:0:0:
192,192,19261,1,0,0:0:0:0:
320,192,19261,1,0,0:0:0:0:
320,192,19431,1,0,0:0:0:0:
192,192,19431,128,0,20109:0:0:0:0:
64,192,20109,1,0,0:0:0:0:
448,192,20109,1,0,0:0:0:0:
320,192,20109,1,0,0:0:0:0:
320,192,20786,1,0,0:0:0:0:
448,192,20786,1,0,0:0:0:0:
64,192,21012,1,0,0:0:0:0:
320,192,21012,1,0,0:0:0:0:
64,192,21238,1,0,0:0:0:0:
192,192,21238,1,0,0:0:0:0:
448,192,21464,1,0,0:0:0:0:
192,192,21464,1,0,0:0:0:0:
64,192,21803,1,0,0:0:0:0:
192,192,21803,1,0,0:0:0:0:
320,192,21973,1,0,0:0:0:0:
448,192,21973,1,0,0:0:0:0:
192,192,22142,1,0,0:0:0:0:
320,192,22142,1,0,0:0:0:0:
64,192,22142,128,0,22820:0:0:0:0:
192,192,22820,1,0,0:0:0:0:
320,192,22820,1,0,0:0:0:0:
448,192,22820,1,0,0:0:0:0:
448,192,23837,1,0,0:0:0:0:
192,192,23837,128,0,24176:0:0:0:0:
64,192,24176,1,0,0:0:0:0:
320,192,24176,1,0,0:0:0:0:
448,192,24176,1,0,0:0:0:0:
192,192,24854,1,0,0:0:0:0:
320,192,24854,128,0,25532:0:0:0:0:
64,192,25532,1,0,0:0:0:0:
192,192,25532,1,0,0:0:0:0:
448,192,25532,1,0,0:0:0:0:
64,192,26549,128,0,26888:0:0:0:0:
192,192,26549,1,0,0:0:0:0:
192,192,26888,1,0,0:0:0:0:
320,192,26888,1,0,0:0:0:0:
448,192,26888,1,0,0:0:0:0:
320,192,27227,1,0,0:0:0:0:
64,192,27397,1,0,0:0:0:0:
192,192,27566,128,0,28244:0:0:0:0:
448,192,27566,1,0,0:0:0:0:
64,192,28244,1,0,0:0:0:0:
448,192,28244,1,0,0:0:0:0:
320,192,28244,1,0,0:0:0:0:
192,192,29261,1,0,0:0:0:0:
448,192,29261,128,0,29600:0:0:0:0:
64,192,29600,1,0,0:0:0:0:
192,192,29600,1,0,0:0:0:0:
320,192,29600,1,0,0:0:0:0:
64,192,30278,1,0,0:0:0:0:
320,192,30278,128,0,30956:0:0:0:0:
64,192,30956,1,0,0:0:0:0:
192,192,30956,1,0,0:0:0:0:
448,192,30956,1,0,0:0:0:0:
192,192,31634,1,0,0:0:0:0:
64,192,31634,1,0,0:0:0:0:
320,192,31803,5,0,0:0:0:0:
64,192,31973,5,0,0:0:0:0:
448,192,31973,1,0,0:0:0:0:
192,192,32142,5,0,0:0:0:0:
64,192,32312,5,0,0:0:0:0:
320,192,32312,1,0,0:0:0:0:
448,192,32312,1,0,0:0:0:0:
192,192,32481,1,0,0:0:0:0:
448,192,32651,1,0,0:0:0:0:
320,192,32736,1,0,0:0:0:0:
64,192,32820,1,0,0:0:0:0:
192,192,32990,128,0,35702:0:0:0:0:
448,192,32990,1,0,0:0:0:0:
64,192,33329,1,0,0:0:0:0:
320,192,33498,1,0,0:0:0:0:
448,192,33668,1,0,0:0:0:0:
64,192,33668,1,0,0:0:0:0:
64,192,34007,1,0,0:0:0:0:
320,192,34007,1,0,0:0:0:0:
320,192,34346,1,0,0:0:0:0:
64,192,34515,1,0,0:0:0:0:
448,192,34685,1,0,0:0:0:0:
320,192,34685,1,0,0:0:0:0:
64,192,35024,1,0,0:0:0:0:
448,192,35024,1,0,0:0:0:0:
320,192,35363,128,0,35448:0:0:0:0:
448,192,35448,128,0,35532:0:0:0:0:
64,192,35532,128,0,35617:0:0:0:0:
320,192,35617,128,0,35702:0:0:0:0:
448,192,35702,128,0,38414:0:0:0:0:
64,192,35702,1,0,0:0:0:0:
320,192,36041,1,0,0:0:0:0:
192,192,36210,1,0,0:0:0:0:
64,192,36380,1,0,0:0:0:0:
320,192,36380,1,0,0:0:0:0:
64,192,36719,1,0,0:0:0:0:
192,192,36719,1,0,0:0:0:0:
320,192,37058,1,0,0:0:0:0:
64,192,37227,1,0,0:0:0:0:
320,192,37397,1,0,0:0:0:0:
192,192,37397,1,0,0:0:0:0:
64,192,37736,1,0,0:0:0:0:
192,192,37736,1,0,0:0:0:0:
192,192,38075,128,0,38159:0:0:0:0:
64,192,38159,128,0,38244:0:0:0:0:
320,192,38244,128,0,38329:0:0:0:0:
192,192,38329,128,0,38414:0:0:0:0:
64,192,38414,128,0,41125:0:0:0:0:
320,192,38414,1,0,0:0:0:0:
192,192,38753,1,0,0:0:0:0:
448,192,38922,1,0,0:0:0:0:
192,192,39092,1,0,0:0:0:0:
320,192,39092,1,0,0:0:0:0:
448,192,39431,1,0,0:0:0:0:
320,192,39431,1,0,0:0:0:0:
192,192,39770,1,0,0:0:0:0:
320,192,39939,1,0,0:0:0:0:
192,192,40109,1,0,0:0:0:0:
448,192,40109,1,0,0:0:0:0:
320,192,40448,1,0,0:0:0:0:
448,192,40448,1,0,0:0:0:0:
448,192,40786,128,0,40871:0:0:0:0:
320,192,40871,128,0,40956:0:0:0:0:
192,192,40956,128,0,41041:0:0:0:0:
448,192,41041,128,0,41125:0:0:0:0:
320,192,41125,128,0,42481:0:0:0:0:
64,192,41295,1,0,0:0:0:0:
448,192,41464,1,0,0:0:0:0:
192,192,41634,1,0,0:0:0:0:
64,192,41803,1,0,0:0:0:0:
448,192,41803,1,0,0:0:0:0:
192,192,41973,1,0,0:0:0:0:
448,192,42142,1,0,0:0:0:0:
64,192,42312,1,0,0:0:0:0:
64,192,43837,1,0,0:0:0:0:
448,192,43837,1,0,0:0:0:0:
320,192,43837,1,0,0:0:0:0:
64,192,44515,1,0,0:0:0:0:
192,192,44515,1,0,0:0:0:0:
320,192,44515,1,0,0:0:0:0:
448,192,44515,1,0,0:0:0:0:
192,192,45193,1,0,0:0:0:0:
64,192,45193,1,0,0:0:0:0:
320,192,45193,1,0,0:0:0:0:
64,192,45871,1,0,0:0:0:0:
320,192,45871,1,0,0:0:0:0:
192,192,45871,1,0,0:0:0:0:
448,192,45871,1,0,0:0:0:0:
192,192,46549,1,0,0:0:0:0:
320,192,46549,1,0,0:0:0:0:
448,192,46549,1,0,0:0:0:0:
64,192,47227,1,0,0:0:0:0:
192,192,47227,1,0,0:0:0:0:
320,192,47227,1,0,0:0:0:0:
448,192,47227,1,0,0:0:0:0:
192,192,47566,1,0,0:0:0:0:
320,192,47566,1,0,0:0:0:0:
64,192,48244,1,0,0:0:0:0:
320,192,48244,1,0,0:0:0:0:
64,192,48583,1,0,0:0:0:0:
192,192,48583,1,0,0:0:0:0:
448,192,48583,1,0,0:0:0:0:
320,192,48583,1,0,0:0:0:0:
64,192,49261,1,0,0:0:0:0:
320,192,49261,1,0,0:0:0:0:
448,192,49261,1,0,0:0:0:0:
64,192,49939,1,0,0:0:0:0:
192,192,49939,1,0,0:0:0:0:
320,192,49939,1,0,0:0:0:0:
448,192,49939,1,0,0:0:0:0:
64,192,50278,1,0,0:0:0:0:
320,192,50278,1,0,0:0:0:0:
192,192,50278,1,0,0:0:0:0:
192,192,50956,1,0,0:0:0:0:
448,192,50956,1,0,0:0:0:0:
320,192,50956,1,0,0:0:0:0:
64,192,51295,1,0,0:0:0:0:
192,192,51295,1,0,0:0:0:0:
320,192,51295,1,0,0:0:0:0:
448,192,51295,1,0,0:0:0:0:
192,192,51973,1,0,0:0:0:0:
64,192,51973,1,0,0:0:0:0:
448,192,51973,1,0,0:0:0:0:
192,192,52651,1,0,0:0:0:0:
64,192,52651,1,0,0:0:0:0:
320,192,52651,1,0,0:0:0:0:
448,192,52651,1,0,0:0:0:0:
320,192,52990,1,0,0:0:0:0:
448,192,52990,1,0,0:0:0:0:
448,192,53668,1,0,0:0:0:0:
64,192,53668,1,0,0:0:0:0:
64,192,54007,1,0,0:0:0:0:
192,192,54007,1,0,0:0:0:0:
320,192,54007,1,0,0:0:0:0:
448,192,54007,1,0,0:0:0:0:
192,192,54176,1,0,0:0:0:0:
320,192,54176,1,0,0:0:0:0:
64,192,54685,1,0,0:0:0:0:
192,192,54685,1,0,0:0:0:0:
448,192,54685,1,0,0:0:0:0:
64,192,55363,1,0,0:0:0:0:
192,192,55363,1,0,0:0:0:0:
448,192,55363,1,0,0:0:0:0:
320,192,55363,1,0,0:0:0:0:
192,192,56041,1,0,0:0:0:0:
320,192,56041,1,0,0:0:0:0:
448,192,56041,1,0,0:0:0:0:
64,192,56719,1,0,0:0:0:0:
192,192,56719,1,0,0:0:0:0:
320,192,56719,1,0,0:0:0:0:
448,192,56719,1,0,0:0:0:0:
64,192,57397,1,0,0:0:0:0:
192,192,57397,1,0,0:0:0:0:
320,192,57397,1,0,0:0:0:0:
64,192,58075,1,0,0:0:0:0:
192,192,58075,1,0,0:0:0:0:
320,192,58075,1,0,0:0:0:0:
448,192,58075,1,0,0:0:0:0:
320,192,58414,1,0,0:0:0:0:
448,192,58414,1,0,0:0:0:0:
64,192,59092,1,0,0:0:0:0:
320,192,59092,1,0,0:0:0:0:
192,192,59431,1,0,0:0:0:0:
64,192,59431,1,0,0:0:0:0:
320,192,59431,1,0,0:0:0:0:
448,192,59431,1,0,0:0:0:0:
64,192,60109,1,0,0:0:0:0:
320,192,60109,1,0,0:0:0:0:
448,192,60109,1,0,0:0:0:0:
64,192,60786,1,0,0:0:0:0:
192,192,60786,1,0,0:0:0:0:
320,192,60786,1,0,0:0:0:0:
448,192,60786,1,0,0:0:0:0:
64,192,61125,1,0,0:0:0:0:
192,192,61125,1,0,0:0:0:0:
320,192,61125,1,0,0:0:0:0:
192,192,61803,1,0,0:0:0:0:
320,192,61803,1,0,0:0:0:0:
448,192,61803,1,0,0:0:0:0:
64,192,62142,1,0,0:0:0:0:
320,192,62142,1,0,0:0:0:0:
192,192,62142,1,0,0:0:0:0:
448,192,62142,1,0,0:0:0:0:
320,192,62481,1,0,0:0:0:0:
192,192,62481,1,0,0:0:0:0:
192,192,62820,1,0,0:0:0:0:
64,192,62820,1,0,0:0:0:0:
448,192,62820,1,0,0:0:0:0:
64,192,63498,1,0,0:0:0:0:
192,192,63498,1,0,0:0:0:0:
320,192,63498,1,0,0:0:0:0:
448,192,63498,1,0,0:0:0:0:
64,192,63837,1,0,0:0:0:0:
192,192,63837,1,0,0:0:0:0:
192,192,64515,1,0,0:0:0:0:
448,192,64515,1,0,0:0:0:0:
64,192,64854,1,0,0:0:0:0:
320,192,64854,1,0,0:0:0:0:
448,192,64854,1,0,0:0:0:0:
192,192,65024,1,0,0:0:0:0:
320,192,65024,1,0,0:0:0:0:
64,192,65532,1,0,0:0:0:0:
448,192,65532,128,0,66210:0:0:0:0:
320,192,66210,1,0,0:0:0:0:
192,192,66210,1,0,0:0:0:0:
64,192,66210,1,0,0:0:0:0:
448,192,67227,1,0,0:0:0:0:
320,192,67227,128,0,67566:0:0:0:0:
448,192,67566,1,0,0:0:0:0:
192,192,67566,1,0,0:0:0:0:
64,192,67566,1,0,0:0:0:0:
192,192,68075,1,0,0:0:0:0:
448,192,68244,1,0,0:0:0:0:
192,192,68244,128,0,68922:0:0:0:0:
448,192,68922,1,0,0:0:0:0:
320,192,68922,1,0,0:0:0:0:
64,192,68922,1,0,0:0:0:0:
448,192,69939,128,0,70278:0:0:0:0:
320,192,69939,1,0,0:0:0:0:
320,192,70278,1,0,0:0:0:0:
192,192,70278,1,0,0:0:0:0:
64,192,70278,1,0,0:0:0:0:
192,192,70617,1,0,0:0:0:0:
448,192,70786,1,0,0:0:0:0:
320,192,70956,128,0,71634:0:0:0:0:
64,192,70956,1,0,0:0:0:0:
448,192,71634,1,0,0:0:0:0:
64,192,71634,1,0,0:0:0:0:
192,192,71634,1,0,0:0:0:0:
320,192,72651,1,0,0:0:0:0:
64,192,72651,128,0,72990:0:0:0:0:
448,192,72990,1,0,0:0:0:0:
320,192,72990,1,0,0:0:0:0:
192,192,72990,1,0,0:0:0:0:
448,192,73668,1,0,0:0:0:0:
192,192,73668,128,0,74346:0:0:0:0:
448,192,73837,1,0,0:0:0:0:
320,192,74176,1,0,0:0:0:0:
448,192,74346,1,0,0:0:0:0:
320,192,74346,1,0,0:0:0:0:
64,192,74346,1,0,0:0:0:0:
320,192,74854,1,0,0:0:0:0:
448,192,75193,1,0,0:0:0:0:
64,192,75363,1,0,0:0:0:0:
192,192,75363,1,0,0:0:0:0:
192,192,75702,1,0,0:0:0:0:
64,192,75702,1,0,0:0:0:0:
320,192,75702,1,0,0:0:0:0:
192,192,76041,1,0,0:0:0:0:
192,192,76210,1,0,0:0:0:0:
320,192,76380,128,0,79092:0:0:0:0:
64,192,76380,1,0,0:0:0:0:
448,192,76719,1,0,0:0:0:0:
448,192,76888,1,0,0:0:0:0:
64,192,77058,1,0,0:0:0:0:
192,192,77058,1,0,0:0:0:0:
448,192,77397,1,0,0:0:0:0:
192,192,77397,1,0,0:0:0:0:
64,192,77736,1,0,0:0:0:0:
64,192,77905,1,0,0:0:0:0:
448,192,78075,1,0,0:0:0:0:
192,192,78075,1,0,0:0:0:0:
448,192,78414,1,0,0:0:0:0:
64,192,78414,1,0,0:0:0:0:
192,192,78753,128,0,78837:0:0:0:0:
64,192,78837,128,0,78922:0:0:0:0:
448,192,78922,128,0,79007:0:0:0:0:
192,192,79007,128,0,79092:0:0:0:0:
64,192,79092,128,0,81803:0:0:0:0:
448,192,79092,1,0,0:0:0:0:
320,192,79431,1,0,0:0:0:0:
320,192,79600,1,0,0:0:0:0:
448,192,79770,1,0,0:0:0:0:
192,192,79770,1,0,0:0:0:0:
192,192,80109,1,0,0:0:0:0:
320,192,80109,1,0,0:0:0:0:
192,192,80448,1,0,0:0:0:0:
192,192,80617,1,0,0:0:0:0:
448,192,80786,1,0,0:0:0:0:
320,192,80786,1,0,0:0:0:0:
448,192,81125,1,0,0:0:0:0:
192,192,81125,1,0,0:0:0:0:
320,192,81464,128,0,81549:0:0:0:0:
448,192,81549,128,0,81634:0:0:0:0:
192,192,81634,128,0,81719:0:0:0:0:
320,192,81719,128,0,81803:0:0:0:0:
448,192,81803,128,0,84515:0:0:0:0:
192,192,81803,1,0,0:0:0:0:
64,192,82142,1,0,0:0:0:0:
64,192,82312,1,0,0:0:0:0:
320,192,82481,1,0,0:0:0:0:
192,192,82481,1,0,0:0:0:0:
64,192,82820,1,0,0:0:0:0:
320,192,82820,1,0,0:0:0:0:
320,192,83159,1,0,0:0:0:0:
320,192,83329,1,0,0:0:0:0:
192,192,83498,1,0,0:0:0:0:
64,192,83498,1,0,0:0:0:0:
320,192,83837,1,0,0:0:0:0:
64,192,83837,1,0,0:0:0:0:
64,192,84176,128,0,84261:0:0:0:0:
192,192,84261,128,0,84346:0:0:0:0:
320,192,84346,128,0,84431:0:0:0:0:
64,192,84431,128,0,84515:0:0:0:0:
192,192,84515,128,0,85871:0:0:0:0:
320,192,84515,1,0,0:0:0:0:
448,192,84685,1,0,0:0:0:0:
448,192,84854,1,0,0:0:0:0:
64,192,85024,1,0,0:0:0:0:
448,192,85193,1,0,0:0:0:0:
64,192,85193,1,0,0:0:0:0:
320,192,85363,1,0,0:0:0:0:
320,192,85532,1,0,0:0:0:0:
448,192,85702,1,0,0:0:0:0:
448,192,87227,1,0,0:0:0:0:
320,192,87227,1,0,0:0:0:0:
192,192,87227,1,0,0:0:0:0:
448,192,87905,1,0,0:0:0:0:
320,192,87905,1,0,0:0:0:0:
192,192,87905,1,0,0:0:0:0:
64,192,87905,1,0,0:0:0:0:
64,192,88583,1,0,0:0:0:0:
448,192,88583,1,0,0:0:0:0:
192,192,88583,1,0,0:0:0:0:
448,192,89261,1,0,0:0:0:0:
192,192,89261,1,0,0:0:0:0:
320,192,89261,1,0,0:0:0:0:
64,192,89261,1,0,0:0:0:0:
320,192,89939,1,0,0:0:0:0:
448,192,89939,1,0,0:0:0:0:
64,192,89939,1,0,0:0:0:0:
448,192,90617,1,0,0:0:0:0:
320,192,90617,1,0,0:0:0:0:
192,192,90617,1,0,0:0:0:0:
64,192,90617,1,0,0:0:0:0:
448,192,90956,1,0,0:0:0:0:
64,192,90956,1,0,0:0:0:0:
448,192,91634,1,0,0:0:0:0:
320,192,91634,1,0,0:0:0:0:
448,192,91973,1,0,0:0:0:0:
320,192,91973,1,0,0:0:0:0:
64,192,91973,1,0,0:0:0:0:
192,192,91973,1,0,0:0:0:0:
320,192,92651,1,0,0:0:0:0:
192,192,92651,1,0,0:0:0:0:
64,192,92651,1,0,0:0:0:0:
448,192,93329,1,0,0:0:0:0:
320,192,93329,1,0,0:0:0:0:
192,192,93329,1,0,0:0:0:0:
64,192,93329,1,0,0:0:0:0:
448,192,93668,1,0,0:0:0:0:
192,192,93668,1,0,0:0:0:0:
64,192,93668,1,0,0:0:0:0:
320,192,94346,1,0,0:0:0:0:
64,192,94346,1,0,0:0:0:0:
448,192,94346,1,0,0:0:0:0:
448,192,94685,1,0,0:0:0:0:
320,192,94685,1,0,0:0:0:0:
192,192,94685,1,0,0:0:0:0:
64,192,94685,1,0,0:0:0:0:
320,192,95363,1,0,0:0:0:0:
192,192,95363,1,0,0:0:0:0:
64,192,95363,1,0,0:0:0:0:
320,192,96041,1,0,0:0:0:0:
448,192,96041,1,0,0:0:0:0:
192,192,96041,1,0,0:0:0:0:
64,192,96041,1,0,0:0:0:0:
320,192,96380,1,0,0:0:0:0:
64,192,96380,1,0,0:0:0:0:
64,192,97058,1,0,0:0:0:0:
192,192,97058,1,0,0:0:0:0:
448,192,97397,1,0,0:0:0:0:
320,192,97397,1,0,0:0:0:0:
192,192,97397,1,0,0:0:0:0:
64,192,97397,1,0,0:0:0:0:
448,192,97566,1,0,0:0:0:0:
192,192,97566,1,0,0:0:0:0:
448,192,98075,1,0,0:0:0:0:
320,192,98075,1,0,0:0:0:0:
64,192,98075,1,0,0:0:0:0:
448,192,98753,1,0,0:0:0:0:
320,192,98753,1,0,0:0:0:0:
64,192,98753,1,0,0:0:0:0:
192,192,98753,1,0,0:0:0:0:
192,192,99431,1,0,0:0:0:0:
448,192,99431,1,0,0:0:0:0:
64,192,99431,1,0,0:0:0:0:
448,192,100109,1,0,0:0:0:0:
320,192,100109,1,0,0:0:0:0:
192,192,100109,1,0,0:0:0:0:
64,192,100109,1,0,0:0:0:0:
192,192,100786,1,0,0:0:0:0:
320,192,100786,1,0,0:0:0:0:
64,192,100786,1,0,0:0:0:0:
448,192,101464,1,0,0:0:0:0:
320,192,101464,1,0,0:0:0:0:
192,192,101464,1,0,0:0:0:0:
64,192,101464,1,0,0:0:0:0:
448,192,101803,1,0,0:0:0:0:
64,192,101803,1,0,0:0:0:0:
320,192,102481,1,0,0:0:0:0:
192,192,102481,1,0,0:0:0:0:
320,192,102820,1,0,0:0:0:0:
448,192,102820,1,0,0:0:0:0:
192,192,102820,1,0,0:0:0:0:
64,192,102820,1,0,0:0:0:0:
320,192,103498,1,0,0:0:0:0:
192,192,103498,1,0,0:0:0:0:
64,192,103498,1,0,0:0:0:0:
448,192,104176,1,0,0:0:0:0:
320,192,104176,1,0,0:0:0:0:
192,192,104176,1,0,0:0:0:0:
64,192,104176,1,0,0:0:0:0:
448,192,104515,1,0,0:0:0:0:
64,192,104515,1,0,0:0:0:0:
192,192,104515,1,0,0:0:0:0:
448,192,105193,1,0,0:0:0:0:
192,192,105193,1,0,0:0:0:0:
64,192,105193,1,0,0:0:0:0:
448,192,105532,1,0,0:0:0:0:
192,192,105532,1,0,0:0:0:0:
320,192,105532,1,0,0:0:0:0:
64,192,105532,1,0,0:0:0:0:
64,192,105871,1,0,0:0:0:0:
320,192,105871,1,0,0:0:0:0:
320,192,106210,1,0,0:0:0:0:
448,192,106210,1,0,0:0:0:0:
192,192,106210,1,0,0:0:0:0:
448,192,106888,1,0,0:0:0:0:
320,192,106888,1,0,0:0:0:0:
192,192,106888,1,0,0:0:0:0:
64,192,106888,1,0,0:0:0:0:
192,192,107227,1,0,0:0:0:0:
320,192,107227,1,0,0:0:0:0:
448,192,107905,1,0,0:0:0:0:
320,192,107905,1,0,0:0:0:0:
448,192,108244,1,0,0:0:0:0:
192,192,108244,1,0,0:0:0:0:
64,192,108244,1,0,0:0:0:0:
320,192,108414,1,0,0:0:0:0:
64,192,108414,1,0,0:0:0:0:
448,192,108922,1,0,0:0:0:0:
192,192,108922,1,0,0:0:0:0:
192,192,109261,1,0,0:0:0:0:
448,192,109431,1,0,0:0:0:0:
64,192,109431,1,0,0:0:0:0:
192,192,109600,128,0,110109:0:0:0:0:
448,192,109600,1,0,0:0:0:0:
448,192,109939,1,0,0:0:0:0:
192,192,110278,1,0,0:0:0:0:
320,192,110448,1,0,0:0:0:0:
448,192,110448,1,0,0:0:0:0:
64,192,110617,128,0,111295:0:0:0:0:
448,192,110617,1,0,0:0:0:0:
448,192,110956,1,0,0:0:0:0:
192,192,111295,1,0,0:0:0:0:
448,192,111295,1,0,0:0:0:0:
320,192,111634,1,0,0:0:0:0:
64,192,111973,1,0,0:0:0:0:
192,192,112142,1,0,0:0:0:0:
320,192,112142,1,0,0:0:0:0:
64,192,112312,128,0,112481:0:0:0:0:
320,192,112312,1,0,0:0:0:0:
64,192,112651,128,0,112820:0:0:0:0:
320,192,112651,1,0,0:0:0:0:
448,192,112990,1,0,0:0:0:0:
192,192,113159,1,0,0:0:0:0:
320,192,113159,1,0,0:0:0:0:
64,192,113329,128,0,113668:0:0:0:0:
320,192,113329,1,0,0:0:0:0:
192,192,113668,128,0,114007:0:0:0:0:
320,192,113668,1,0,0:0:0:0:
448,192,114007,128,0,114346:0:0:0:0:
320,192,114007,1,0,0:0:0:0:
64,192,114346,1,0,0:0:0:0:
320,192,114685,1,0,0:0:0:0:
64,192,114854,1,0,0:0:0:0:
192,192,114854,1,0,0:0:0:0:
64,192,115024,1,0,0:0:0:0:
448,192,115024,128,0,115532:0:0:0:0:
64,192,115363,1,0,0:0:0:0:
192,192,115702,1,0,0:0:0:0:
64,192,115871,1,0,0:0:0:0:
448,192,115871,1,0,0:0:0:0:
64,192,116041,1,0,0:0:0:0:
320,192,116041,128,0,116719:0:0:0:0:
64,192,116380,1,0,0:0:0:0:
64,192,116719,1,0,0:0:0:0:
448,192,116719,1,0,0:0:0:0:
192,192,117058,1,0,0:0:0:0:
448,192,117397,1,0,0:0:0:0:
192,192,117566,1,0,0:0:0:0:
64,192,117566,1,0,0:0:0:0:
192,192,117736,1,0,0:0:0:0:
320,192,117736,128,0,117905:0:0:0:0:
192,192,118075,1,0,0:0:0:0:
320,192,118075,128,0,118244:0:0:0:0:
64,192,118414,1,0,0:0:0:0:
192,192,118583,1,0,0:0:0:0:
448,192,118583,1,0,0:0:0:0:
192,192,118753,1,0,0:0:0:0:
320,192,118753,1,0,0:0:0:0:
64,192,118922,128,0,119092:0:0:0:0:
320,192,119092,128,0,119346:0:0:0:0:
192,192,119346,128,0,119600:0:0:0:0:
448,192,119600,128,0,120109:0:0:0:0:
320,192,119600,128,0,119939:0:0:0:0:
192,192,120109,128,0,120278:0:0:0:0:
320,192,120278,128,0,120786:0:0:0:0:
64,192,120278,128,0,120617:0:0:0:0:
64,192,120786,128,0,120956:0:0:0:0:
192,192,120956,128,0,121464:0:0:0:0:
448,192,120956,128,0,121295:0:0:0:0:
320,192,121464,128,0,121634:0:0:0:0:
448,192,121634,128,0,121973:0:0:0:0:
64,192,121634,128,0,122142:0:0:0:0:
320,192,122142,128,0,122312:0:0:0:0:
448,192,122312,128,0,122481:0:0:0:0:
64,192,122312,128,0,122397:0:0:0:0:
192,192,122481,128,0,122651:0:0:0:0:
320,192,122481,128,0,122566:0:0:0:0:
64,192,122651,128,0,122820:0:0:0:0:
448,192,122651,128,0,122736:0:0:0:0:
320,192,122990,1,0,0:0:0:0:
320,192,123159,1,0,0:0:0:0:
320,192,123498,1,0,0:0:0:0:
320,192,124007,1,0,0:0:0:0:
320,192,124176,1,0,0:0:0:0:
448,192,124346,128,0,124515:0:0:0:0:
320,192,124515,128,0,124685:0:0:0:0:
64,192,124515,128,0,124600:0:0:0:0:
64,192,124685,128,0,125024:0:0:0:0:
192,192,124685,128,0,124854:0:0:0:0:
448,192,125024,128,0,125532:0:0:0:0:
192,192,125024,128,0,125363:0:0:0:0:
320,192,125532,128,0,125702:0:0:0:0:
192,192,125702,128,0,125871:0:0:0:0:
64,192,125871,1,0,0:0:0:0:
448,192,126210,1,0,0:0:0:0:
448,192,126719,1,0,0:0:0:0:
448,192,126888,1,0,0:0:0:0:
64,192,127058,128,0,127227:0:0:0:0:
320,192,127227,128,0,127397:0:0:0:0:
448,192,127227,128,0,127312:0:0:0:0:
192,192,127397,128,0,127736:0:0:0:0:
64,192,127397,128,0,127566:0:0:0:0:
320,192,127566,128,0,127736:0:0:0:0:
448,192,127736,128,0,128244:0:0:0:0:
64,192,127736,128,0,128075:0:0:0:0:
192,192,128244,128,0,128414:0:0:0:0:
64,192,128414,128,0,128583:0:0:0:0:
320,192,128583,1,0,0:0:0:0:
320,192,128922,1,0,0:0:0:0:
320,192,129431,1,0,0:0:0:0:
320,192,129600,1,0,0:0:0:0:
448,192,129770,128,0,129939:0:0:0:0:
192,192,129939,128,0,130193:0:0:0:0:
320,192,130193,128,0,130448:0:0:0:0:
64,192,130448,128,0,130956:0:0:0:0:
192,192,130448,128,0,130786:0:0:0:0:
320,192,130956,128,0,131125:0:0:0:0:
192,192,131125,128,0,131634:0:0:0:0:
448,192,131125,128,0,131464:0:0:0:0:
448,192,131634,128,0,131803:0:0:0:0:
320,192,131803,128,0,132312:0:0:0:0:
64,192,131803,128,0,132142:0:0:0:0:
192,192,132312,128,0,132481:0:0:0:0:
64,192,132481,128,0,132820:0:0:0:0:
448,192,132481,128,0,132990:0:0:0:0:
192,192,132990,128,0,133159:0:0:0:0:
64,192,133159,128,0,133329:0:0:0:0:
448,192,133159,128,0,133244:0:0:0:0:
320,192,133329,128,0,133498:0:0:0:0:
192,192,133329,128,0,133414:0:0:0:0:
448,192,133498,128,0,133668:0:0:0:0:
64,192,133498,128,0,133583:0:0:0:0:
192,192,133837,1,0,0:0:0:0:
192,192,134007,1,0,0:0:0:0:
192,192,134346,1,0,0:0:0:0:
192,192,134854,1,0,0:0:0:0:
192,192,135024,1,0,0:0:0:0:
64,192,135193,128,0,135363:0:0:0:0:
192,192,135363,128,0,135532:0:0:0:0:
448,192,135363,128,0,135448:0:0:0:0:
448,192,135532,128,0,135871:0:0:0:0:
320,192,135532,128,0,135702:0:0:0:0:
64,192,135871,128,0,136380:0:0:0:0:
320,192,135871,128,0,136210:0:0:0:0:
192,192,136380,128,0,136549:0:0:0:0:
320,192,136549,128,0,136719:0:0:0:0:
448,192,136719,1,0,0:0:0:0:
64,192,137058,1,0,0:0:0:0:
64,192,137566,1,0,0:0:0:0:
64,192,137736,1,0,0:0:0:0:
448,192,137905,128,0,138414:0:0:0:0:
192,192,138244,128,0,138583:0:0:0:0:
64,192,138583,128,0,139261:0:0:0:0:
448,192,138583,128,0,139092:0:0:0:0:
320,192,139092,128,0,139770:0:0:0:0:
192,192,139261,128,0,140109:0:0:0:0:
448,192,139431,1,0,0:0:0:0:
64,192,139600,1,0,0:0:0:0:
448,192,139770,1,0,0:0:0:0:
320,192,139939,1,0,0:0:0:0:
64,192,140109,1,0,0:0:0:0:
448,192,140109,1,0,0:0:0:0:
448,192,142820,1,0,0:0:0:0:
64,192,142820,1,0,0:0:0:0:
192,192,142820,1,0,0:0:0:0:
448,192,143498,1,0,0:0:0:0:
320,192,143498,1,0,0:0:0:0:
192,192,143498,1,0,0:0:0:0:
64,192,143498,1,0,0:0:0:0:
64,192,144176,1,0,0:0:0:0:
192,192,144176,1,0,0:0:0:0:
320,192,144176,1,0,0:0:0:0:
448,192,144854,1,0,0:0:0:0:
192,192,144854,1,0,0:0:0:0:
320,192,144854,1,0,0:0:0:0:
64,192,144854,1,0,0:0:0:0:
320,192,145532,1,0,0:0:0:0:
448,192,145532,1,0,0:0:0:0:
192,192,145532,1,0,0:0:0:0:
448,192,146210,1,0,0:0:0:0:
320,192,146210,1,0,0:0:0:0:
192,192,146210,1,0,0:0:0:0:
64,192,146210,1,0,0:0:0:0:
320,192,146549,1,0,0:0:0:0:
64,192,146549,1,0,0:0:0:0:
448,192,147227,1,0,0:0:0:0:
192,192,147227,1,0,0:0:0:0:
448,192,147566,1,0,0:0:0:0:
320,192,147566,1,0,0:0:0:0:
64,192,147566,1,0,0:0:0:0:
192,192,147566,1,0,0:0:0:0:
320,192,148244,1,0,0:0:0:0:
448,192,148244,1,0,0:0:0:0:
64,192,148244,1,0,0:0:0:0:
448,192,148922,1,0,0:0:0:0:
320,192,148922,1,0,0:0:0:0:
192,192,148922,1,0,0:0:0:0:
64,192,148922,1,0,0:0:0:0:
448,192,149261,1,0,0:0:0:0:
192,192,149261,1,0,0:0:0:0:
320,192,149261,1,0,0:0:0:0:
192,192,149939,1,0,0:0:0:0:
64,192,149939,1,0,0:0:0:0:
320,192,149939,1,0,0:0:0:0:
448,192,150278,1,0,0:0:0:0:
320,192,150278,1,0,0:0:0:0:
192,192,150278,1,0,0:0:0:0:
64,192,150278,1,0,0:0:0:0:
320,192,150956,1,0,0:0:0:0:
448,192,150956,1,0,0:0:0:0:
64,192,150956,1,0,0:0:0:0:
320,192,151634,1,0,0:0:0:0:
448,192,151634,1,0,0:0:0:0:
192,192,151634,1,0,0:0:0:0:
64,192,151634,1,0,0:0:0:0:
320,192,151973,1,0,0:0:0:0:
192,192,151973,1,0,0:0:0:0:
64,192,152651,1,0,0:0:0:0:
192,192,152651,1,0,0:0:0:0:
448,192,152990,1,0,0:0:0:0:
320,192,152990,1,0,0:0:0:0:
192,192,152990,1,0,0:0:0:0:
64,192,152990,1,0,0:0:0:0:
448,192,153159,1,0,0:0:0:0:
320,192,153159,1,0,0:0:0:0:
192,192,153668,1,0,0:0:0:0:
320,192,153668,1,0,0:0:0:0:
64,192,153668,1,0,0:0:0:0:
448,192,154346,1,0,0:0:0:0:
320,192,154346,1,0,0:0:0:0:
64,192,154346,1,0,0:0:0:0:
192,192,154346,1,0,0:0:0:0:
192,192,155024,1,0,0:0:0:0:
448,192,155024,1,0,0:0:0:0:
320,192,155024,1,0,0:0:0:0:
448,192,155702,1,0,0:0:0:0:
320,192,155702,1,0,0:0:0:0:
192,192,155702,1,0,0:0:0:0:
64,192,155702,1,0,0:0:0:0:
448,192,156380,1,0,0:0:0:0:
320,192,156380,1,0,0:0:0:0:
64,192,156380,1,0,0:0:0:0:
448,192,157058,1,0,0:0:0:0:
320,192,157058,1,0,0:0:0:0:
192,192,157058,1,0,0:0:0:0:
64,192,157058,1,0,0:0:0:0:
320,192,157397,1,0,0:0:0:0:
64,192,157397,1,0,0:0:0:0:
192,192,158075,1,0,0:0:0:0:
448,192,158075,1,0,0:0:0:0:
320,192,158414,1,0,0:0:0:0:
448,192,158414,1,0,0:0:0:0:
192,192,158414,1,0,0:0:0:0:
64,192,158414,1,0,0:0:0:0:
320,192,159092,1,0,0:0:0:0:
448,192,159092,1,0,0:0:0:0:
64,192,159092,1,0,0:0:0:0:
448,192,159770,1,0,0:0:0:0:
320,192,159770,1,0,0:0:0:0:
192,192,159770,1,0,0:0:0:0:
64,192,159770,1,0,0:0:0:0:
448,192,160109,1,0,0:0:0:0:
192,192,160109,1,0,0:0:0:0:
320,192,160109,1,0,0:0:0:0:
448,192,160786,1,0,0:0:0:0:
192,192,160786,1,0,0:0:0:0:
64,192,160786,1,0,0:0:0:0:
448,192,161125,1,0,0:0:0:0:
192,192,161125,1,0,0:0:0:0:
320,192,161125,1,0,0:0:0:0:
64,192,161125,1,0,0:0:0:0:
64,192,161464,1,0,0:0:0:0:
192,192,161464,1,0,0:0:0:0:
64,192,161803,1,0,0:0:0:0:
448,192,161803,1,0,0:0:0:0:
320,192,161803,1,0,0:0:0:0:
448,192,162481,1,0,0:0:0:0:
320,192,162481,1,0,0:0:0:0:
192,192,162481,1,0,0:0:0:0:
64,192,162481,1,0,0:0:0:0:
64,192,162820,1,0,0:0:0:0:
320,192,162820,1,0,0:0:0:0:
64,192,164515,1,0,0:0:0:0:
448,192,164515,1,0,0:0:0:0:
64,192,165193,1,0,0:0:0:0:
192,192,165193,1,0,0:0:0:0:
320,192,165193,1,0,0:0:0:0:
64,192,165871,1,0,0:0:0:0:
192,192,165871,1,0,0:0:0:0:
192,192,166549,1,0,0:0:0:0:
320,192,166549,1,0,0:0:0:0:
448,192,166549,1,0,0:0:0:0:
64,192,167227,1,0,0:0:0:0:
192,192,167227,1,0,0:0:0:0:
448,192,167453,1,0,0:0:0:0:
192,192,167453,1,0,0:0:0:0:
320,192,167679,1,0,0:0:0:0:
448,192,167679,1,0,0:0:0:0:
320,192,167905,1,0,0:0:0:0:
64,192,167905,1,0,0:0:0:0:
320,192,168244,1,0,0:0:0:0:
448,192,168244,1,0,0:0:0:0:
64,192,168414,1,0,0:0:0:0:
192,192,168414,1,0,0:0:0:0:
320,192,168583,1,0,0:0:0:0:
448,192,168583,128,0,169261:0:0:0:0:
64,192,169261,1,0,0:0:0:0:
192,192,169939,1,0,0:0:0:0:
448,192,169939,1,0,0:0:0:0:
448,192,170956,1,0,0:0:0:0:
320,192,170956,1,0,0:0:0:0:
64,192,171634,1,0,0:0:0:0:
192,192,171634,1,0,0:0:0:0:
64,192,171973,1,0,0:0:0:0:
448,192,171973,1,0,0:0:0:0:
320,192,171973,1,0,0:0:0:0:
192,192,172651,1,0,0:0:0:0:
448,192,172651,1,0,0:0:0:0:
64,192,173329,1,0,0:0:0:0:
192,192,173329,1,0,0:0:0:0:
320,192,173329,1,0,0:0:0:0:
448,192,173329,1,0,0:0:0:0:
320,192,173668,1,0,0:0:0:0:
448,192,173668,1,0,0:0:0:0:
448,192,174346,1,0,0:0:0:0:
64,192,174346,1,0,0:0:0:0:
64,192,174685,5,0,0:0:0:0:
192,192,174685,1,0,0:0:0:0:
320,192,174685,1,0,0:0:0:0:
448,192,174685,1,0,0:0:0:0:
64,192,174854,1,0,0:0:0:0:
320,192,174854,1,0,0:0:0:0:
448,192,175363,5,0,0:0:0:0:
64,192,175363,1,0,0:0:0:0:
192,192,175363,1,0,0:0:0:0:
448,192,176041,1,0,0:0:0:0:
320,192,176041,1,0,0:0:0:0:
192,192,176041,1,0,0:0:0:0:
64,192,176041,1,0,0:0:0:0:
320,192,176719,1,0,0:0:0:0:
448,192,176719,1,0,0:0:0:0:
192,192,176719,1,0,0:0:0:0:
448,192,177397,1,0,0:0:0:0:
192,192,177397,1,0,0:0:0:0:
320,192,177397,1,0,0:0:0:0:
64,192,177397,1,0,0:0:0:0:
320,192,178075,1,0,0:0:0:0:
192,192,178075,1,0,0:0:0:0:
64,192,178075,1,0,0:0:0:0:
448,192,178753,1,0,0:0:0:0:
320,192,178753,1,0,0:0:0:0:
192,192,178753,1,0,0:0:0:0:
64,192,178753,1,0,0:0:0:0:
320,192,179092,1,0,0:0:0:0:
192,192,179092,1,0,0:0:0:0:
448,192,179770,1,0,0:0:0:0:
192,192,179770,1,0,0:0:0:0:
448,192,180109,1,0,0:0:0:0:
320,192,180109,1,0,0:0:0:0:
64,192,180109,1,0,0:0:0:0:
192,192,180109,1,0,0:0:0:0:
448,192,180786,1,0,0:0:0:0:
192,192,180786,1,0,0:0:0:0:
64,192,180786,1,0,0:0:0:0:
448,192,181464,1,0,0:0:0:0:
320,192,181464,1,0,0:0:0:0:
192,192,181464,1,0,0:0:0:0:
64,192,181464,1,0,0:0:0:0:
448,192,181803,1,0,0:0:0:0:
192,192,181803,1,0,0:0:0:0:
320,192,181803,1,0,0:0:0:0:
320,192,182481,1,0,0:0:0:0:
64,192,182481,1,0,0:0:0:0:
192,192,182481,1,0,0:0:0:0:
448,192,182820,1,0,0:0:0:0:
320,192,182820,1,0,0:0:0:0:
192,192,182820,1,0,0:0:0:0:
64,192,182820,1,0,0:0:0:0:
320,192,183498,1,0,0:0:0:0:
448,192,183498,1,0,0:0:0:0:
64,192,183498,1,0,0:0:0:0:
320,192,184176,1,0,0:0:0:0:
448,192,184176,1,0,0:0:0:0:
192,192,184176,1,0,0:0:0:0:
64,192,184176,1,0,0:0:0:0:
192,192,184515,1,0,0:0:0:0:
64,192,184515,1,0,0:0:0:0:
320,192,185193,1,0,0:0:0:0:
192,192,185193,1,0,0:0:0:0:
448,192,185532,1,0,0:0:0:0:
320,192,185532,1,0,0:0:0:0:
192,192,185532,1,0,0:0:0:0:
64,192,185532,1,0,0:0:0:0:
448,192,185702,1,0,0:0:0:0:
64,192,185702,1,0,0:0:0:0:
192,192,186210,1,0,0:0:0:0:
448,192,186210,1,0,0:0:0:0:
64,192,186888,1,0,0:0:0:0:
192,192,186888,1,0,0:0:0:0:
320,192,186888,1,0,0:0:0:0:
64,192,187566,1,0,0:0:0:0:
192,192,188244,1,0,0:0:0:0:
448,192,188244,1,0,0:0:0:0:
