osu file format v14

[General]
AudioFilename: audio.mp3
AudioLeadIn: 0
PreviewTime: 59143
Countdown: 0
SampleSet: Soft
StackLeniency: 0.7
Mode: 0
LetterboxInBreaks: 0
WidescreenStoryboard: 0

[Editor]
Bookmarks: 157835
DistanceSpacing: 1.6
BeatDivisor: 4
GridSize: 8
TimelineZoom: 1

[Metadata]
Title:RISE
TitleUnicode:RISE
Artist:League of Legends ft. The Glitch Mob, Mako, and The Word Alive
ArtistUnicode:League of Legends ft. The Glitch Mob, Mako, and The Word Alive
Creator:pacsu
Version:Ryze
Source:
Tags:
BeatmapID:1788825
BeatmapSetID:856181

[Difficulty]
HPDrainRate:7
CircleSize:4
OverallDifficulty:7
ApproachRate:9
SliderMultiplier:1.4
SliderTickRate:1

[Events]
//Background and Video events
0,0,"baron_fight_by_koloromuj-d82405n.jpg",0,0
//Break Periods
//Storyboard Layer 0 (Background)
//Storyboard Layer 1 (Fail)
//Storyboard Layer 2 (Pass)
//Storyboard Layer 3 (Foreground)
//Storyboard Sound Samples

[TimingPoints]
886,338.983050847458,4,2,0,50,1,0
17157,-133.333333333333,4,2,0,50,0,0
26648,-100,4,2,0,50,0,0
28004,-166.666666666667,4,2,0,50,0,0
28682,-100,4,2,0,50,0,0
30716,-166.666666666667,4,2,0,50,0,0
31394,-100,4,2,0,50,0,0
33428,-166.666666666667,4,2,0,50,0,0
34106,-100,4,2,0,50,0,0
35462,-166.666666666667,4,2,0,50,0,0
36140,-125,4,2,0,50,0,0
36818,-100,4,2,0,50,0,0
37496,-80,4,2,0,50,0,0
38852,-100,4,2,0,50,0,0
48343,-133.333333333333,4,2,0,50,0,0
49699,-50,4,2,0,50,0,1
50377,-500,4,2,0,50,0,1
51055,-50,4,2,0,50,0,0
51733,-500,4,2,0,50,0,1
52411,-200,4,2,0,50,0,0
53089,-66.6666666666667,4,2,0,50,0,1
55123,-200,4,2,0,50,0,0
55801,-66.6666666666667,4,2,0,50,0,1
57835,-100,4,2,0,50,0,1
58513,-66.6666666666667,4,2,0,50,0,1
60547,-50,4,2,0,50,0,0
61224,-500,4,2,0,50,0,1
61902,-50,4,2,0,50,0,0
62580,-500,4,2,0,50,0,1
63258,-200,4,2,0,50,0,0
63936,-66.6666666666667,4,2,0,50,0,1
65970,-200,4,2,0,50,0,0
66648,-66.6666666666667,4,2,0,50,0,1
68682,-100,4,2,0,50,0,1
69360,-66.6666666666667,4,2,0,50,0,1
70038,-100,4,2,0,50,0,0
71394,-133.333333333333,4,2,0,50,0,0
80716,-80,4,2,0,50,0,0
82241,-100,4,2,0,50,0,0
90377,-80,4,2,0,50,0,0
91733,-133.333333333333,4,2,0,50,0,0
93089,-50,4,2,0,50,0,1
93767,-500,4,2,0,50,0,0
94445,-50,4,2,0,50,0,1
95123,-500,4,2,0,50,0,0
95801,-200,4,2,0,50,0,0
96479,-66.6666666666667,4,2,0,50,0,1
98513,-200,4,2,0,50,0,0
99191,-66.6666666666667,4,2,0,50,0,1
101224,-100,4,2,0,50,0,1
101902,-66.6666666666667,4,2,0,50,0,1
103936,-50,4,2,0,50,0,0
104614,-500,4,2,0,50,0,1
105292,-50,4,2,0,50,0,0
105970,-500,4,2,0,50,0,1
106648,-200,4,2,0,50,0,0
107326,-66.6666666666667,4,2,0,50,0,1
109021,-100,4,2,0,50,0,1
109360,-200,4,2,0,50,0,0
110038,-66.6666666666667,4,2,0,50,0,1
111733,-100,4,2,0,50,0,1
112750,-66.6666666666667,4,2,0,50,0,1
114784,-133.333333333333,4,2,0,50,0,0
120886,-166.666666666667,4,2,0,50,0,0
121902,-200,4,2,0,50,0,0
123258,-250,4,2,0,50,0,0
135631,-200,4,2,0,50,0,0
136309,-133.333333333333,4,2,0,50,0,0
139869,-117.647058823529,4,2,0,50,0,0
147326,-100,4,2,0,50,0,0
148682,-50,4,2,0,50,0,0
149360,-500,4,2,0,50,0,0
150038,-50,4,2,0,50,0,0
150716,-500,4,2,0,50,0,0
151394,-200,4,2,0,50,0,0
152072,-66.6666666666667,4,2,0,50,0,1
154106,-200,4,2,0,50,0,0
154784,-66.6666666666667,4,2,0,50,0,1
156818,-100,4,2,0,50,0,1
157496,-66.6666666666667,4,2,0,50,0,1
159530,-50,4,2,0,50,0,0
160208,-500,4,2,0,50,0,1
160886,-50,4,2,0,50,0,0
161563,-500,4,2,0,50,0,1
162241,-200,4,2,0,50,0,0
162919,-66.6666666666667,4,2,0,50,0,1
164953,-200,4,2,0,50,0,0
165631,-66.6666666666667,4,2,0,50,0,1
170377,-200,4,2,0,50,0,0
171055,-66.6666666666667,4,2,0,50,0,1
171733,-200,4,2,0,50,0,0
172411,-66.6666666666667,4,2,0,50,0,1
173089,-200,4,2,0,50,0,0
176479,-66.6666666666667,4,2,0,50,0,1
178513,-100,4,2,0,50,0,0
179869,-66.6666666666667,4,2,0,50,0,0
181224,-50,4,2,0,50,0,0
181902,-500,4,2,0,50,0,1
182580,-50,4,2,0,50,0,0
183258,-500,4,2,0,50,0,1
183936,-66.6666666666667,4,2,0,50,0,0
186648,-200,4,2,0,50,0,0
187326,-66.6666666666667,4,2,0,50,0,1
189360,-100,4,2,0,50,0,1
190038,-66.6666666666667,4,2,0,50,0,1
192072,-200,4,2,0,50,0,0
192750,-66.6666666666667,4,2,0,50,0,1
193428,-200,4,2,0,50,0,0
194106,-66.6666666666667,4,2,0,50,0,1
194614,-66.6666666666667,4,2,0,50,0,0

[Colours]
Combo1 : 241,60,14
Combo2 : 148,3,57
Combo3 : 0,0,160
Combo4 : 60,189,196

[HitObjects]
348,165,17157,5,0,0:0:0:0:
138,165,17835,2,0,L|355:165,1,210.000008010865
350,258,19191,2,0,L|199:258,1,131.25000500679
192,259,19699,5,0,0:0:0:0:
281,339,19869,2,0,L|89:340,1,183.750007009506
26,338,20547,1,0,0:0:0:0:
64,129,21224,5,0,0:0:0:0:
129,210,21563,1,0,0:0:0:0:
195,128,21902,2,0,L|332:128,1,131.25000500679
352,129,22411,5,0,0:0:0:0:
489,218,22580,2,0,L|296:218,1,183.750007009506
234,217,23258,2,0,B|194:180|194:180|187:130|187:130|176:181|176:181|124:225,1,210.000008010865
135,215,24275,1,0,0:0:0:0:
488,218,24614,1,0,0:0:0:0:
304,218,25123,5,0,0:0:0:0:
488,218,25292,2,0,L|279:218,1,183.750007009506
233,218,25970,1,0,0:0:0:0:
192,112,26648,6,0,B|144:96|144:96|96:32,2,105
320,112,27326,2,0,B|368:96|368:96|416:32,1,105
417,28,27665,1,0,0:0:0:0:
254,26,27835,1,0,0:0:0:0:
325,239,28004,6,0,B|285:231|261:247|261:247|245:231|245:231|221:247|173:239,1,146.999995513916
112,240,28682,1,0,0:0:0:0:
112,240,29699,5,0,0:0:0:0:
400,240,30038,1,0,0:0:0:0:
256,33,30716,6,0,B|256:77|256:77|261:110|261:110|256:136|256:136|256:189,1,146.999995513916
256,254,31394,1,0,0:0:0:0:
256,254,32411,5,0,0:0:0:0:
256,56,32750,2,0,L|256:166,1,105
256,254,33089,1,0,0:0:0:0:
404,322,33258,1,0,0:0:0:0:
328,288,33428,6,0,L|182:288,1,146.999995513916
75,286,34106,2,0,P|63:239|127:292,1,210
277,279,34784,2,0,P|294:226|278:160,1,105
197,181,35123,1,0,0:0:0:0:
413,179,35462,6,0,L|285:179,1,125.999996154785
413,318,36140,2,0,P|468:266|400:177,1,196
287,179,36818,2,0,P|232:231|313:354,1,245
413,318,37496,5,0,0:0:0:0:
413,318,37665,1,0,0:0:0:0:
137,308,37835,2,0,P|117:254|119:192,1,87.5
492,285,38174,2,0,P|443:312|404:318,1,87.5
114,224,38513,1,0,0:0:0:0:
114,224,38682,1,0,0:0:0:0:
256,278,38852,6,0,P|332:221|387:145,1,175
468,152,39360,1,0,0:0:0:0:
231,207,39530,2,0,P|191:176|88:141,1,140
108,143,40208,5,0,0:0:0:0:
256,278,40377,2,0,P|303:272|357:281,1,70
320,299,40886,2,0,P|289:241|282:148,1,140
288,141,41309,2,0,L|294:110,4,17.5
320,299,41563,6,0,P|251:282|160:288,1,140
77,218,42072,1,0,0:0:0:0:
320,299,42241,2,0,P|376:248|407:167,1,140
402,190,42919,5,0,0:0:0:0:
261,93,43089,1,0,0:0:0:0:
261,93,43258,1,0,0:0:0:0:
70,171,43597,1,0,0:0:0:0:
98,313,43936,6,0,L|83:326,6,17.5
25,249,44275,2,0,P|89:220|173:249,1,140
257,349,44784,1,0,0:0:0:0:
352,352,44953,2,0,P|410:340|478:288,1,140
474,292,45631,5,0,0:0:0:0:
383,227,45801,2,0,P|382:181|397:152,1,70
398,133,46309,2,0,P|369:176|369:241,1,105
386,304,46648,6,0,L|403:316,6,17.5
349,275,46987,1,0,0:0:0:0:
276,330,47157,1,0,0:0:0:0:
190,299,47326,1,0,0:0:0:0:
206,384,47496,5,0,0:0:0:0:
112,311,47665,1,0,0:0:0:0:
178,211,47835,1,0,0:0:0:0:
272,282,48004,1,0,0:0:0:0:
395,178,48174,1,0,0:0:0:0:
374,284,48343,6,0,P|332:292|254:273,1,105.000004005432
97,229,49021,2,0,P|139:237|217:218,1,105.000004005432
382,169,49699,6,0,B|336:211|257:163|257:163|270:113|383:28|463:94|469:166,1,420
210,320,50377,2,0,P|186:321|165:315,1,42
50,133,51055,6,0,B|110:118|110:118|259:158,1,210
193,224,51394,2,0,B|253:239|253:239|402:199,1,210
510,169,51733,2,0,P|490:164|470:167,1,42
272,222,52411,6,0,P|331:206|390:222,1,122.5
372,361,53089,2,0,P|320:369|271:355,1,105.000004005432
389,221,53428,2,0,P|441:213|491:228,1,105.000004005432
434,314,53767,1,0,0:0:0:0:
317,120,53936,1,0,0:0:0:0:
113,179,54106,2,0,P|174:164|235:184,1,105.000004005432
317,120,54445,1,0,0:0:0:0:
170,256,54784,2,0,L|327:245,1,157.500006008148
402,232,55123,6,0,P|383:193|308:172,1,122.5
249,211,55801,2,0,P|328:211|296:164,1,157.500006008148
261,101,56140,2,0,P|261:34|323:60,1,157.500006008148
376,130,56479,2,0,P|451:126|419:79,1,157.500006008148
376,130,56818,2,0,P|369:223|413:295,1,157.500006008148
460,315,57157,5,0,0:0:0:0:
195,332,57496,2,0,P|263:317|364:343,1,157.500006008148
397,278,57835,2,0,P|406:226|288:74,1,245
393,39,58513,6,0,P|455:37|504:8,1,105.000004005432
496,256,58852,2,0,P|434:258|385:287,1,105.000004005432
324,337,59191,5,0,0:0:0:0:
322,160,59360,1,0,0:0:0:0:
200,257,59530,1,0,0:0:0:0:
147,20,59699,1,0,0:0:0:0:
224,168,59869,2,0,P|274:178|322:160,1,105.000004005432
268,94,60208,2,0,P|218:83|170:102,1,105.000004005432
100,320,60547,6,0,B|66:354|6:337|-16:279|35:230|35:230|67:206|96:159|96:159|135:193|178:198|211:186|251:146,1,420
196,20,61224,2,0,P|169:17|148:22,1,49
95,175,61902,6,0,B|122:222|122:222|274:288,1,210
358,271,62241,2,0,B|331:224|331:224|179:158,1,210
118,343,62580,2,0,P|149:334|164:335,1,42
170,254,63258,2,0,P|113:258|67:281,1,105
241,296,63936,6,0,P|252:242|201:179,1,105.000004005432
135,72,64275,2,0,P|124:126|175:189,1,105.000004005432
321,310,64614,1,0,0:0:0:0:
397,174,64784,1,0,0:0:0:0:
173,351,64953,2,0,P|152:298|173:244,1,105.000004005432
336,279,65292,5,0,0:0:0:0:
325,121,65631,2,0,L|336:283,1,157.500006008148
335,278,65970,2,0,P|272:263|208:277,1,122.5
154,336,66648,6,0,P|129:292|197:185,1,157.500006008148
143,190,66987,2,0,P|109:249|141:351,1,157.500006008148
208,269,67326,2,0,L|43:241,1,157.500006008148
55,219,67665,2,0,L|220:247,1,157.500006008148
213,221,68004,1,0,0:0:0:0:
401,123,68343,2,0,P|330:153|377:200,1,157.500006008148
390,210,68682,6,0,P|325:130|426:143,1,245
439,279,69360,2,0,P|469:243|465:176,1,105.000004005432
449,35,69699,2,0,P|419:71|423:138,1,105.000004005432
242,235,70038,6,0,P|210:254|183:296,2,70
319,229,70547,1,0,0:0:0:0:
395,226,70716,2,0,P|426:206|454:165,1,70
459,105,71055,1,0,0:0:0:0:
371,301,71394,6,0,P|275:279|180:290,1,183.750007009506
122,313,72072,1,0,0:0:0:0:
123,312,72750,5,0,0:0:0:0:
308,348,73089,1,0,0:0:0:0:
428,136,73428,2,0,P|377:153|295:140,1,131.25000500679
278,130,73936,1,0,0:0:0:0:
436,213,74106,6,0,P|355:228|251:197,1,183.750007009506
202,155,74784,1,0,0:0:0:0:
202,155,75462,5,0,0:0:0:0:
164,296,75801,1,0,0:0:0:0:
72,156,76140,2,0,P|131:146|207:156,1,131.25000500679
225,164,76648,5,0,0:0:0:0:
225,164,76733,1,0,0:0:0:0:
225,164,76818,2,0,P|277:176|419:146,1,183.750007009506
465,114,77496,1,0,0:0:0:0:
465,114,78174,5,0,0:0:0:0:
316,91,78513,2,0,P|360:87|414:97,1,78.7500030040742
465,114,78852,2,0,B|383:125|383:125|336:157|277:153,1,183.750007009506
253,149,79530,5,0,0:0:0:0:
299,231,79699,1,0,0:0:0:0:
250,312,79869,1,0,0:0:0:0:
344,318,80038,1,0,0:0:0:0:
344,318,80123,1,0,0:0:0:0:
358,362,80208,2,0,P|416:357|480:299,1,131.25000500679
481,222,80716,5,0,0:0:0:0:
481,222,80886,1,0,0:0:0:0:
275,276,81055,2,0,P|230:278|165:264,1,87.5
378,106,81394,1,0,0:0:0:0:
275,276,81563,2,0,P|268:328|277:374,1,87.5
314,198,81902,2,0,P|268:191|220:205,1,87.5
108,247,82241,6,0,P|210:246|297:199,1,175
347,157,82750,1,0,0:0:0:0:
326,295,82919,2,0,P|263:270|183:263,1,140
191,262,83597,2,0,P|146:278|96:269,1,70
7,304,83936,2,0,P|72:297|127:324,1,105
176,370,84275,1,0,0:0:0:0:
335,213,84614,6,0,P|341:197|343:183,6,17.5
348,301,84953,2,0,P|290:293|236:209,1,140
225,142,85462,1,0,0:0:0:0:
327,216,85631,2,0,P|395:201|458:148,1,140
449,158,86309,6,0,P|415:161|375:152,1,70
228,100,86648,2,0,P|286:86|340:102,1,105
380,154,86987,1,0,0:0:0:0:
177,155,87326,2,0,L|150:155,6,17.5
192,231,87665,6,0,P|254:209|302:129,1,140
335,63,88174,1,0,0:0:0:0:
329,226,88343,2,0,P|251:217|190:231,1,140
191,230,89021,6,0,P|172:220|141:180,1,70
150,86,89360,2,0,P|144:135|105:204,1,105
60,237,89699,1,0,0:0:0:0:
283,159,90038,6,0,L|304:159,6,17.5
282,76,90377,1,0,0:0:0:0:
283,247,90547,1,0,0:0:0:0:
115,157,90716,1,0,0:0:0:0:
368,204,90886,1,0,0:0:0:0:
283,247,91055,1,0,0:0:0:0:
415,277,91224,1,0,0:0:0:0:
321,126,91394,1,0,0:0:0:0:
452,155,91563,1,0,0:0:0:0:
339,319,91733,6,0,P|295:334|233:319,1,105.000004005432
280,144,92411,2,0,L|287:271,1,105.000004005432
280,144,93089,6,0,B|356:171|398:110|398:110|308:-8|201:31|145:92,1,420
291,249,93767,2,0,L|333:254,1,42
218,285,94445,6,0,B|142:276|142:276|241:179,1,210
291,249,94784,2,0,B|367:258|367:258|268:355,1,210
115,304,95123,2,0,L|144:274,1,42
377,240,95801,6,0,L|304:315,1,105
460,243,96479,2,0,P|445:190|397:162,1,105.000004005432
249,235,96818,2,0,P|264:288|312:316,1,105.000004005432
460,243,97157,5,0,0:0:0:0:
324,240,97326,1,0,0:0:0:0:
467,110,97496,2,0,P|418:129|359:109,1,105.000004005432
295,75,97835,1,0,0:0:0:0:
316,222,98174,2,0,P|240:214|153:241,1,157.500006008148
108,294,98513,6,0,P|200:287|241:297,1,122.5
314,360,99191,2,0,P|342:319|302:212,1,157.500006008148
212,210,99530,2,0,P|247:262|303:180,1,157.500006008148
341,320,99869,2,0,P|380:278|390:177,1,157.500006008148
469,154,100208,2,0,P|416:106|323:131,1,157.500006008148
265,164,100547,1,0,0:0:0:0:
407,337,100886,2,0,P|344:315|290:218,1,157.500006008148
249,328,101224,2,0,P|321:274|258:144,1,245
175,123,101902,6,0,P|230:152|285:141,1,105.000004005432
322,299,102241,2,0,P|340:259|328:182,1,105.000004005432
137,205,102580,2,0,P|199:218|263:269,1,105.000004005432
322,299,102919,5,0,0:0:0:0:
288,152,103089,1,0,0:0:0:0:
402,237,103258,1,0,0:0:0:0:
240,69,103428,1,0,0:0:0:0:
415,136,103597,2,0,B|459:115|459:74|459:74|487:138,1,105.000004005432
402,237,103936,6,0,B|346:229|310:189|305:148|319:93|319:93|157:264,1,420
0,384,104614,2,0,L|33:350,1,42
200,346,105292,2,0,B|110:335|110:335|34:199,1,210
13,143,105631,2,0,B|103:154|103:154|179:290,1,210
303,361,105970,2,0,L|364:368,1,56
358,367,106648,6,0,P|332:324|336:244,1,122.5
433,260,107326,2,0,P|364:266|313:237,1,105.000004005432
133,215,107665,2,0,P|202:209|253:238,1,105.000004005432
418,318,108004,2,0,P|431:294|421:213,1,105.000004005432
278,150,108343,1,0,0:0:0:0:
413,106,108513,1,0,0:0:0:0:
216,314,108682,6,0,B|192:330|184:306|170:277|252:238|272:247,1,105.000004005432
424,219,109021,2,0,P|395:259|340:225,1,105
344,261,109360,2,0,P|391:277|437:221,1,122.5
452,234,110038,6,0,P|399:292|319:253,1,157.500006008148
293,150,110377,2,0,P|346:92|426:131,1,157.500006008148
381,222,110716,2,0,B|362:161|362:161|349:217|296:219,1,157.500006008148
193,318,111055,2,0,P|265:286|298:206,1,157.500006008148
361,262,111394,2,0,P|270:287|223:202,1,157.500006008148
252,239,111733,2,0,P|293:273|344:244,1,105
304,180,112072,2,0,B|233:178|207:247|207:247|223:173|169:139,1,245
22,216,112750,6,0,P|84:225|139:205,1,105.000004005432
301,88,113089,2,0,P|240:80|186:99,1,105.000004005432
121,157,113428,1,0,0:0:0:0:
109,51,113597,1,0,0:0:0:0:
356,284,113767,1,0,0:0:0:0:
324,183,113936,1,0,0:0:0:0:
256,263,114106,2,0,P|243:316|256:377,2,105.000004005432
359,317,114614,1,0,0:0:0:0:
251,365,114784,6,0,P|195:348|159:314,1,105.000004005432
113,200,115292,1,0,0:0:0:0:
186,297,115462,2,0,P|240:300|304:282,1,105.000004005432
388,207,115970,1,0,0:0:0:0:
291,193,116140,2,0,P|292:141|315:92,1,105.000004005432
313,93,116818,1,0,0:0:0:0:
54,41,117157,1,0,0:0:0:0:
46,129,117496,6,0,P|76:114|114:114,1,52.5000020027161
182,138,117835,2,0,P|161:168|172:250,2,105.000004005432
303,257,118852,2,0,P|275:261|250:274,1,52.5000020027161
196,339,119191,1,0,0:0:0:0:
389,258,119530,1,0,0:0:0:0:
163,56,119869,1,0,0:0:0:0:
267,74,120208,6,0,P|266:122|244:178,1,105.000004005432
165,268,120716,1,0,0:0:0:0:
228,202,120886,2,0,P|270:180|325:179,1,83.9999974365235
426,273,121563,2,0,P|391:251|378:249,1,41.9999987182618
314,241,121902,1,0,0:0:0:0:
274,317,122241,1,0,0:0:0:0:
245,285,122580,1,0,0:0:0:0:
228,277,122919,2,0,L|219:238,1,35
167,179,123258,6,0,P|142:215|139:238,2,56
247,164,124275,2,0,P|263:165|281:159,1,28
354,137,124614,2,0,P|386:127|412:130,1,56
432,138,125292,1,0,0:0:0:0:
396,270,125631,6,0,P|362:275|331:266,1,56
269,220,126140,2,0,P|231:210|187:222,1,84
190,312,126818,2,0,P|228:322|272:310,1,84
352,308,127496,2,0,P|342:267|313:238,1,84
352,308,128174,2,0,B|415:338|423:275|490:295,1,140
171,80,130208,5,0,0:0:0:0:
180,83,130377,2,0,L|219:83,2,28
106,133,130886,2,0,P|55:121|22:132,1,84
63,202,131563,2,0,P|76:135|193:98,1,196
283,150,132919,5,0,0:0:0:0:
295,148,133089,2,0,L|327:139,2,28
203,189,133597,2,0,P|225:223|269:237,1,84
340,198,134275,2,0,P|242:250|190:201,1,196
176,125,135631,5,0,0:0:0:0:
264,175,135801,2,0,L|264:246,1,70
228,332,136309,1,0,0:0:0:0:
396,352,136479,6,0,P|444:330|471:275,1,105.000004005432
461,179,136987,1,0,0:0:0:0:
389,270,137157,2,0,P|373:232|383:160,1,105.000004005432
468,97,137665,1,0,0:0:0:0:
456,210,137835,2,0,B|417:205|383:222|346:215,1,105.000004005432
188,254,138343,2,0,P|191:297|272:264,1,157.500006008148
188,254,139021,2,0,B|136:242|94:280|33:267,1,157.500006008148
67,135,139699,5,0,0:0:0:0:
188,180,139869,2,0,L|253:180,1,59.5000011348725
384,166,140208,2,0,L|313:166,1,59.5000011348725
237,99,140547,1,0,0:0:0:0:
336,85,140716,1,0,0:0:0:0:
272,289,140886,6,0,P|246:250|247:180,1,119.000002269745
336,85,141394,1,0,0:0:0:0:
346,213,141563,1,0,0:0:0:0:
422,350,141733,2,0,P|451:287|426:182,1,178.500003404617
346,213,142411,1,0,0:0:0:0:
332,31,142580,6,0,L|414:28,1,59.5000011348725
512,95,142919,2,0,L|430:98,1,59.5000011348725
287,105,143258,1,0,0:0:0:0:
369,229,143428,1,0,0:0:0:0:
220,238,143597,2,0,L|159:236,1,59.5000011348725
47,291,143936,5,0,0:0:0:0:
74,323,144106,2,0,L|86:197,1,119.000002269745
204,111,144614,5,0,0:0:0:0:
103,163,144784,1,0,0:0:0:0:
229,139,144953,1,0,0:0:0:0:
81,128,145123,1,0,0:0:0:0:
242,176,145292,1,0,0:0:0:0:
83,86,145462,1,0,0:0:0:0:
235,215,145631,1,0,0:0:0:0:
103,49,145801,1,0,0:0:0:0:
289,279,145970,1,0,0:0:0:0:
334,192,147326,6,0,P|261:210|190:185,1,140
265,70,148004,2,0,L|265:214,1,140
265,210,148682,6,0,B|163:232|151:343|524:103|575:239|452:260,1,420
175,302,149360,2,0,P|161:289|148:266,1,42
150,270,150038,6,0,B|201:252|257:250|257:250|299:209|314:146,1,210
319,183,150377,2,0,B|309:227|267:268|267:268|211:270|160:288,1,210
113,168,150716,2,0,P|130:144|149:134,1,49
148,135,151394,6,0,P|183:168|219:124,1,105
233,231,152072,2,0,P|182:244|132:232,1,105.000004005432
22,320,152411,2,0,P|65:312|133:340,1,105.000004005432
214,330,152750,1,0,0:0:0:0:
48,227,152919,1,0,0:0:0:0:
240,200,153089,2,0,P|240:151|187:86,1,105.000004005432
98,39,153428,1,0,0:0:0:0:
143,180,153767,2,0,P|221:158|306:172,1,157.500006008148
386,233,154106,6,0,P|335:237|292:297,1,122.5
260,235,154784,2,0,P|340:250|340:330,1,157.500006008148
367,306,155123,2,0,P|356:247|254:217,1,157.500006008148
367,306,155462,2,0,B|424:313|447:248|533:282,1,157.500006008148
487,354,155801,2,0,P|457:269|480:193,1,157.500006008148
508,124,156140,1,0,0:0:0:0:
309,294,156479,2,0,P|250:276|209:176,1,157.500006008148
234,201,156818,2,0,P|263:253|399:183,1,245
497,179,157496,6,0,P|454:200|389:188,1,105.000004005432
135,215,157835,2,0,P|178:194|243:206,1,105.000004005432
320,273,158174,1,0,0:0:0:0:
277,127,158343,1,0,0:0:0:0:
172,306,158513,1,0,0:0:0:0:
233,200,158682,1,0,0:0:0:0:
257,348,158852,2,0,P|293:329|319:255,1,105.000004005432
418,289,159191,2,0,P|320:278|285:204,1,157.500006008148
263,118,159530,6,0,B|177:57|37:107|37:107|112:226|214:159,1,420
351,49,160208,2,0,P|380:45|395:46,1,42
367,197,160886,6,0,P|306:224|273:107,1,210
228,142,161224,2,0,P|241:212|381:217,1,210
457,99,161563,2,0,P|439:117|431:136,1,42
334,349,162241,6,0,B|384:323|373:260|373:260|400:240,1,122.5
300,280,162919,2,0,P|251:275|192:218,1,105.000004005432
8,205,163258,2,0,P|56:209|116:267,1,105.000004005432
158,330,163597,1,0,0:0:0:0:
285,191,163767,1,0,0:0:0:0:
377,327,163936,2,0,L|260:304,1,105.000004005432
438,211,164275,1,0,0:0:0:0:
273,306,164614,1,0,0:0:0:0:
127,49,164953,6,0,P|96:73|86:151,1,122.5
25,221,165631,2,0,P|56:183|169:196,1,157.500006008148
153,159,165970,2,0,P|66:154|5:215,1,157.500006008148
25,221,166309,2,0,L|25:55,1,157.500006008148
23,21,166648,1,0,0:0:0:0:
153,159,166987,6,0,P|235:171|306:126,1,157.500006008148
344,49,167326,1,0,0:0:0:0:
316,239,167665,2,0,P|193:215|159:177,1,157.500006008148
153,159,168004,1,0,0:0:0:0:
156,304,168174,1,0,0:0:0:0:
346,298,168343,2,0,P|365:248|340:177,1,105.000004005432
271,137,168682,2,0,P|252:187|277:258,1,105.000004005432
346,298,169021,5,0,0:0:0:0:
173,244,169191,1,0,0:0:0:0:
356,199,169360,1,0,0:0:0:0:
161,130,169530,1,0,0:0:0:0:
173,244,169699,2,0,B|175:267|175:267|227:176,1,105.000004005432
356,199,170038,2,0,P|303:226|198:169,1,157.500006008148
94,125,170377,6,0,P|108:175|63:243,1,122.5
76,234,171055,2,0,P|132:372|61:347,1,315.000012016297
5,304,171733,6,0,P|70:280|125:301,1,122.5
118,295,172411,2,0,P|182:382|225:233,1,315.000012016297
195,306,173089,2,0,B|249:332|292:325|342:290|406:306|406:306|430:263|475:245|475:245|409:224|355:229,1,420
366,228,175801,6,0,P|302:245|246:222,1,122.5
236,237,176479,2,0,P|313:264|386:237,1,157.500006008148
381,240,176818,2,0,P|340:308|266:348,1,157.500006008148
393,370,177157,2,0,P|424:309|363:234,1,157.500006008148
412,231,177496,2,0,P|446:284|421:377,1,157.500006008148
453,371,177835,1,0,0:0:0:0:
412,231,178174,2,0,P|332:255|257:227,1,157.500006008148
170,221,178513,6,0,P|199:161|256:137,2,105
66,100,179191,1,0,0:0:0:0:
69,253,179530,2,0,P|105:256|146:238,1,70
170,221,179869,5,0,0:0:0:0:
117,356,180038,1,0,0:0:0:0:
332,330,180208,2,0,P|272:340|222:315,1,105.000004005432
79,173,180547,2,0,P|153:157|195:177,1,105.000004005432
309,221,180886,1,0,0:0:0:0:
422,51,181055,1,0,0:0:0:0:
374,320,181224,6,0,B|327:353|204:365|174:212|174:212|264:160|333:246,1,420
128,333,181902,2,0,P|103:333|82:328,1,42
210,325,182580,6,0,P|268:230|195:172,1,210
190,251,182919,2,0,L|402:251,1,210
512,249,183258,2,0,L|468:249,1,42
460,177,183936,6,0,P|409:211|402:266,1,105.000004005432
260,314,184275,2,0,P|311:280|318:225,1,105.000004005432
313,95,184614,2,0,P|262:129|255:184,1,105.000004005432
260,314,184953,1,0,0:0:0:0:
423,236,185123,1,0,0:0:0:0:
101,269,185292,6,0,P|87:219|110:157,1,105.000004005432
195,0,185631,2,0,P|209:50|186:112,1,105.000004005432
289,270,185970,2,0,P|244:228|176:229,1,105.000004005432
101,269,186309,1,0,0:0:0:0:
310,310,186648,6,0,P|284:257|301:199,1,122.5
290,180,187326,2,0,P|264:251|311:339,1,157.500006008148
381,244,187665,2,0,P|382:199|284:186,1,157.500006008148
229,265,188004,2,0,P|155:273|137:200,1,157.500006008148
289,41,188343,2,0,P|260:106|156:131,1,157.500006008148
100,128,188682,1,0,0:0:0:0:
129,362,189021,2,0,P|208:328|216:221,1,157.500006008148
317,307,189360,2,0,P|224:335|122:229,1,245
101,145,190038,6,0,P|126:191|120:252,1,105.000004005432
64,334,190377,2,0,P|99:322|188:336,1,105.000004005432
243,354,190716,5,0,0:0:0:0:
373,204,190886,1,0,0:0:0:0:
378,309,191055,1,0,0:0:0:0:
274,226,191224,1,0,0:0:0:0:
434,375,191394,2,0,P|458:342|449:266,1,105.000004005432
481,193,191733,1,0,0:0:0:0:
212,172,192072,6,0,P|271:146|319:174,1,122.5
317,172,192750,2,0,P|391:285|424:156,1,315.000012016297
377,213,193428,2,0,L|377:338,1,122.5
377,335,194106,2,0,P|340:382|313:248,1,315.000012016297
