osu file format v14

[General]
AudioFilename: audio.mp3
AudioLeadIn: 0
PreviewTime: 35653
Countdown: 0
SampleSet: Soft
StackLeniency: 0.4
Mode: 0
LetterboxInBreaks: 0
WidescreenStoryboard: 0

[Editor]
Bookmarks: 60931
DistanceSpacing: 1.1
BeatDivisor: 4
GridSize: 4
TimelineZoom: 1

[Metadata]
Title:The Charmer And The Rebel
TitleUnicode:The Charmer And The Rebel
Artist:League of Legends
ArtistUnicode:League of Legends
Creator:Pachiru
Version:Simple
Source:League of Legends
Tags:Ed the Conqueror rakan xayah theme riot game login screen ayyri realazy eiri-
BeatmapID:1441436
BeatmapSetID:681703

[Difficulty]
HPDrainRate:3
CircleSize:3
OverallDifficulty:4
ApproachRate:5
SliderMultiplier:1.5
SliderTickRate:1

[Events]
//Background and Video events
0,0,"X_R_WALLPAPER_LOGO_SPLASH_1920X1080.jpg",0,0
//Break Periods
2,58909,59731
//Storyboard Layer 0 (Background)
//Storyboard Layer 1 (Fail)
//Storyboard Layer 2 (Pass)
//Storyboard Layer 3 (Foreground)
//Storyboard Sound Samples

[TimingPoints]
98,555.555555555556,4,2,1,40,1,0
8986,-100,4,2,1,40,0,0
17875,-100,4,2,1,40,0,0
26764,-100,4,2,1,40,0,0
35653,-100,4,2,1,40,0,1
47598,555.555555555556,4,2,1,40,1,1
56486,-100,4,2,1,40,0,0
98709,-1000,4,2,1,5,0,0

[Colours]
Combo1 : 204,158,19
Combo2 : 242,0,121
Combo3 : 128,0,64
Combo4 : 245,217,131

[HitObjects]
56,132,8986,6,0,P|32:208|56:276,1,150,6|2,0:0|0:0,0:0:0:0:
112,330,9820,2,0,L|272:314,1,150,2|8,0:0|0:0,0:0:0:0:
319,256,10653,1,8,0:0:0:0:
456,348,11209,6,0,B|464:236|464:236|436:184,1,150,6|2,0:0|0:0,0:0:0:0:
387,144,12042,2,0,P|315:118|247:141,1,150,2|8,0:0|0:0,0:0:0:0:
189,199,12875,2,0,L|189:275,1,75,8|8,0:0|0:0,0:0:0:0:
130,332,13431,6,0,B|73:362|17:322|17:322|41:294,1,150,2|0,0:0|0:0,0:0:0:0:
84,232,14264,2,0,P|104:172|64:84,1,150,2|8,0:0|0:0,0:0:0:0:
12,36,15098,1,10,0:0:0:0:
176,12,15653,6,0,L|336:20,1,150,6|2,0:0|0:0,0:0:0:0:
384,77,16486,2,0,L|376:226,1,150,2|10,0:0|0:0,0:0:0:0:
308,272,17320,2,8,P|271:227|243:219,1,75
180,192,17875,6,0,P|112:208|32:192,1,150,4|0,0:3|0:0,0:0:0:0:
34,110,18709,2,0,P|102:94|182:110,1,150,2|8,0:0|0:0,0:0:0:0:
252,152,19542,2,0,L|336:152,1,75,10|8,0:0|0:0,0:0:0:0:
408,152,20098,6,0,P|416:96|268:24,1,225,4|8,0:0|0:0,0:0:0:0:
280,220,21764,2,0,L|288:316,1,75,10|8,0:0|0:0,0:0:0:0:
227,353,22320,6,0,L|76:364,1,150,6|0,0:0|0:0,0:0:0:0:
19,305,23153,2,0,L|8:155,1,150,2|8,0:0|0:0,0:0:0:0:
66,97,23986,2,0,L|161:90,1,75,10|8,0:0|0:0,0:0:0:0:
184,20,24542,6,0,P|215:57|182:165,1,150,4|0,0:0|0:0,0:0:0:0:
148,216,25375,2,0,P|136:256|320:276,1,300,2|2,0:0|0:0,0:0:0:0:
336,220,26764,6,0,L|324:60,1,150,4|2,0:3|0:0,0:0:0:0:
408,60,27598,2,0,L|420:232,1,150,2|8,0:0|0:0,0:0:0:0:
420,292,28431,2,0,P|376:304|340:296,1,75,8|8,0:0|0:0,0:0:0:0:
289,357,28986,6,0,P|217:337|145:357,1,150,6|2,0:0|0:0,0:0:0:0:
87,297,29820,1,2,0:0:0:0:
120,220,30098,2,0,L|115:114,1,75,8|8,0:0|0:0,0:0:0:0:
200,132,30653,2,0,L|203:206,1,75,8|8,0:0|0:0,0:0:0:0:
288,212,31209,6,0,B|280:92|280:92|248:60,1,150,6|2,0:0|0:0,0:0:0:0:
317,12,32042,1,2,0:0:0:0:
375,70,32320,2,0,L|455:62,1,75,8|8,0:0|0:0,0:0:0:0:
472,144,32875,2,0,L|397:151,1,75,8|8,0:0|0:0,0:0:0:0:
338,210,33431,6,0,P|316:284|348:352,1,150,6|2,0:0|0:0,0:0:0:0:
426,347,34264,2,0,P|448:276|419:209,1,150,2|8,0:0|0:0,0:0:0:0:
376,136,35098,2,0,B|356:100|376:60,1,75,10|10,0:0|0:0,0:0:0:0:
316,6,35653,6,0,P|252:48|172:36,1,150,4|0,0:3|0:0,0:0:0:0:
123,99,36486,2,0,P|165:163|153:243,1,150,2|8,0:0|0:0,0:0:0:0:
99,291,37320,2,0,L|12:304,1,75,8|8,0:0|0:0,0:0:0:0:
40,384,37875,6,0,L|192:364,1,150,6|0,0:0|0:0,0:0:0:0:
247,305,38709,1,2,0:0:0:0:
321,339,38986,2,0,L|417:325,1,75,8|8,0:0|0:0,0:0:0:0:
453,269,39542,2,0,L|439:173,1,75,8|8,0:0|0:0,0:0:0:0:
383,136,40098,6,0,P|402:60|360:8,1,150,6|0,0:0|0:0,0:0:0:0:
280,20,40931,2,0,P|261:96|303:148,1,150,2|8,0:0|0:0,0:0:0:0:
352,216,41764,2,0,P|360:256|352:296,1,75,8|8,0:0|0:0,0:0:0:0:
300,352,42320,6,0,L|148:344,1,150,6|0,0:0|0:0,0:0:0:0:
91,285,43153,2,0,L|98:135,1,150,2|8,0:0|0:0,0:0:0:0:
180,140,43986,2,0,L|176:228,1,75,8|8,0:0|0:0,0:0:0:0:
216,288,44542,6,0,P|252:311|352:289,1,150,6|2,0:0|0:0,0:0:0:0:
409,231,45375,1,0,0:0:0:0:
350,172,45653,2,0,P|313:148|214:171,1,150,10|2,0:0|0:0,0:0:0:0:
156,228,46486,6,0,B|88:264|88:264|20:229,1,150,2|10,0:0|0:0,0:0:0:0:
87,77,47598,6,0,B|68:128|88:172|88:172|112:152|136:148,1,150,4|0,0:3|0:0,0:0:0:0:
216,148,48431,2,0,B|238:151|262:171|262:171|282:127|263:76,1,150,2|8,0:0|0:0,0:0:0:0:
321,18,49264,2,0,L|404:20,1,75,8|8,0:0|0:0,0:0:0:0:
454,78,49820,6,0,L|448:245,1,150,6|0,0:0|0:0,0:0:0:0:
390,286,50653,1,2,0:0:0:0:
331,227,50931,2,0,P|291:219|251:227,1,75,8|8,0:0|0:0,0:0:0:0:
199,282,51486,2,0,P|162:289|125:284,1,75,8|8,0:0|0:0,0:0:0:0:
66,225,52042,6,0,B|48:184|48:184|68:64,1,150,6|0,0:0|0:0,0:0:0:0:
123,21,52875,2,0,L|276:36,1,150,2|8,0:0|0:0,0:0:0:0:
330,94,53709,2,0,L|414:86,1,75,8|8,0:0|0:0,0:0:0:0:
463,145,54264,6,0,P|432:200|468:288,1,150,4|4,0:3|0:3,0:0:0:0:
292,278,55375,2,0,P|323:223|287:135,2,150,2|8|0,0:0|0:0|0:0,0:0:0:0:
256,192,56764,12,2,58709,0:3:0:0:
84,48,60931,6,0,B|67:90|84:132|84:132|124:176|124:176|139:214|124:260,1,225,4|2,0:3|0:0,0:0:0:0:
184,312,62042,2,0,P|256:332|328:312,1,150,2|2,0:0|0:0,0:0:0:0:
240,172,63153,6,0,B|204:104|248:24|248:24|324:56|328:152|328:152|344:76|412:48,1,450,2|0,0:3|0:0,0:0:0:0:
424,216,65375,6,0,B|372:280|292:260|292:260|276:320|164:376|80:272,1,375,4|0,0:0|0:0,0:0:0:0:
56,228,67042,2,0,L|64:136,1,75,0|0,0:0|0:0,0:0:0:0:
68,72,67598,1,4,0:0:0:0:
400,80,69264,6,0,L|396:160,1,75,2|2,0:0|0:0,0:0:0:0:
392,236,69820,2,0,B|328:264|280:236|280:236|232:208|168:236,1,225,4|2,0:3|0:0,0:0:0:0:
136,304,70931,2,0,P|96:252|128:168,1,150,2|2,0:0|0:0,0:0:0:0:
228,56,72042,6,0,B|300:76|376:32|376:32|324:72|292:132|332:232|412:240|472:216,1,450,2|2,0:3|0:0,0:0:0:0:
337,338,74264,6,0,B|253:314|253:314|196:336|196:336|124:312|124:312|52:336|52:336|0:320|-32:228|0:164|64:136,1,525,2|2,0:3|0:0,0:0:0:0:
112,108,76486,6,0,B|184:84|256:136|256:232|256:232|256:136|312:80|400:104,1,450,2|4,0:3|0:0,0:0:0:0:
468,252,78709,6,0,B|432:288|432:288|324:284,1,150,4|2,0:3|0:0,0:0:0:0:
274,342,79542,2,0,L|120:336,1,150,2|8,0:0|0:0,0:0:0:0:
66,277,80375,2,0,P|60:240|68:200,1,75,8|8,0:0|0:0,0:0:0:0:
125,144,80931,6,0,P|197:120|264:144,1,150,6|2,0:0|0:0,0:0:0:0:
322,202,81764,1,2,0:0:0:0:
380,143,82042,2,0,L|460:143,1,75,8|8,0:0|0:0,0:0:0:0:
455,60,82598,2,0,L|375:60,1,75,8|8,0:0|0:0,0:0:0:0:
321,1,83153,6,0,P|268:36|160:32,1,150,6|2,0:0|0:0,0:0:0:0:
104,24,83986,2,0,P|40:40|8:120,1,150,2|8,0:0|0:0,0:0:0:0:
28,192,84820,2,0,P|36:232|28:264,1,75,8|8,0:0|0:0,0:0:0:0:
64,340,85375,6,0,L|224:328,1,150,6|2,0:0|0:0,0:0:0:0:
272,270,86209,1,2,0:0:0:0:
330,328,86486,2,0,P|372:336|408:328,1,75,8|8,0:0|0:0,0:0:0:0:
461,271,87042,2,0,P|469:229|460:196,1,75,8|8,0:0|0:0,0:0:0:0:
402,139,87598,6,0,B|330:111|330:111|258:139,1,150,6|2,0:0|0:0,0:0:0:0:
188,176,88431,1,2,0:0:0:0:
112,140,88709,2,0,L|24:140,1,75,8|8,0:0|0:0,0:0:0:0:
37,222,89264,2,0,L|125:222,1,75,8|8,0:0|0:0,0:0:0:0:
170,280,89820,6,0,P|236:304|312:280,1,150,6|2,0:0|0:0,0:0:0:0:
309,116,90931,2,0,P|243:92|167:116,1,150,2|8,0:0|0:0,0:0:0:0:
170,280,92042,6,0,B|240:308|240:308|324:276,1,150,4|2,0:3|0:0,0:0:0:0:
384,240,92875,2,0,B|408:170|408:170|384:98,1,150,10|8,0:0|0:0,0:0:0:0:
344,24,93709,2,0,L|249:24,1,75,10|10,0:0|0:0,0:0:0:0:
210,82,94264,6,0,P|137:100|66:82,1,150,6|0,0:0|0:0,0:0:0:0:
7,140,95098,2,0,P|25:212|7:284,1,150,2|8,0:0|0:0,0:0:0:0:
65,342,95931,2,0,L|145:342,1,75,10|8,0:0|0:0,0:0:0:0:
256,192,96486,12,0,98709,0:3:0:0:
