osu file format v14

[General]
AudioFilename: audio.mp3
AudioLeadIn: 0
PreviewTime: 35653
Countdown: 0
SampleSet: Soft
StackLeniency: 0.3
Mode: 0
LetterboxInBreaks: 0
WidescreenStoryboard: 1

[Editor]
Bookmarks: 19542,60931,78709,82042,83153,84820,96486
DistanceSpacing: 1.1
BeatDivisor: 4
GridSize: 4
TimelineZoom: 2.1

[Metadata]
Title:The Charmer And The Rebel
TitleUnicode:The Charmer And The Rebel
Artist:League of Legends
ArtistUnicode:League of Legends
Creator:Pachiru
Version:Love Birbs
Source:League of Legends
Tags:Ed the Conqueror rakan xayah theme riot game login screen ayyri realazy eiri-
BeatmapID:1571470
BeatmapSetID:681703

[Difficulty]
HPDrainRate:6
CircleSize:4.5
OverallDifficulty:8
ApproachRate:9
SliderMultiplier:2.6
SliderTickRate:1

[Events]
//Background and Video events
0,0,"X_R_WALLPAPER_LOGO_SPLASH_1920X1080.jpg",0,0
//Break Periods
2,58909,60331
//Storyboard Layer 0 (Background)
//Storyboard Layer 1 (Fail)
//Storyboard Layer 2 (Pass)
//Storyboard Layer 3 (Foreground)
//Storyboard Sound Samples

[TimingPoints]
98,555.555555555556,4,2,1,40,1,0
8986,-133.333333333333,4,2,1,40,0,0
17875,-100,4,2,1,40,0,0
26764,-100,4,2,1,40,0,0
35653,-83.3333333333333,4,2,1,40,0,1
47598,555.555555555556,4,2,1,40,1,1
47598,-83.3333333333333,4,2,1,40,0,1
54264,-71.4285714285714,4,2,1,40,0,1
56486,-133.333333333333,4,2,1,40,0,0
62459,-133.333333333333,4,2,1,15,0,0
62598,-133.333333333333,4,2,1,40,0,0
63014,-133.333333333333,4,2,1,15,0,0
63153,-133.333333333333,4,2,1,40,0,0
68709,-133.333333333333,4,2,1,5,0,0
69264,-133.333333333333,4,2,1,40,0,0
71348,-133.333333333333,4,2,1,15,0,0
71486,-133.333333333333,4,2,1,40,0,0
71903,-133.333333333333,4,2,1,15,0,0
72042,-133.333333333333,4,2,1,40,0,0
78709,-100,4,2,1,40,0,0
83153,-83.3333333333333,4,2,1,40,0,0
92042,-100,4,2,1,40,0,0
98709,-100,4,2,1,5,0,0

[Colours]
Combo1 : 204,158,19
Combo2 : 242,0,121
Combo3 : 128,0,64
Combo4 : 245,217,131

[HitObjects]
52,184,8986,6,0,P|105:163|51:191,1,195.00000743866,6|2,0:0|0:0,0:0:0:0:
216,28,9820,2,0,B|272:12|316:44|316:44|356:76|416:52,1,195.00000743866,2|8,0:0|0:0,0:0:0:0:
250,129,10653,1,8,0:0:0:0:
372,272,10931,2,0,L|364:212,1,48.750001859665,8|0,0:0|0:0,0:0:0:0:
295,341,11209,6,0,P|376:295|463:331,1,195.00000743866,6|2,0:0|0:0,0:0:0:0:
432,83,12042,2,0,P|350:129|263:93,1,195.00000743866,2|8,0:0|0:0,0:0:0:0:
40,140,12875,2,0,L|100:148,1,48.750001859665,8|0,0:0|0:0,0:0:0:0:
224,224,13153,2,0,L|175:217,1,48.750001859665,8|0,0:0|0:0,0:0:0:0:
208,40,13431,38,0,P|184:88|200:136,1,97.50000371933,2|2,0:0|0:0,0:0:0:0:
352,108,13848,2,0,P|304:84|256:100,1,97.50000371933,2|2,0:0|0:0,0:0:0:0:
298,165,14264,1,2,0:0:0:0:
468,28,14542,2,0,B|452:76|452:76|472:120,1,97.50000371933,10|8,0:0|0:0,0:0:0:0:
404,316,15098,2,0,B|420:268|420:268|400:224,1,97.50000371933,10|8,0:0|0:0,0:0:0:0:
128,268,15653,6,0,B|200:256|200:256|244:284|244:284|316:272,1,195.00000743866,6|2,0:0|0:0,0:0:0:0:
148,180,16486,2,0,B|220:168|220:168|264:196|264:196|336:184,1,195.00000743866,2|2,0:0|0:0,0:0:0:0:
164,88,17320,1,8,0:0:0:0:
380,20,17598,1,8,0:0:0:0:
312,40,17736,1,8,0:0:0:0:
236,68,17875,6,0,P|192:16|116:28,1,130,4|2,0:3|0:0,0:0:0:0:
113,189,18292,2,0,P|162:151|164:88,1,130,2|2,0:0|0:0,0:0:0:0:
16,116,18709,2,0,L|80:116,1,65,2|0,0:0|0:0,0:0:0:0:
277,173,18986,2,0,P|241:197|233:229,1,65,10|0,0:0|0:0,0:0:0:0:
157,345,19264,2,0,P|185:330|200:301,1,65,8|0,0:0|0:0,0:0:0:0:
113,189,19542,2,0,P|141:231|179:241,1,65,10|0,0:0|0:0,0:0:0:0:
317,330,19820,2,0,P|299:296|265:278,1,65,8|0,0:0|0:0,0:0:0:0:
440,164,20098,6,0,B|424:252|424:252|384:208,1,130,6|2,0:0|0:0,0:0:0:0:
344,164,20514,1,2,0:0:0:0:
428,24,20653,2,0,P|452:52|452:92,1,65,0|2,0:0|0:0,0:0:0:0:
316,76,20931,2,0,L|380:80,1,65,2|0,0:0|0:0,0:0:0:0:
248,136,21209,2,0,L|200:84,1,65,10|0,0:0|0:0,0:0:0:0:
344,164,21486,2,0,L|292:212,1,65,8|0,0:0|0:0,0:0:0:0:
176,316,21764,2,0,P|232:296|300:320,1,130,10|8,0:0|0:0,0:0:0:0:
52,348,22320,6,0,L|64:212,1,130,6|2,0:0|0:0,0:0:0:0:
196,144,22736,2,0,P|192:212|140:244,1,130,2|2,0:0|0:0,0:0:0:0:
12,156,23153,2,0,P|84:140|132:176,1,130,2|10,0:0|0:0,0:0:0:0:
63,218,23570,1,0,0:0:0:0:
84,68,23709,2,0,P|124:76|152:96,1,65,8|0,0:0|0:0,0:0:0:0:
256,20,23986,2,0,P|227:49|216:81,1,65,10|0,0:0|0:0,0:0:0:0:
210,207,24264,2,0,L|194:135,1,65,8|0,0:0|0:0,0:0:0:0:
172,308,24542,6,0,B|224:280|224:280|296:292,1,130,4|0,0:0|0:0,0:0:0:0:
488,300,24959,2,0,B|436:328|436:328|364:316,1,130,0|2,0:0|0:0,0:0:0:0:
332,208,25375,2,0,P|372:145|379:219,1,195,2|0,0:0|0:0,0:0:0:0:
248,169,25931,1,2,0:0:0:0:
284,97,26070,1,0,0:0:0:0:
356,69,26209,1,2,0:0:0:0:
432,89,26348,1,0,0:0:0:0:
476,153,26486,1,2,0:0:0:0:
472,229,26625,1,0,0:0:0:0:
452,304,26764,6,0,B|404:284|360:308|360:308|312:336|260:304,1,195,4|2,0:3|0:0,0:0:0:0:
272,196,27320,2,0,P|304:216|312:248,1,65,2|2,0:0|0:0,0:0:0:0:
160,336,27598,2,0,B|136:296|136:296|152:212,1,130,2|8,0:0|0:0,0:0:0:0:
104,152,28014,1,8,0:0:0:0:
8,236,28153,2,0,L|76:224,1,65,8|8,0:0|0:0,0:0:0:0:
244,128,28431,2,0,L|176:140,1,65,8|8,0:0|0:0,0:0:0:0:
28,160,28709,2,0,P|31:122|50:95,1,65,8|8,0:0|0:0,0:0:0:0:
224,212,28986,6,0,B|296:200|296:200|328:220|328:220|412:204,1,195,6|2,0:0|0:0,0:0:0:0:
388,296,29542,2,0,L|304:312,1,65,2|2,0:0|0:0,0:0:0:0:
340,132,29820,2,0,L|476:108,1,130,2|8,0:0|0:0,0:0:0:0:
500,36,30236,1,8,0:0:0:0:
452,188,30375,2,0,L|364:204,1,65,8|8,0:0|0:0,0:0:0:0:
256,104,30653,2,0,L|240:192,1,65,8|8,0:0|0:0,0:0:0:0:
312,340,30931,2,0,L|296:252,1,65,8|8,0:0|0:0,0:0:0:0:
117,267,31209,6,0,P|194:289|136:344,1,195,6|2,0:0|0:0,0:0:0:0:
88,200,31764,2,0,P|120:184|168:184,1,65,2|2,0:0|0:0,0:0:0:0:
28,64,32042,2,0,P|84:108|144:96,1,130,2|8,0:0|0:0,0:0:0:0:
196,48,32459,1,8,0:0:0:0:
280,160,32598,2,0,P|280:128|264:96,1,65,8|8,0:0|0:0,0:0:0:0:
228,252,32875,2,0,L|360:236,1,130,8|8,0:0|0:0,0:0:0:0:
420,284,33292,1,8,0:0:0:0:
512,156,33431,6,0,P|479:69|388:28,1,195,6|2,0:0|0:0,0:0:0:0:
280,104,33986,2,0,L|356:124,1,65,2|2,0:0|0:0,0:0:0:0:
224,16,34264,2,0,L|161:32,1,65,2|0,0:0|0:0,0:0:0:0:
196,188,34542,2,0,B|184:128|184:128|120:104,1,130,8|8,0:0|0:0,0:0:0:0:
36,108,34959,1,8,0:0:0:0:
68,252,35098,1,10,0:0:0:0:
196,188,35236,1,10,0:0:0:0:
112,188,35375,1,10,0:0:0:0:
240,252,35513,1,10,0:0:0:0:
168,360,35653,6,0,L|328:356,1,155.999995239258,4|2,0:3|0:0,0:0:0:0:
408,184,36070,2,0,P|332:212|324:288,1,155.999995239258,2|2,0:0|0:0,0:0:0:0:
484,212,36486,2,0,P|492:172|472:140,1,77.999997619629,2|0,0:0|0:0,0:0:0:0:
384,28,36764,2,0,P|375:65|394:98,1,77.999997619629,8|8,0:0|0:0,0:0:0:0:
468,52,37042,1,8,0:0:0:0:
304,72,37181,1,8,0:0:0:0:
320,232,37320,2,0,B|384:188|384:188|312:156,1,155.999995239258,8|8,0:0|0:0,0:0:0:0:
240,200,37736,1,8,0:0:0:0:
76,64,37875,6,0,P|149:86|171:155,1,155.999995239258,6|2,0:0|0:0,0:0:0:0:
76,248,38292,2,0,P|99:176|171:155,1,155.999995239258,2|2,0:0|0:0,0:0:0:0:
188,304,38709,2,0,P|160:272|160:236,1,77.999997619629,2|0,0:0|0:0,0:0:0:0:
244,244,38986,1,8,0:0:0:0:
184,384,39125,1,8,0:0:0:0:
319,244,39264,2,0,P|279:236|243:244,1,77.999997619629,8|8,0:0|0:0,0:0:0:0:
344,376,39542,2,0,P|384:376|452:292,1,155.999995239258,8|8,0:0|0:0,0:0:0:0:
400,224,39959,1,8,0:0:0:0:
476,64,40098,6,0,B|460:168|460:168|440:144|392:144,1,155.999995239258,6|2,0:0|0:0,0:0:0:0:
376,300,40514,2,0,P|318:235|352:162,1,155.999995239258,2|2,0:0|0:0,0:0:0:0:
383,23,40931,2,0,P|383:68|363:99,1,77.999997619629,2|0,0:0|0:0,0:0:0:0:
230,62,41209,2,0,P|264:44|302:45,1,77.999997619629,8|8,0:0|0:0,0:0:0:0:
337,175,41486,2,0,P|299:149|285:114,1,77.999997619629,8|8,0:0|0:0,0:0:0:0:
96,36,41764,2,0,P|152:92|144:168,1,155.999995239258,8|8,0:0|0:0,0:0:0:0:
104,240,42181,1,8,0:0:0:0:
264,360,42320,6,0,B|156:336|156:336|104:356,1,155.999995239258,6|2,0:0|0:0,0:0:0:0:
256,231,42736,2,0,P|296:311|256:363,1,155.999995239258,2|2,0:0|0:0,0:0:0:0:
180,208,43153,2,0,P|192:180|240:156,1,77.999997619629,2|0,0:0|0:0,0:0:0:0:
316,180,43431,1,8,0:0:0:0:
236,72,43570,1,8,0:0:0:0:
364,112,43709,2,0,P|352:72|320:52,1,77.999997619629,8|8,0:0|0:0,0:0:0:0:
396,188,43986,2,0,B|432:204|476:188|476:188|440:216|440:264,1,155.999995239258,8|8,0:0|0:0,0:0:0:0:
464,336,44403,1,8,0:0:0:0:
352,264,44542,6,0,B|296:244|240:276|240:276|184:304|120:272,1,233.999992858887,6|2,0:0|0:0,0:0:0:0:
160,128,45098,2,0,P|228:168|140:152,1,233.999992858887,2|2,0:0|0:0,0:0:0:0:
208,52,45653,1,10,0:0:0:0:
208,52,45792,2,0,P|280:96|300:172,1,155.999995239258,10|10,0:0|0:0,0:0:0:0:
428,108,46209,2,0,P|392:132|380:188,1,77.999997619629,2|0,0:0|0:0,0:0:0:0:
436,328,46486,5,2,0:0:0:0:
436,328,46625,2,0,P|376:284|296:296,1,155.999995239258,2|2,0:0|0:0,0:0:0:0:
161,328,47042,5,10,0:0:0:0:
161,328,47181,2,0,P|221:284|301:296,1,155.999995239258,8|8,0:0|0:0,0:0:0:0:
436,328,47598,6,0,B|412:232|412:232|440:176,1,155.999995239258,4|2,0:3|0:0,0:0:0:0:
439,33,48014,2,0,B|463:129|463:129|437:180,1,155.999995239258,2|2,0:0|0:0,0:0:0:0:
296,120,48431,2,0,L|380:116,1,77.999997619629,2|0,0:0|0:0,0:0:0:0:
437,180,48709,1,8,0:0:0:0:
332,44,48848,1,8,0:0:0:0:
256,184,48986,2,0,P|224:144|228:104,1,77.999997619629,8|8,0:0|0:0,0:0:0:0:
69,58,49264,2,0,P|107:121|68:184,1,155.999995239258,8|8,0:0|0:0,0:0:0:0:
12,124,49681,1,8,0:0:0:0:
152,12,49820,6,0,B|204:8|204:8|248:32|248:32|308:28,1,155.999995239258,6|2,0:0|0:0,0:0:0:0:
412,128,50236,2,0,B|360:132|360:132|316:108|316:108|262:111,1,155.999995239258,2|2,0:0|0:0,0:0:0:0:
164,216,50653,2,0,L|260:208,1,77.999997619629,2|0,0:0|0:0,0:0:0:0:
312,260,50931,1,8,0:0:0:0:
384,212,51070,1,8,0:0:0:0:
320,344,51209,1,8,0:0:0:0:
392,296,51348,1,8,0:0:0:0:
241,209,51486,2,0,L|76:224,1,155.999995239258,8|8,0:0|0:0,0:0:0:0:
12,176,51903,1,8,0:0:0:0:
88,44,52042,6,0,B|124:40|152:80|152:80|164:36|208:28,1,155.999995239258,6|2,0:0|0:0,0:0:0:0:
348,112,52459,2,0,B|312:108|284:148|284:148|272:104|228:96,1,155.999995239258,2|2,0:0|0:0,0:0:0:0:
252,228,52875,2,0,P|292:236|332:220,1,77.999997619629,2|0,0:0|0:0,0:0:0:0:
230,96,53153,1,8,0:0:0:0:
168,252,53292,1,8,0:0:0:0:
264,348,53431,2,0,P|304:356|344:340,1,77.999997619629,8|8,0:0|0:0,0:0:0:0:
476,184,53709,2,0,P|404:236|412:316,1,155.999995239258,8|8,0:0|0:0,0:0:0:0:
460,364,54125,1,8,0:0:0:0:
323,245,54264,6,0,B|292:183|292:183|319:121|319:121|289:59|289:59|321:-2,1,272.999991668701,4|0,0:3|0:0,0:0:0:0:
438,123,54820,2,0,B|372:160|311:123|311:123|241:83|172:123,1,272.999991668701,4|2,0:3|0:0,0:0:0:0:
283,248,55375,2,0,P|266:188|218:254,1,181.999994445801,2|8,0:0|0:0,0:0:0:0:
324,328,55792,1,0,0:0:0:0:
375,265,55931,1,8,0:0:0:0:
372,185,56070,1,8,0:0:0:0:
327,120,56209,1,8,0:0:0:0:
253,94,56348,1,8,0:0:0:0:
178,119,56486,5,10,0:0:0:0:
256,192,56625,12,2,58709,0:3:0:0:
152,328,60931,6,0,B|116:296|116:232|148:192|148:192|116:160|116:92|156:56,1,292.50001115799,4|2,0:3|0:0,0:0:0:0:
336,64,62042,2,0,B|352:112|352:112|332:160|332:160|348:212,1,146.250005578995,2|2,0:0|0:0,0:0:0:0:
344,201,62598,2,0,P|396:164|484:196,1,146.250005578995,2|2,0:0|0:0,0:0:0:0:
471,182,63153,6,0,B|456:164|392:140|344:184|336:216|336:216|328:240|336:268|336:268|208:192|208:324|76:248,1,487.50001859665,2|0,0:3|0:0,0:0:0:0:
78,249,64820,1,0,0:0:0:0:
76,64,65098,1,0,0:0:0:0:
76,64,65375,6,0,B|104:36|160:20|160:20|216:36|248:64|248:64|276:36|328:20|328:20|384:36|420:68,1,390.00001487732,4|0,0:0|0:0,0:0:0:0:
418,66,66764,1,0,0:0:0:0:
340,216,67042,2,0,L|328:108,1,97.50000371933,0|0,0:0|0:0,0:0:0:0:
428,280,67598,6,0,B|352:352|252:284|252:284|156:216|60:300,1,390.00001487732,4|0,0:0|0:0,0:0:0:0:
428,280,69264,2,0,L|416:172,1,97.50000371933,2|2,0:0|0:0,0:0:0:0:
396,0,69820,6,0,B|372:48|396:96|396:96|312:56|248:96|248:96|276:108|308:96,1,292.50001115799,4|2,0:3|0:0,0:0:0:0:
140,36,70931,2,0,P|120:112|152:180,1,146.250005578995,2|2,0:0|0:0,0:0:0:0:
144,172,71486,2,0,P|208:172|280:212,1,146.250005578995,2|2,0:0|0:0,0:0:0:0:
224,280,72042,6,0,B|149:229|85:301|85:301|77:305|85:309|85:309|129:353|189:361|237:337|281:297|281:297|313:333|381:353|445:333|460:303,1,585.00002231598,2|2,0:3|0:0,0:0:0:0:
352,52,73986,1,2,0:0:0:0:
352,52,74264,6,0,B|328:76|280:88|232:76|200:36|200:36|240:128|192:188|192:188|144:120|144:120|88:200|148:280,1,585.00002231598,2|2,0:3|0:0,0:0:0:0:
347,196,76209,1,2,0:0:0:0:
347,196,76486,6,0,P|318:226|412:192,1,390.00001487732,2|0,0:3|0:0,0:0:0:0:
380,36,77875,1,0,0:0:0:0:
300,84,78153,1,4,0:0:0:0:
384,132,78431,1,0,0:0:0:0:
224,28,78709,6,0,P|164:4|104:28,1,130,4|0,0:3|0:0,0:0:0:0:
163,198,79125,2,0,P|187:138|163:78,1,130,2|2,0:0|0:0,0:0:0:0:
32,140,79542,2,0,P|64:132|100:140,1,65,2|0,0:0|0:0,0:0:0:0:
188,257,79820,2,0,L|159:190,1,65,8|8,0:0|0:0,0:0:0:0:
272,80,80098,2,0,L|246:139,1,65,8|8,0:0|0:0,0:0:0:0:
352,252,80375,2,0,L|323:185,1,65,8|8,0:0|0:0,0:0:0:0:
436,80,80653,2,0,L|410:139,1,65,8|8,0:0|0:0,0:0:0:0:
312,356,80931,22,0,P|356:292|468:300,1,195,6|2,0:0|0:0,0:0:0:0:
288,252,81486,2,0,P|316:228|352:216,1,65,2|2,0:0|0:0,0:0:0:0:
444,108,81764,2,0,P|416:132|380:144,1,65,2|0,0:0|0:0,0:0:0:0:
272,92,82042,2,0,P|284:121|306:145,3,65,8|8|8|8,0:0|0:0|0:0|0:0,0:0:0:0:
424,216,82598,2,0,P|445:240|458:269,3,65,8|8|8|8,0:0|0:0|0:0|0:0,0:0:0:0:
316,356,83153,6,0,B|380:376|460:348|460:348|412:352|380:296,1,233.999992858887,6|2,0:0|0:0,0:0:0:0:
236,356,83709,2,0,P|246:314|274:285,1,77.999997619629,2|0,0:0|0:0,0:0:0:0:
336,100,83986,2,0,P|359:169|312:233,1,155.999995239258,2|8,0:0|0:0,0:0:0:0:
228,216,84403,1,8,0:0:0:0:
272,60,84542,2,0,P|296:36|344:24,1,77.999997619629,8|8,0:0|0:0,0:0:0:0:
168,68,84820,2,0,P|144:44|132:-4,1,77.999997619629,8|8,0:0|0:0,0:0:0:0:
172,164,85098,2,0,P|148:188|100:200,1,77.999997619629,8|8,0:0|0:0,0:0:0:0:
8,348,85375,6,0,P|56:300|144:320,1,155.999995239258,6|0,0:0|0:0,0:0:0:0:
266,279,85792,2,0,P|218:327|130:307,1,155.999995239258,2|0,0:0|0:0,0:0:0:0:
228,192,86209,2,0,L|316:192,1,77.999997619629,2|0,0:0|0:0,0:0:0:0:
176,40,86486,2,0,P|160:88|176:132,1,77.999997619629,8|8,0:0|0:0,0:0:0:0:
76,248,86764,2,0,P|92:200|76:156,1,77.999997619629,8|8,0:0|0:0,0:0:0:0:
0,60,87042,2,0,P|48:76|92:60,1,77.999997619629,8|8,0:0|0:0,0:0:0:0:
260,224,87320,2,0,P|212:208|168:224,1,77.999997619629,8|8,0:0|0:0,0:0:0:0:
432,104,87598,6,0,B|420:160|420:160|444:204|444:204|432:256,1,155.999995239258,6|0,0:0|0:0,0:0:0:0:
336,112,88014,2,0,B|324:168|324:168|348:212|348:212|336:264,1,155.999995239258,2|0,0:0|0:0,0:0:0:0:
244,116,88431,2,0,L|224:204,1,77.999997619629,2|0,0:0|0:0,0:0:0:0:
56,308,88709,2,0,P|128:272|192:304,1,155.999995239258,8|8,0:0|0:0,0:0:0:0:
124,356,89125,1,8,0:0:0:0:
32,216,89264,2,0,L|24:120,1,77.999997619629,8|8,0:0|0:0,0:0:0:0:
108,12,89542,2,0,L|101:89,1,77.999997619629,8|8,0:0|0:0,0:0:0:0:
228,228,89820,6,0,B|180:176|180:176|194:10,1,233.999992858887,6|2,0:0|0:0,0:0:0:0:
402,17,90375,2,0,B|416:180|416:180|368:232,1,233.999992858887,2|2,0:0|0:0,0:0:0:0:
248,348,90931,2,0,P|156:364|100:320,1,155.999995239258,2|10,0:0|0:0,0:0:0:0:
64,256,91348,1,8,0:0:0:0:
192,168,91486,2,0,L|184:272,1,77.999997619629,8|8,0:0|0:0,0:0:0:0:
80,116,91764,2,0,L|85:38,1,77.999997619629,8|8,0:0|0:0,0:0:0:0:
280,132,92042,6,0,B|484:112,1,195,4|2,0:3|0:0,0:0:0:0:
480,184,92598,2,0,B|360:196,1,65,0|2,0:3|0:0,0:0:0:0:
340,204,92875,1,8,0:0:0:0:
96,224,93153,1,8,0:0:0:0:
184,80,93431,1,8,0:0:0:0:
168,288,93709,1,10,0:0:0:0:
236,160,93987,1,10,0:0:0:0:
256,208,94125,1,0,0:0:0:0:
280,252,94264,6,0,B|484:272,1,195,4|2,0:3|0:0,0:0:0:0:
480,200,94820,2,0,B|360:188,1,65,0|2,0:3|0:0,0:0:0:0:
344,188,95098,1,8,0:0:0:0:
156,52,95375,1,8,0:0:0:0:
188,248,95653,1,8,0:0:0:0:
324,80,95931,1,8,0:0:0:0:
78,204,96209,1,8,0:0:0:0:
94,273,96348,1,0,0:0:0:0:
110,342,96486,1,4,0:0:0:0:
256,192,96625,12,0,98709,0:0:0:0:
