osu file format v14

[General]
AudioFilename: audio.mp3
AudioLeadIn: 0
PreviewTime: 35653
Countdown: 0
SampleSet: Soft
StackLeniency: 0.4
Mode: 0
LetterboxInBreaks: 0
WidescreenStoryboard: 1

[Editor]
Bookmarks: 60931,78709,83153
DistanceSpacing: 1.5
BeatDivisor: 4
GridSize: 4
TimelineZoom: 2.1

[Metadata]
Title:The Charmer And The Rebel
TitleUnicode:The Charmer And The Rebel
Artist:League of Legends
ArtistUnicode:League of Legends
Creator:Pachiru
Version:Challenging
Source:League of Legends
Tags:Ed the Conqueror rakan xayah theme riot game login screen ayyri realazy eiri-
BeatmapID:1444141
BeatmapSetID:681703

[Difficulty]
HPDrainRate:5.5
CircleSize:4
OverallDifficulty:7
ApproachRate:8
SliderMultiplier:2.2
SliderTickRate:1

[Events]
//Background and Video events
0,0,"X_R_WALLPAPER_LOGO_SPLASH_1920X1080.jpg",0,0
//Break Periods
2,58909,60181
//Storyboard Layer 0 (Background)
//Storyboard Layer 1 (Fail)
//Storyboard Layer 2 (Pass)
//Storyboard Layer 3 (Foreground)
//Storyboard Sound Samples

[TimingPoints]
98,555.555555555556,4,2,1,40,1,0
8986,-133.333333333333,4,2,1,40,0,0
17875,-100,4,2,1,40,0,0
26764,-100,4,2,1,40,0,0
35653,-100,4,2,1,40,0,1
47598,555.555555555556,4,2,1,40,1,1
56486,-133.333333333333,4,2,1,40,0,0
62459,-133.333333333333,4,2,1,15,0,0
62598,-133.333333333333,4,2,1,40,0,0
63014,-133.333333333333,4,2,1,15,0,0
63153,-133.333333333333,4,2,1,40,0,0
68709,-133.333333333333,4,2,1,5,0,0
69264,-133.333333333333,4,2,1,40,0,0
71348,-133.333333333333,4,2,1,15,0,0
71486,-133.333333333333,4,2,1,40,0,0
71903,-133.333333333333,4,2,1,15,0,0
72042,-133.333333333333,4,2,1,40,0,0
78709,-100,4,2,1,40,0,0
98709,-100,4,2,1,5,0,0

[Colours]
Combo1 : 204,158,19
Combo2 : 242,0,121
Combo3 : 128,0,64
Combo4 : 245,217,131

[HitObjects]
60,192,8986,6,0,B|100:172|144:189|144:189|183:206|220:190,1,165.000006294251,6|2,0:0|0:0,0:0:0:0:
214,50,9820,2,0,P|182:98|226:194,1,165.000006294251,2|8,0:0|0:0,0:0:0:0:
296,116,10653,1,8,0:0:0:0:
376,188,10931,1,8,0:0:0:0:
456,116,11209,6,0,B|484:160|484:160|472:280,1,165.000006294251,6|2,0:0|0:0,0:0:0:0:
316,348,12042,2,0,P|392:380|464:348,1,165.000006294251,2|8,0:0|0:0,0:0:0:0:
380,216,12875,2,0,L|392:308,1,82.5000031471254,8|8,0:0|0:0,0:0:0:0:
241,297,13431,6,0,L|251:215,1,82.5000031471254,2|2,0:0|0:0,0:0:0:0:
213,176,13848,2,0,L|225:80,1,82.5000031471254,2|2,0:0|0:0,0:0:0:0:
261,56,14264,1,2,0:0:0:0:
352,116,14542,2,0,P|371:81|363:24,1,82.5000031471254,10|8,0:0|0:0,0:0:0:0:
492,172,15098,2,0,P|468:132|476:80,1,82.5000031471254,10|8,0:0|0:0,0:0:0:0:
376,248,15653,6,0,B|336:228|296:248|296:248|256:268|212:248,1,165.000006294251,6|2,0:0|0:0,0:0:0:0:
124,120,16486,2,0,B|104:156|104:156|118:278,1,165.000006294251,2|2,0:0|0:0,0:0:0:0:
264,264,17320,1,8,0:0:0:0:
208,372,17598,2,0,L|204:316,1,41.2500015735627,8|8,0:0|0:0,0:0:0:0:
324,212,17875,6,0,P|344:261|326:312,1,110,4|2,0:3|0:0,0:0:0:0:
264,264,18292,2,0,P|244:208|264:160,1,110,2|2,0:0|0:0,0:0:0:0:
320,104,18709,1,2,0:0:0:0:
448,208,18986,2,0,P|468:156|444:100,1,110,10|8,0:0|0:0,0:0:0:0:
324,0,19542,1,10,0:0:0:0:
384,156,19820,1,8,0:0:0:0:
328,312,20098,6,0,P|276:296|220:312,1,110,6|2,0:0|0:0,0:0:0:0:
152,348,20514,2,0,P|99:361|47:345,1,110,2|2,0:0|0:0,0:0:0:0:
104,280,20931,1,2,0:0:0:0:
28,132,21209,2,0,L|32:248,1,110,10|8,0:0|0:0,0:0:0:0:
179,134,21764,2,0,L|176:244,1,110,10|8,0:0|0:0,0:0:0:0:
108,92,22320,6,0,P|152:56|220:64,1,110,6|2,0:0|0:0,0:0:0:0:
272,100,22736,2,0,P|325:98|367:63,1,110,2|2,0:0|0:0,0:0:0:0:
296,20,23153,1,2,0:0:0:0:
252,180,23431,2,0,L|256:296,1,110,10|8,0:0|0:0,0:0:0:0:
380,180,23986,1,10,0:0:0:0:
248,80,24264,1,8,0:0:0:0:
120,188,24542,6,0,B|76:264|124:352|124:352|184:320|188:252,1,275,4|2,0:0|0:0,0:0:0:0:
204,192,25375,1,2,0:0:0:0:
144,40,25653,2,0,L|148:108,1,55,2|0,0:0|0:0,0:0:0:0:
220,32,25931,2,0,L|224:100,1,55,2|0,0:0|0:0,0:0:0:0:
300,84,26209,2,0,L|296:29,1,55,2|0,0:0|0:0,0:0:0:0:
376,92,26486,2,0,L|372:37,1,55,2|0,0:0|0:0,0:0:0:0:
496,88,26764,6,0,P|460:140|468:244,1,165,4|2,0:3|0:0,0:0:0:0:
406,297,27320,2,0,L|338:301,1,55,2|2,0:0|0:0,0:0:0:0:
292,241,27598,2,0,P|240:220|184:240,1,110,2|8,0:0|0:0,0:0:0:0:
236,304,28014,1,8,0:0:0:0:
160,368,28153,2,0,L|156:313,1,55,8|8,0:0|0:0,0:0:0:0:
76,288,28431,2,0,L|79:342,1,55,8|8,0:0|0:0,0:0:0:0:
120,216,28709,2,0,L|52:192,1,55,8|8,0:0|0:0,0:0:0:0:
80,116,28986,6,0,L|240:172,1,165,6|2,0:0|0:0,0:0:0:0:
308,132,29542,1,2,0:0:0:0:
308,132,29681,1,2,0:0:0:0:
379,171,29820,2,0,P|394:224|378:275,1,110,2|8,0:0|0:0,0:0:0:0:
312,224,30236,1,8,0:0:0:0:
248,276,30375,2,0,L|248:332,1,55,8|8,0:0|0:0,0:0:0:0:
164,275,30653,2,0,L|164:331,2,55,8|8|8,0:0|0:0|0:0,0:0:0:0:
105,216,31070,1,8,0:0:0:0:
144,144,31209,6,0,P|129:91|95:166,1,165,6|2,0:0|0:0,0:0:0:0:
105,216,31764,2,0,P|136:228|168:224,1,55,2|2,0:0|0:0,0:0:0:0:
224,180,32042,2,0,P|232:104|216:64,1,110,2|8,0:0|0:0,0:0:0:0:
280,14,32459,1,8,0:0:0:0:
280,14,32598,1,8,0:0:0:0:
337,71,32736,1,8,0:0:0:0:
337,71,32875,2,0,L|404:72,1,55,8|8,0:0|0:0,0:0:0:0:
450,130,33153,2,0,L|450:186,1,55,8|8,0:0|0:0,0:0:0:0:
384,236,33431,6,0,P|416:272|388:380,1,165,6|2,0:0|0:0,0:0:0:0:
284,308,33986,2,0,L|352:308,1,55,2|2,0:0|0:0,0:0:0:0:
284,224,34264,2,0,L|172:224,1,110,2|8,0:0|0:0,0:0:0:0:
116,284,34681,2,0,L|36:284,2,55,8|8|8,0:0|0:0|0:0,0:0:0:0:
264,284,35098,5,10,0:0:0:0:
232,360,35236,1,10,0:0:0:0:
152,360,35375,1,10,0:0:0:0:
116,284,35514,1,10,0:0:0:0:
188,224,35653,6,0,P|172:172|188:120,1,110,4|2,0:3|0:0,0:0:0:0:
250,61,36070,2,0,L|372:56,1,110,2|2,0:0|0:0,0:0:0:0:
424,112,36486,1,2,0:0:0:0:
284,204,36764,2,0,L|272:144,1,55,8|8,0:0|0:0,0:0:0:0:
360,244,37042,2,0,L|370:190,1,55,8|8,0:0|0:0,0:0:0:0:
280,336,37320,2,0,L|268:276,1,55,8|8,0:0|0:0,0:0:0:0:
356,376,37598,2,0,L|366:322,1,55,8|8,0:0|0:0,0:0:0:0:
212,376,37875,6,0,P|176:340|108:344,1,110,6|2,0:0|0:0,0:0:0:0:
119,255,38292,2,0,P|172:254|211:217,1,110,2|2,0:0|0:0,0:0:0:0:
140,180,38709,1,2,0:0:0:0:
256,60,38986,2,0,L|192:52,1,55,8|8,0:0|0:0,0:0:0:0:
316,132,39264,2,0,L|261:138,1,55,8|8,0:0|0:0,0:0:0:0:
384,64,39542,2,0,L|320:56,1,55,8|8,0:0|0:0,0:0:0:0:
448,132,39820,2,0,L|393:138,1,55,8|8,0:0|0:0,0:0:0:0:
300,272,40098,6,0,P|344:216|384:216,1,110,6|2,0:0|0:0,0:0:0:0:
428,280,40514,2,0,P|384:336|344:336,1,110,2|2,0:0|0:0,0:0:0:0:
300,272,40931,1,2,0:0:0:0:
152,344,41209,1,8,0:0:0:0:
152,344,41348,2,0,P|128:352|96:344,2,55,8|8|8,0:0|0:0|0:0,0:0:0:0:
156,244,41764,1,8,0:0:0:0:
156,244,41903,2,0,P|132:236|100:244,2,55,8|8|8,0:0|0:0|0:0,0:0:0:0:
40,296,42320,6,0,P|20:240|44:184,1,110,6|2,0:0|0:0,0:0:0:0:
80,124,42736,2,0,P|99:73|84:22,1,110,2|2,0:0|0:0,0:0:0:0:
20,72,43153,1,2,0:0:0:0:
144,180,43431,2,0,L|200:180,1,55,8|8,0:0|0:0,0:0:0:0:
256,68,43709,2,0,L|256:124,1,55,8|8,0:0|0:0,0:0:0:0:
160,192,43986,2,0,L|216:192,1,55,8|8,0:0|0:0,0:0:0:0:
272,80,44264,2,0,L|272:136,1,55,8|8,0:0|0:0,0:0:0:0:
272,256,44542,6,0,P|328:300|408:248,1,165,6|2,0:0|0:0,0:0:0:0:
407,129,45098,2,0,P|363:185|415:265,1,165,2|2,0:0|0:0,0:0:0:0:
508,196,45653,2,0,L|444:196,3,55,10|10|10|10,0:0|0:0|0:0|0:0,0:0:0:0:
407,129,46209,6,0,L|283:129,1,110,2|2,0:0|0:0,0:0:0:0:
244,192,46625,2,0,L|128:192,1,110,2|2,0:0|0:0,0:0:0:0:
75,133,47042,1,10,0:0:0:0:
75,133,47181,2,0,L|75:77,2,55,8|8|8,0:0|0:0|0:0,0:0:0:0:
20,224,47598,6,0,P|36:268|20:328,1,110,4|2,0:3|0:0,0:0:0:0:
78,384,48014,2,0,P|122:368|182:384,1,110,2|2,0:0|0:0,0:0:0:0:
240,324,48431,1,2,0:0:0:0:
180,172,48709,2,0,L|180:112,2,55,8|8|8,0:0|0:0|0:0,0:0:0:0:
238,230,49125,1,8,0:0:0:0:
308,184,49264,2,0,L|376:184,1,55,8|8,0:0|0:0,0:0:0:0:
364,268,49542,2,0,L|296:268,1,55,8|8,0:0|0:0,0:0:0:0:
308,100,49820,6,0,L|432:100,1,110,6|2,0:0|0:0,0:0:0:0:
418,17,50236,2,0,L|294:17,1,110,2|2,0:0|0:0,0:0:0:0:
236,60,50653,1,2,0:0:0:0:
76,24,50931,2,0,L|80:80,1,55,8|8,0:0|0:0,0:0:0:0:
160,116,51209,2,0,L|156:61,1,55,8|8,0:0|0:0,0:0:0:0:
84,156,51486,2,0,L|88:212,1,55,8|8,0:0|0:0,0:0:0:0:
168,248,51764,2,0,L|164:193,1,55,8|8,0:0|0:0,0:0:0:0:
100,296,52042,6,0,P|152:328|216:316,1,110,6|2,0:0|0:0,0:0:0:0:
268,280,52459,2,0,P|322:278|366:308,1,110,2|2,0:0|0:0,0:0:0:0:
300,356,52875,1,2,0:0:0:0:
372,208,53153,2,0,L|436:208,1,55,8|8,0:0|0:0,0:0:0:0:
427,124,53431,2,0,L|367:124,1,55,8|8,0:0|0:0,0:0:0:0:
300,164,53709,2,0,L|240:164,3,55,8|8|8|8,0:0|0:0|0:0|0:0,0:0:0:0:
152,96,54264,6,0,P|84:144|4:148,1,165,4|0,0:3|0:0,0:0:0:0:
4,231,54820,2,0,P|85:235|151:283,1,165,4|2,0:3|0:0,0:0:0:0:
209,224,55375,1,2,0:0:0:0:
312,324,55653,2,0,L|368:324,1,55,8|8,0:0|0:0,0:0:0:0:
312,244,55931,2,0,L|368:244,1,55,8|8,0:0|0:0,0:0:0:0:
424,132,56209,2,0,L|424:204,1,55,8|8,0:0|0:0,0:0:0:0:
332,156,56486,5,10,0:0:0:0:
256,192,56625,12,2,58709,0:3:0:0:
213,337,60931,6,0,P|161:347|213:253,1,247.500009441376,4|2,0:3|0:0,0:0:0:0:
316,228,62042,2,0,L|308:364,1,123.750004720688,2|2,0:0|0:0,0:0:0:0:
384,360,62598,2,0,L|391:236,1,123.750004720688,2|2,0:0|0:0,0:0:0:0:
468,216,63153,6,0,B|440:152|392:156|360:156|332:188|332:188|348:104|296:64|232:60|180:80|152:128|160:188|200:224,1,495.000018882752,2|0,0:3|0:0,0:0:0:0:
256,288,65098,1,0,0:0:0:0:
176,360,65375,6,0,B|100:316|20:360|20:360|72:280|20:204,1,330.000012588501,4|0,0:0|0:0,0:0:0:0:
120,92,66764,2,0,L|116:188,1,82.5000031471254
20,128,67320,1,0,0:0:0:0:
52,24,67598,6,0,B|128:-20|208:36|208:36|280:84|360:28,1,330.000012588501,4|0,0:0|0:0,0:0:0:0:
276,224,69264,2,0,L|284:140,1,82.5000031471254,2|2,0:0|0:0,0:0:0:0:
196,204,69820,6,0,P|212:276|356:248,1,247.500009441376,4|2,0:3|0:0,0:0:0:0:
469,260,70931,2,0,P|409:276|353:256,1,123.750004720688,2|2,0:0|0:0,0:0:0:0:
351,175,71486,2,0,P|410:159|468:180,1,123.750004720688,2|2,0:0|0:0,0:0:0:0:
469,260,72042,6,0,B|440:304|468:360|468:360|420:336|360:360|360:360|304:336|248:360|248:360|196:336|144:360|144:360|112:340|80:352,1,495.000018882752,2|2,0:3|0:0,0:0:0:0:
24,264,73986,1,2,0:0:0:0:
116,208,74264,2,0,B|176:184|248:208|248:208|332:240|400:208|400:208|396:168|412:104|412:104|340:132|300:112,1,495.000018882752,2|2,0:3|0:0,0:0:0:0:
256,28,76209,1,2,0:0:0:0:
168,88,76486,6,0,B|80:128|4:88|4:88|28:148|28:148|0:200|0:200|48:212|76:276|52:352|4:364,1,495.000018882752,2|4,0:3|0:0,0:0:0:0:
260,224,78709,6,0,L|424:216,1,165,4|2,0:3|0:0,0:0:0:0:
424,298,79264,2,0,L|356:302,1,55,2|2,0:0|0:0,0:0:0:0:
310,360,79542,2,0,L|182:364,1,110,2|8,0:0|0:0,0:0:0:0:
141,304,79959,1,8,0:0:0:0:
72,348,80098,2,0,L|2:349,1,55,8|8,0:0|0:0,0:0:0:0:
17,266,80375,2,0,L|71:265,1,55,8|8,0:0|0:0,0:0:0:0:
130,206,80653,2,0,L|130:151,1,55,8|8,0:0|0:0,0:0:0:0:
189,92,80931,6,0,P|232:136|340:132,1,165,6|2,0:0|0:0,0:0:0:0:
388,80,81486,2,0,L|384:24,1,55,2|2,0:0|0:0,0:0:0:0:
468,20,81764,2,0,L|476:152,1,110,2|8,0:0|0:0,0:0:0:0:
415,188,82181,1,8,0:0:0:0:
473,246,82320,2,0,L|476:308,1,55,8|8,0:0|0:0,0:0:0:0:
416,359,82598,1,8,0:0:0:0:
416,359,82736,1,8,0:0:0:0:
344,320,82875,1,8,0:0:0:0:
344,320,83014,1,8,0:0:0:0:
252,372,83153,6,0,L|88:364,1,165,6|2,0:0|0:0,0:0:0:0:
28,305,83709,2,0,L|36:196,1,110,2|2,0:0|0:0,0:0:0:0:
180,116,84264,2,0,L|176:184,1,55,8|8,0:0|0:0,0:0:0:0:
260,176,84542,2,0,L|264:122,1,55,8|8,0:0|0:0,0:0:0:0:
322,62,84820,2,0,L|376:66,3,55,8|8|8|8,0:0|0:0|0:0|0:0,0:0:0:0:
424,164,85375,6,0,B|456:144|468:116|468:116|460:228,1,165,6|2,0:0|0:0,0:0:0:0:
460,296,85931,2,0,P|408:312|352:292,1,110,2|2,0:0|0:0,0:0:0:0:
200,340,86486,2,0,L|256:340,1,55,8|8,0:0|0:0,0:0:0:0:
255,256,86764,2,0,L|199:256,1,55,8|8,0:0|0:0,0:0:0:0:
128,296,87042,1,8,0:0:0:0:
128,296,87181,1,8,0:0:0:0:
52,260,87320,2,0,L|52:204,1,55,8|8,0:0|0:0,0:0:0:0:
52,40,87598,6,0,L|52:208,1,165,6|2,0:0|0:0,0:0:0:0:
136,204,88153,2,0,L|136:88,1,110,2|2,0:0|0:0,0:0:0:0:
280,176,88709,1,8,0:0:0:0:
280,176,88848,2,0,L|280:116,2,55,8|8|8,0:0|0:0|0:0,0:0:0:0:
338,234,89264,1,8,0:0:0:0:
338,234,89403,2,0,L|338:289,2,55,8|8|8,0:0|0:0|0:0,0:0:0:0:
432,124,89820,6,0,P|492:136|432:152,1,165,6|2,0:0|0:0,0:0:0:0:
314,151,90375,2,0,B|358:171|378:207|378:207|394:171|434:155,1,165,2|2,0:0|0:0,0:0:0:0:
314,251,90931,2,0,P|294:198|314:150,1,110,2|10,0:0|0:0,0:0:0:0:
376,96,91348,1,8,0:0:0:0:
292,12,91486,2,0,L|360:16,1,55,8|8,0:0|0:0,0:0:0:0:
224,88,91764,2,0,L|278:84,1,55,8|8,0:0|0:0,0:0:0:0:
180,24,92042,6,0,P|148:80|200:164,1,165,4|2,0:3|0:0,0:0:0:0:
268,200,92598,2,0,L|336:196,1,55,2|2,0:0|0:0,0:0:0:0:
392,244,92875,2,0,P|444:257|492:233,2,110,10|8|8,0:0|0:0|0:0,0:0:0:0:
256,348,93709,2,0,L|192:348,3,55,10|2|10|2,0:0|0:0|0:0|0:0,0:0:0:0:
142,289,94264,6,0,P|114:221|142:133,2,165,6|2|2,0:0|0:0|0:0,0:0:0:0:
256,172,95375,2,0,L|256:288,1,110,10|8,0:0|0:0,0:0:0:0:
380,172,95931,2,0,L|380:288,1,110,10|8,0:0|0:0,0:0:0:0:
256,56,96486,5,2,0:0:0:0:
256,192,96625,12,0,98709,0:3:0:0:
