osu file format v14

[General]
AudioFilename: audio.mp3
AudioLeadIn: 0
PreviewTime: 107812
Countdown: 0
SampleSet: Normal
StackLeniency: 0.7
Mode: 0
LetterboxInBreaks: 0
WidescreenStoryboard: 0

[Editor]
Bookmarks: 29250,107250
DistanceSpacing: 0.9
BeatDivisor: 4
GridSize: 16
TimelineZoom: 2.2

[Metadata]
Title:The Boy Who Shattered Time (MitiS Remix)
TitleUnicode:The Boy Who Shattered Time (MitiS Remix)
Artist:League of Legends
ArtistUnicode:League of Legends
Creator:[ Shamwow ]
Version:Time Is At My Will
Source:League of Legends
Tags:
BeatmapID:1647998
BeatmapSetID:785050

[Difficulty]
HPDrainRate:6
CircleSize:4
OverallDifficulty:8.4
ApproachRate:9
SliderMultiplier:2.4
SliderTickRate:1

[Events]
//Background and Video events
0,0,"ekko.jpg",0,0
//Break Periods
2,72200,94500
//Storyboard Layer 0 (Background)
//Storyboard Layer 1 (Fail)
//Storyboard Layer 2 (Pass)
//Storyboard Layer 3 (Foreground)
//Storyboard Sound Samples

[TimingPoints]
24000,375,4,1,0,34,1,0
24000,-133.333333333333,4,1,0,34,0,0
44250,-133.333333333333,4,1,0,40,0,0
44625,-133.333333333333,4,1,0,40,0,0
45000,-133.333333333333,4,1,0,50,0,0
46125,-133.333333333333,4,1,0,55,0,0
46687,-133.333333333333,4,1,0,60,0,0
48000,-100,4,1,0,60,0,0
54375,-200,4,1,0,60,0,0
55406,-200,4,1,0,5,0,0
55500,-100,4,1,0,60,0,0
106500,-500,4,1,0,60,0,0
108000,-66.6666666666667,4,1,0,80,0,1
118500,-66.6666666666667,4,1,0,80,0,0
120000,-66.6666666666667,4,1,0,80,0,1
131250,-50,4,1,0,80,0,1
131437,-50,4,1,0,80,0,0
132750,-66.6666666666667,4,1,0,80,0,1
142500,-66.6666666666667,4,1,0,80,0,0
144000,-66.6666666666667,4,1,0,80,0,1
154500,-66.6666666666667,4,1,0,80,0,0

[Colours]
Combo1 : 12,115,228
Combo2 : 0,210,0
Combo3 : 68,107,147
Combo4 : 64,128,128

[HitObjects]
40,50,24000,6,0,P|10:140|52:211,1,180.000006866455
145,171,24562,2,0,P|189:255|280:270,1,180.000006866455
263,163,25125,2,0,B|284:119|284:119|338:88,1,90.0000034332277
402,171,25500,2,0,B|446:155|446:155|506:168,1,90.0000034332277
460,275,25875,2,0,B|503:296|503:296|533:348,1,90.0000034332277
342,340,26250,2,0,B|276:350|276:350|209:319,1,135.000005149841
230,269,26625,2,0,B|176:229|176:229|150:160,1,135.000005149841
253,127,27000,2,0,B|243:60|243:60|274:-6,1,135.000005149841
339,70,27375,6,0,P|395:68|437:134,1,135.000005149841
440,181,27750,1,0,0:0:0:0:
403,259,27938,1,0,0:0:0:0:
439,352,28125,2,0,B|396:341|396:341|344:357,1,90.0000034332277
244,365,28500,1,0,0:0:0:0:
231,358,28687,2,0,B|188:369|188:369|137:351,1,90.0000034332277
77,307,29062,1,0,0:0:0:0:
70,198,29250,6,0,B|35:155|35:155|28:87,1,90.0000034332277
136,93,29625,2,0,B|141:39|141:39|184:-13,1,90.0000034332277
268,83,30000,2,0,B|307:63|307:63|362:70,1,90.0000034332277
423,150,30375,1,0,0:0:0:0:
423,150,30562,2,0,B|414:191|414:191|434:242,1,90.0000034332277
325,259,30937,1,0,0:0:0:0:
325,259,31125,2,0,B|332:300|332:300|313:351,1,90.0000034332277
202,332,31500,6,0,P|182:274|111:260,1,135.000005149841
61,261,31875,1,0,0:0:0:0:
7,188,32062,1,0,0:0:0:0:
44,105,32250,2,0,B|53:62|53:62|93:22,1,90.0000034332277
159,81,32625,2,0,B|196:56|196:56|250:57,1,90.0000034332277
261,162,33000,2,0,B|304:170|304:170|343:210,1,90.0000034332277
261,253,33375,6,0,P|267:304|285:338,1,90.0000034332277
373,319,33750,2,0,P|411:350|449:360,1,90.0000034332277
458,270,34125,2,0,P|489:229|499:191,1,90.0000034332277
445,121,34500,1,0,0:0:0:0:
296,143,34687,1,0,0:0:0:0:
433,170,35062,1,0,0:0:0:0:
285,192,35249,1,0,0:0:0:0:
138,216,35625,1,0,0:0:0:0:
451,118,36000,6,0,B|471:211|471:211|440:289,1,180.000006866455
336,257,36562,2,0,B|284:336|284:336|206:370,1,180.000006866455
207,279,37125,2,0,P|150:264|99:236,1,90.0000034332277
174,124,37500,2,0,P|231:138|282:167,1,90.0000034332277
121,249,37875,2,0,P|64:236|13:207,1,90.0000034332277
63,131,38250,1,0,0:0:0:0:
189,41,38437,1,0,0:0:0:0:
53,112,38625,1,0,0:0:0:0:
197,59,38812,1,0,0:0:0:0:
47,89,39000,2,0,B|52:164|52:164|131:209,1,135.000005149841
148,210,39375,6,0,P|213:164|250:174,1,90.0000034332277
222,246,39750,1,0,0:0:0:0:
296,296,39938,1,0,0:0:0:0:
372,342,40125,2,0,P|391:283|376:220,1,90.0000034332277
404,142,40500,1,0,0:0:0:0:
404,142,40687,2,0,P|345:116|279:116,1,90.0000034332277
211,117,41062,1,0,0:0:0:0:
211,117,41250,6,0,P|166:126|128:147,1,90.0000034332277
169,247,41625,2,0,P|214:238|251:217,1,90.0000034332277
190,66,42000,2,0,P|143:73|102:94,1,90.0000034332277
105,195,42375,1,0,0:0:0:0:
105,195,42562,2,0,P|79:231|65:274,1,90.0000034332277
157,293,42937,1,0,0:0:0:0:
157,293,43125,2,0,P|165:336|246:373,1,135.000005149841
272,313,43500,6,0,B|330:313|330:313|376:288,1,90.0000034332277
415,232,43875,1,0,0:0:0:0:
355,109,44062,1,0,0:0:0:0:
442,295,44250,2,0,P|363:277|297:284,1,135.000005149841
258,294,44625,2,0,P|178:312|114:304,1,135.000005149841
34,250,45000,1,0,0:0:0:0:
28,251,45375,6,0,P|17:203|21:162,1,90.0000034332277
162,157,45750,2,0,P|173:205|168:246,1,90.0000034332277
21,163,46125,2,0,P|19:113|32:74,1,90.0000034332277
173,46,46500,1,0,0:0:0:0:
173,46,46687,2,0,P|272:82|401:36,1,225.000008583069
437,49,47250,2,0,P|424:106|462:191,1,135.000005149841
471,225,47625,2,0,P|485:282|456:364,1,135.000005149841
256,191,48000,6,0,B|174:263|111:87|8:222,1,240
104,319,48562,1,0,0:0:0:0:
104,319,48750,2,0,B|161:360|161:360|218:316|285:361,1,180
345,314,49125,2,0,B|396:269|396:269|382:215,1,120
247,168,49500,2,0,B|196:213|196:213|210:267,1,120
412,335,49875,2,0,B|463:290|463:290|449:236,1,120
247,168,50250,1,0,0:0:0:0:
322,304,50437,1,0,0:0:0:0:
265,160,50625,1,0,0:0:0:0:
303,311,50812,1,0,0:0:0:0:
118,90,51000,2,0,P|177:71|275:142,1,180
310,190,51375,6,0,P|369:208|438:118,1,180
337,18,51750,2,0,P|332:77|362:128,1,120
217,133,52125,2,0,P|204:204|170:237,1,120
41,173,52500,1,0,0:0:0:0:
41,173,52687,2,0,P|53:101|87:68,1,120
182,176,53062,1,0,0:0:0:0:
182,176,53250,5,0,0:0:0:0:
341,113,53437,1,0,0:0:0:0:
161,159,53625,1,0,0:0:0:0:
331,136,53812,1,0,0:0:0:0:
115,136,54000,2,0,P|112:228|208:264,1,180
261,245,54375,6,0,P|214:299|335:265,1,330
396,186,55500,6,0,P|304:178|263:272,1,180
269,339,55875,2,0,P|241:287|185:268,1,120
79,169,56250,1,0,0:0:0:0:
103,324,56437,1,0,0:0:0:0:
51,161,56625,1,0,0:0:0:0:
128,331,56812,1,0,0:0:0:0:
7,69,57000,1,0,0:0:0:0:
272,308,57375,6,0,P|364:316|405:222,1,180
323,241,57750,2,0,P|295:189|239:170,1,120
384,163,58125,2,0,P|436:135|455:79,1,120
330,40,58500,1,0,0:0:0:0:
50,341,60000,6,0,B|-22:259|154:196|19:93,1,240
195,229,60562,1,0,0:0:0:0:
195,229,60750,2,0,B|231:273|215:316|215:316|264:291|298:313,1,180
369,313,61125,2,0,P|306:266|301:213,1,120
427,162,61500,2,0,P|415:84|449:43,1,120
305,114,61875,2,0,P|249:170|196:168,1,120
76,236,62250,1,0,0:0:0:0:
100,81,62437,1,0,0:0:0:0:
46,248,62625,1,0,0:0:0:0:
127,68,62812,1,0,0:0:0:0:
0,289,63000,1,0,0:0:0:0:
0,289,63375,6,0,P|53:213|151:242,1,180
198,296,63750,2,0,P|176:241|197:186,1,120
325,251,64125,2,0,L|443:266,1,120
356,133,64500,1,0,0:0:0:0:
316,278,64687,2,0,L|492:301,1,120
361,118,65062,1,0,0:0:0:0:
245,313,65250,5,0,0:0:0:0:
175,114,65437,1,0,0:0:0:0:
220,314,65625,1,0,0:0:0:0:
205,144,65812,1,0,0:0:0:0:
192,359,66000,2,0,P|150:274|58:281,1,180
34,160,66375,2,0,P|53:103|104:75,1,120
170,202,66750,1,0,0:0:0:0:
170,202,67125,2,0,P|182:260|51:325,1,180
47,221,67500,6,0,P|36:149|45:96,1,120
186,121,67875,1,0,0:0:0:0:
266,34,68062,1,0,0:0:0:0:
399,172,68250,1,0,0:0:0:0:
335,301,68437,1,0,0:0:0:0:
385,152,68625,1,0,0:0:0:0:
350,320,68812,1,0,0:0:0:0:
352,33,69000,6,0,P|353:187|410:310,1,240
476,334,69562,2,0,P|363:288|206:283,1,240
160,33,70125,2,0,P|165:152|129:266,1,240
36,333,70688,2,0,P|146:288|265:278,1,240
467,212,71250,1,0,0:0:0:0:
397,338,71437,1,0,0:0:0:0:
439,175,71625,1,0,0:0:0:0:
424,374,71812,1,0,0:0:0:0:
396,89,72000,1,0,0:0:0:0:
256,252,96000,5,0,0:0:0:0:
196,192,96375,1,0,0:0:0:0:
256,133,96750,1,0,0:0:0:0:
315,192,97125,1,0,0:0:0:0:
256,258,97500,5,0,0:0:0:0:
190,192,97875,1,0,0:0:0:0:
256,127,98250,1,0,0:0:0:0:
320,192,98625,1,0,0:0:0:0:
256,271,99000,5,0,0:0:0:0:
176,191,99375,1,0,0:0:0:0:
256,114,99750,1,0,0:0:0:0:
333,191,100125,1,0,0:0:0:0:
256,294,100500,5,0,0:0:0:0:
153,191,100875,1,0,0:0:0:0:
256,90,101250,1,0,0:0:0:0:
357,191,101625,1,0,0:0:0:0:
256,258,102000,6,0,L|255:185,1,60
255,67,102187,2,0,L|255:139,1,60
188,160,102375,2,0,L|128:160,1,60
324,160,102562,2,0,L|384:160,1,60
254,48,102750,6,0,L|254:134,1,60
256,277,102937,2,0,L|254:189,1,60
174,159,103125,2,0,L|102:159,1,60
337,159,103312,2,0,L|409:159,1,60
257,29,103500,5,0,0:0:0:0:
257,60,103593,1,0,0:0:0:0:
258,90,103687,1,0,0:0:0:0:
256,300,103875,2,0,L|254:195,1,60
158,159,104063,2,0,L|71:159,1,60
354,159,104250,2,0,L|440:159,1,60
253,10,104437,6,0,L|253:125,1,60
256,315,104624,2,0,L|253:198,1,60
146,158,104812,2,0,L|50:158,1,60
364,158,105000,5,0,0:0:0:0:
364,158,105093,1,0,0:0:0:0:
364,158,105187,1,0,0:0:0:0:
420,144,105281,1,0,0:0:0:0:
471,173,105375,1,0,0:0:0:0:
489,229,105468,1,0,0:0:0:0:
473,279,105562,1,0,0:0:0:0:
421,277,105655,1,0,0:0:0:0:
362,269,105749,1,0,0:0:0:0:
303,279,105843,1,0,0:0:0:0:
249,306,105937,1,0,0:0:0:0:
193,328,106031,1,0,0:0:0:0:
122,333,106124,1,0,0:0:0:0:
62,295,106218,1,0,0:0:0:0:
37,229,106312,1,0,0:0:0:0:
46,159,106406,1,0,0:0:0:0:
146,225,106500,6,0,B|145:196|158:172|158:172|195:154|195:154|198:129|211:109,1,144
295,54,107812,1,0,0:0:0:0:
296,270,108000,5,0,0:0:0:0:
200,187,108187,1,0,0:0:0:0:
131,293,108375,1,0,0:0:0:0:
317,265,108562,1,0,0:0:0:0:
68,306,108750,5,0,0:0:0:0:
86,145,108937,1,0,0:0:0:0:
171,320,109125,1,0,0:0:0:0:
198,78,109312,1,0,0:0:0:0:
279,77,109500,5,0,0:0:0:0:
281,158,109687,1,0,0:0:0:0:
370,159,109875,1,0,0:0:0:0:
371,78,110062,1,0,0:0:0:0:
450,82,110250,5,0,0:0:0:0:
403,320,110437,1,0,0:0:0:0:
332,138,110625,1,0,0:0:0:0:
301,297,110812,1,0,0:0:0:0:
