osu file format v14

[General]
AudioFilename: audio.mp3
AudioLeadIn: 0
PreviewTime: 53825
Countdown: 0
SampleSet: Soft
StackLeniency: 0.7
Mode: 0
LetterboxInBreaks: 0
WidescreenStoryboard: 0

[Editor]
DistanceSpacing: 1
BeatDivisor: 6
GridSize: 4
TimelineZoom: 2.699999

[Metadata]
Title:Take Over (feat. Jeremy McKinnon (A Day To Remember), MAX, Henry) (Cut Ver.)
TitleUnicode:Take Over (feat. Jeremy McKinnon (A Day To Remember), MAX, Henry) (Cut Ver.)
Artist:League of Legends
ArtistUnicode:League of Legends
Creator:Cacturne
Version:Normal
Source:League of Legends
Tags:english modern pop male vocalist video game worlds 2020 riot games sirmirai mirai lol daycore Ikira Moko xm4ti3
BeatmapID:2651464
BeatmapSetID:1275804

[Difficulty]
HPDrainRate:4
CircleSize:3
OverallDifficulty:4
ApproachRate:5
SliderMultiplier:1.3
SliderTickRate:1

[Events]
//Background and Video events
0,0,"bg.jpg",0,0
//Break Periods
2,42460,44260
//Storyboard Layer 0 (Background)
//Storyboard Layer 1 (Fail)
//Storyboard Layer 2 (Pass)
//Storyboard Layer 3 (Foreground)
//Storyboard Layer 4 (Overlay)
//Storyboard Sound Samples

[TimingPoints]
3860,400,4,2,1,50,1,0
5460,-100,4,2,1,50,0,0
7025,-100,4,2,1,50,0,0
7060,-100,4,2,1,60,0,0
7425,-100,4,2,1,60,0,0
7460,-100,4,2,1,62,0,0
7825,-100,4,2,1,62,0,0
7860,-100,4,2,1,65,0,0
8225,-100,4,2,1,65,0,0
8260,-100,4,2,1,70,0,0
8625,-100,4,2,1,70,0,0
8660,-100,4,2,1,80,0,0
10260,-100,4,2,1,80,0,0
16625,-100,4,2,1,80,0,0
16660,-100,4,2,1,65,0,0
42291,-100,4,2,1,65,0,0
42326,-100,4,2,1,35,0,0
47825,-100,4,2,1,35,0,0
47860,-100,4,2,1,50,0,0
48660,-100,4,2,1,65,0,0
49460,-100,4,2,1,70,0,0
50260,-100,4,2,1,75,0,0
51060,-100,4,2,1,80,0,0
51860,-100,4,2,1,85,0,0
53025,-100,4,2,1,85,0,0
53060,-100,4,2,1,90,0,0
53193,-100,4,2,1,55,0,0
54126,-100,4,2,1,65,0,0
54625,-100,4,2,1,65,0,0
54660,-100,4,2,1,65,0,0
55025,-100,4,2,1,65,0,0
55060,-100,4,2,1,100,0,1
77460,-100,4,2,1,100,0,0
79025,-100,4,2,1,100,0,0
79060,-100,4,2,1,80,0,0
80225,-100,4,2,1,80,0,0
80260,-100,4,2,1,50,0,0

[Colours]
Combo1 : 170,118,83
Combo2 : 185,158,77
Combo3 : 175,73,75
Combo4 : 78,142,156

[HitObjects]
433,31,3860,6,0,P|361:19|305:51,1,130,10|0,0:0|0:0,0:0:0:0:
213,127,4660,2,0,L|224:268,1,130
93,270,5460,2,0,L|82:140,1,130,2|0,0:0|0:0,0:0:0:0:
157,34,6259,2,0,P|217:13|275:37,1,130
317,160,7059,1,10,1:2:0:0:
251,275,7459,1,0,3:2:0:0:
207,148,7859,5,0,3:2:0:0:
275,37,8259,1,0,3:2:0:0:
387,102,8660,2,0,P|399:117|406:143,2,43.3333333333333,4|0|0,3:0|3:0|3:0,0:0:0:0:
411,65,9060,1,4,3:0:0:0:
22,99,10260,6,0,B|78:103|78:103|142:27|142:27|203:30,1,216.666666666667,4|0,3:0|3:0,0:0:0:0:
246,23,11060,1,8,0:0:0:0:
344,107,11460,2,0,B|280:98|280:98|216:174|216:174|163:171,1,216.666666666667,2|0,3:2|0:0,0:0:0:0:
124,191,12260,1,0,3:0:0:0:
179,310,12660,1,8,0:0:0:0:
179,310,13460,6,0,B|229:292|229:292|304:354|304:354|374:330,1,216.666666666667,4|0,3:0|3:0,0:0:0:0:
410,333,14260,1,8,0:0:0:0:
439,208,14660,1,2,3:2:0:0:
439,208,15460,2,0,L|445:70,1,130,0|8,3:0|0:0,0:0:0:0:
438,338,16660,5,2,3:2:0:0:
349,242,17060,2,0,P|297:230|223:260,1,130,0|8,0:0|0:1,0:0:0:0:
132,345,17860,1,0,0:0:0:0:
41,251,18260,2,0,L|23:109,1,130
107,22,19060,1,8,0:1:0:0:
228,67,19460,2,0,L|317:73,1,86.6666666666667
348,99,19860,6,0,P|363:158|316:198,1,130,0|0,3:0|0:0,0:0:0:0:
190,233,20660,2,0,P|174:292|221:332,1,130,8|0,0:1|0:0,0:0:0:0:
350,353,21460,1,0,0:0:0:0:
462,287,21860,1,0,3:0:0:0:
450,157,22260,1,8,0:1:0:0:
450,157,23060,6,0,B|406:152|380:183|390:174|385:181|383:175|369:200|321:202,1,130,2|0,3:2|0:0,0:0:0:0:
233,114,23860,1,8,0:1:0:0:
311,10,24260,1,0,0:0:0:0:
408,96,24660,2,0,P|456:152|448:216,1,130
348,280,25460,1,8,0:1:0:0:
268,245,25726,1,0,3:0:0:0:
186,274,25993,1,0,0:0:0:0:
102,249,26260,6,0,B|52:240|4:200|0:88|72:48|132:64,1,260,0|10,3:0|0:1,0:0:0:0:
20,364,29460,5,2,3:2:0:0:
76,248,29860,2,0,P|124:236|172:220,1,86.6666666666667
180,264,30260,2,0,P|224:270|276:284,1,86.6666666666667,8|0,0:1|0:0,0:0:0:0:
300,304,30660,1,0,3:0:0:0:
416,364,31060,2,0,P|452:300|428:240,1,130
334,169,31860,1,8,0:1:0:0:
204,172,32260,1,0,0:0:0:0:
100,252,32660,6,0,B|156:240|156:240|232:356|232:356|296:336,1,260,0|8,3:0|0:1,0:0:0:0:
360,228,33860,2,0,P|361:185|384:148,1,86.6666666666667,0|0,3:0|0:0,0:0:0:0:
417,121,34260,1,0,0:0:0:0:
344,12,34660,1,0,3:0:0:0:
284,128,35060,2,0,P|232:144|164:112,1,130,8|2,0:1|0:0,0:0:0:0:
122,236,35860,6,0,P|74:206|42:111,1,130,0|0,3:0|0:0,0:0:0:0:
39,11,36660,1,8,0:1:0:0:
168,28,37060,2,0,P|220:24|280:28,1,86.6666666666667,0|0,3:0|0:0,0:0:0:0:
290,50,37460,2,0,P|353:80|439:91,1,130
496,189,38260,1,8,0:1:0:0:
427,299,38660,1,2,0:0:0:0:
304,256,39060,5,0,3:0:0:0:
177,225,39460,2,0,L|185:333,1,86.6666666666667,0|0,0:0|3:0,0:0:0:0:
162,349,39860,2,0,B|90:357|106:309|30:317,1,130,8|0,0:1|3:0,0:0:0:0:
10,189,40660,1,0,0:0:0:0:
117,115,41060,1,0,3:0:0:0:
241,151,41460,2,0,B|313:159|297:111|373:119,1,130,8|0,0:1|0:0,0:0:0:0:
483,168,42260,5,4,3:0:0:0:
195,27,45460,6,0,B|119:1|52:86|112:102|63:169|-10:154,2,260,2|8|2,3:2|0:0|3:2,0:0:0:0:
400,188,47860,1,8,3:2:0:0:
372,220,47993,2,0,P|352:268|352:312,1,86.6666666666667
225,337,48660,6,0,L|221:205,1,130,0|0,3:2|3:2,0:0:0:0:
99,161,49460,2,0,L|91:31,1,130,8|0,3:2|3:2,0:0:0:0:
220,14,50260,1,0,3:2:0:0:
342,56,50660,1,0,3:2:0:0:
349,185,51060,1,8,3:2:0:0:
241,258,51460,1,0,3:2:0:0:
256,192,51860,12,0,53460,0:0:0:0:
464,56,54126,5,0,3:0:0:0:
448,96,54260,1,8,0:0:0:0:
320,104,54660,2,0,P|336:136|356:192,1,86.6666666666667,4|0,3:0|0:0,0:0:0:0:
324,216,55060,6,0,P|268:196|204:228,1,130,4|0,3:0|0:0,0:0:0:0:
136,336,55860,1,8,0:0:0:0:
36,252,56260,2,0,L|36:100,1,130,0|0,3:0|0:0,0:0:0:0:
140,200,57060,2,0,P|180:208|232:192,1,86.6666666666667,0|0,3:0|0:0,0:0:0:0:
264,212,57460,1,8,0:0:0:0:
384,164,57860,1,0,0:0:0:0:
328,44,58260,6,0,P|276:28|192:40,1,130,4|0,3:0|0:0,0:0:0:0:
132,88,58926,1,0,3:0:0:0:
116,128,59060,2,0,P|124:168|132:228,1,86.6666666666667,8|0,0:0|0:0,0:0:0:0:
168,236,59460,2,0,P|159:278|153:321,1,86.6666666666667,0|0,3:0|0:0,0:0:0:0:
180,356,59860,1,0,0:0:0:0:
308,340,60260,2,0,B|328:330|344:312|344:312|440:336,2,130,0|8|0,3:0|0:0|3:0,0:0:0:0:
300,208,61460,6,0,P|312:156|324:124,1,86.6666666666667,4|0,3:0|0:0,0:0:0:0:
360,100,61860,2,0,L|404:92,2,43.3333333333333
332,64,62260,1,8,0:0:0:0:
204,40,62660,2,0,B|160:28|160:28|100:36,1,86.6666666666667,0|0,3:0|0:0,0:0:0:0:
88,64,63060,2,0,P|64:104|76:156,1,86.6666666666667
104,168,63460,1,0,3:0:0:0:
27,273,63860,1,8,0:0:0:0:
124,360,64260,1,2,0:0:0:0:
250,328,64660,6,0,L|379:335,1,130,4|0,3:0|0:0,0:0:0:0:
416,256,65326,2,0,L|284:248,1,130,0|0,3:0|0:0,0:0:0:0:
252,220,65860,2,0,B|226:193|228:162|228:162|124:137|124:137|112:119|112:119|47:103,1,260,0|0,3:0|3:0,0:0:0:0:
130,3,67060,1,8,0:0:0:0:
209,37,67326,2,0,P|257:37|309:33,1,86.6666666666667,0|0,3:0|0:0,0:0:0:0:
382,42,67860,6,0,P|372:100|392:182,1,130,4|0,3:0|0:0,0:0:0:0:
461,213,68526,1,0,3:0:0:0:
479,252,68660,1,8,0:0:0:0:
508,380,69060,2,0,P|452:336|384:348,1,130,0|0,3:0|0:0,0:0:0:0:
281,280,69860,2,0,P|239:288|199:273,1,86.6666666666667,0|0,3:0|0:0,0:0:0:0:
155,267,70260,2,0,L|130:305,2,43.3333333333333,8|0|0,0:0|0:0|0:0,0:0:0:0:
140,225,70660,1,0,0:0:0:0:
237,138,71060,6,0,B|284:149|284:149|309:172|309:172|363:187,1,130,4|0,3:0|0:0,0:0:0:0:
439,167,71726,1,0,3:0:0:0:
455,126,71860,2,0,P|447:78|415:46,1,86.6666666666667,8|0,0:0|0:0,0:0:0:0:
379,44,72260,2,0,L|275:52,1,86.6666666666667,0|0,3:0|0:0,0:0:0:0:
249,49,72660,1,0,0:0:0:0:
130,102,73060,2,0,P|95:156|67:217,2,130,0|8|0,3:0|0:0|3:0,0:0:0:0:
256,132,74260,6,0,B|302:144|302:144|327:170|327:170|379:189,1,130,4|0,3:0|0:0,0:0:0:0:
413,185,74793,2,0,L|432:125,2,43.3333333333333,0|0|8,0:0|0:0|0:0,0:0:0:0:
450,263,75326,1,0,0:0:0:0:
451,306,75460,1,0,3:0:0:0:
329,278,75860,1,0,3:0:0:0:
253,320,76126,1,0,3:0:0:0:
173,285,76393,2,0,L|106:274,1,43.3333333333333,0|0,3:0|3:0,0:0:0:0:
99,246,76660,2,0,P|77:187|116:95,1,130,8|0,3:0|3:0,0:0:0:0:
166,80,77326,6,0,L|237:73,1,43.3333333333333,0|0,3:0|3:0,0:0:0:0:
208,88,79060,6,0,P|226:79|246:63,2,43.3333333333333,4|0|0,3:0|3:0|3:0,0:0:0:0:
183,123,79460,2,0,B|183:163|179:177|183:171|175:171|151:203|151:195|159:195|159:251,1,130,4|4,3:0|3:0,0:0:0:0:
174,285,79993,1,0,3:0:0:0:
