osu file format v14

[General]
AudioFilename: audio.mp3
AudioLeadIn: 0
PreviewTime: 53825
Countdown: 0
SampleSet: Soft
StackLeniency: 0.7
Mode: 0
LetterboxInBreaks: 0
WidescreenStoryboard: 0

[Editor]
Bookmarks: 3791,16625,29425,42225,55025
DistanceSpacing: 1
BeatDivisor: 6
GridSize: 8
TimelineZoom: 2.699999

[Metadata]
Title:Take Over (feat. Jeremy McKinnon (A Day To Remember), MAX, Henry) (Cut Ver.)
TitleUnicode:Take Over (feat. Jeremy McKinnon (A Day To Remember), MAX, Henry) (Cut Ver.)
Artist:League of Legends
ArtistUnicode:League of Legends
Creator:Cacturne
Version:Moko's Victory
Source:League of Legends
Tags:english modern pop male vocalist video game worlds 2020 riot games sirmirai mirai lol daycore Ikira Moko xm4ti3
BeatmapID:2666335
BeatmapSetID:1275804

[Difficulty]
HPDrainRate:6
CircleSize:3.8
OverallDifficulty:8.6
ApproachRate:9.6
SliderMultiplier:1.5
SliderTickRate:1

[Events]
//Background and Video events
0,0,"bg.jpg",0,0
//Break Periods
//Storyboard Layer 0 (Background)
//Storyboard Layer 1 (Fail)
//Storyboard Layer 2 (Pass)
//Storyboard Layer 3 (Foreground)
//Storyboard Layer 4 (Overlay)
//Storyboard Sound Samples

[TimingPoints]
3860,400,4,2,1,50,1,0
3860,-100,4,2,1,50,0,0
7025,-100,4,2,1,50,0,0
7060,-100,4,2,1,60,0,0
7425,-100,4,2,1,60,0,0
7460,-76.9230769230769,4,2,1,62,0,0
7825,-76.9230769230769,4,2,1,62,0,0
7860,-62.5,4,2,1,65,0,0
8225,-62.5,4,2,1,65,0,0
8260,-45.4545454545455,4,2,1,70,0,0
8625,-45.4545454545455,4,2,1,70,0,0
8660,-45.4545454545455,4,2,1,80,0,0
9060,-40,4,2,1,80,0,0
9860,-33.3333333333333,4,2,1,80,0,0
9926,-33.3333333333333,4,2,1,5,0,0
10260,-55.5555555555556,4,2,1,80,0,0
12926,-45.4545454545455,4,2,1,80,0,0
13460,-55.5555555555556,4,2,1,80,0,0
16625,-55.5555555555556,4,2,1,80,0,0
16660,-76.9230769230769,4,2,1,65,0,0
17060,-166.666666666667,4,2,1,65,0,0
17460,-83.3333333333333,4,2,1,65,0,0
17860,-76.9230769230769,4,2,1,65,0,0
18260,-166.666666666667,4,2,1,65,0,0
19060,-66.6666666666667,4,2,1,65,0,0
19460,-100,4,2,1,65,0,0
19860,-166.666666666667,4,2,1,65,0,0
22260,-66.6666666666667,4,2,1,65,0,0
23060,-50,4,2,1,65,0,0
23860,-166.666666666667,4,2,1,65,0,0
25326,-66.6666666666667,4,2,1,65,0,0
26260,-166.666666666667,4,2,1,65,0,0
26660,-76.9230769230769,4,2,1,65,0,0
27060,-33.3333333333333,4,2,1,65,0,0
27126,-33.3333333333333,4,2,1,5,0,0
29260,-166.666666666667,4,2,1,65,0,0
29460,-50,4,2,1,65,0,0
29860,-100,4,2,1,65,0,0
32660,-66.6666666666667,4,2,1,65,0,0
33060,-166.666666666667,4,2,1,65,0,0
34660,-166.666666666667,4,2,1,65,0,0
35460,-50,4,2,1,65,0,0
35860,-50,4,2,1,65,0,0
36260,-100,4,2,1,65,0,0
37860,-166.666666666667,4,2,1,65,0,0
38260,-66.6666666666667,4,2,1,65,0,0
38660,-50,4,2,1,65,0,0
39060,-50,4,2,1,65,0,0
39460,-100,4,2,1,65,0,0
42260,-153.846153846154,4,2,1,65,0,0
42291,-153.846153846154,4,2,1,65,0,0
42326,-153.846153846154,4,2,1,35,0,0
45460,-222.222222222222,4,2,1,35,0,0
47060,-222.222222222222,4,2,1,35,0,0
47825,-222.222222222222,4,2,1,35,0,0
47860,-100,4,2,1,50,0,0
48660,-153.846153846154,4,2,1,65,0,0
49460,-111.111111111111,4,2,1,70,0,0
50260,-111.111111111111,4,2,1,75,0,0
51060,-111.111111111111,4,2,1,80,0,0
51726,-166.666666666667,4,2,1,80,0,0
51860,-66.6666666666667,4,2,1,85,0,0
53025,-66.6666666666667,4,2,1,85,0,0
53060,-66.6666666666667,4,2,1,90,0,0
53193,-66.6666666666667,4,2,1,55,0,0
54126,-66.6666666666667,4,2,1,65,0,0
54625,-66.6666666666667,4,2,1,65,0,0
54660,-33.3333333333333,4,2,1,65,0,0
55025,-33.3333333333333,4,2,1,65,0,0
55060,-66.6666666666667,4,2,1,100,0,1
57060,-40,4,2,1,100,0,1
58260,-66.6666666666667,4,2,1,100,0,1
59460,-40,4,2,1,100,0,1
59860,-66.6666666666667,4,2,1,100,0,1
60260,-40,4,2,1,100,0,1
60660,-66.6666666666667,4,2,1,100,0,1
61460,-66.6666666666667,4,2,1,100,0,1
62260,-50,4,2,1,100,0,1
62660,-40,4,2,1,100,0,1
63060,-66.6666666666667,4,2,1,100,0,1
63860,-33.3333333333333,4,2,1,100,0,1
64260,-100,4,2,1,100,0,1
64660,-66.6666666666667,4,2,1,100,0,1
65860,-40,4,2,1,100,0,1
66660,-40,4,2,1,100,0,1
67860,-66.6666666666667,4,2,1,100,0,1
69860,-40,4,2,1,100,0,1
71060,-66.6666666666667,4,2,1,100,0,1
72260,-40,4,2,1,100,0,1
72660,-66.6666666666667,4,2,1,100,0,1
73060,-40,4,2,1,100,0,1
73460,-66.6666666666667,4,2,1,100,0,1
75060,-50,4,2,1,100,0,1
75860,-33.3333333333333,4,2,1,100,0,1
76060,-33.3333333333333,4,2,1,5,0,1
76126,-33.3333333333333,4,2,1,100,0,1
76326,-33.3333333333333,4,2,1,5,0,1
76392,-33.3333333333333,4,2,1,100,0,1
76660,-33.3333333333333,4,2,1,100,0,1
76993,-33.3333333333333,4,2,1,5,0,1
77060,-33.3333333333333,4,2,1,100,0,0
79025,-33.3333333333333,4,2,1,100,0,0
79060,-33.3333333333333,4,2,1,80,0,0
79460,-40,4,2,1,80,0,0
80225,-40,4,2,1,80,0,0
80260,-33.3333333333333,4,2,1,50,0,0
80326,-33.3333333333333,4,2,1,5,0,0

[Colours]
Combo1 : 170,118,83
Combo2 : 185,158,77
Combo3 : 175,73,75
Combo4 : 78,142,156

[HitObjects]
328,8,3860,6,0,P|289:21|267:20,2,50,10|0|0,0:0|0:0|0:0,0:0:0:0:
193,24,4260,6,0,P|206:62|205:84,2,50
210,158,4660,5,0,0:0:0:0:
210,158,4726,1,0,0:0:0:0:
210,158,4793,2,0,P|248:144|270:145,1,50
344,142,5060,6,0,P|330:103|331:81,2,50
508,286,5460,6,0,P|483:253|467:242,2,50,2|0|0,0:0|0:0|0:0,0:0:0:0:
425,160,5860,5,0,0:0:0:0:
425,160,5926,1,0,0:0:0:0:
425,160,5993,2,0,P|409:196|407:215,1,50
358,293,6260,6,0,P|398:288|415:280,2,50
292,238,6660,5,0,0:0:0:0:
218,321,6793,1,0,0:0:0:0:
104,184,6926,1,0,0:0:0:0:
0,336,7060,6,0,P|56:320|96:336,1,100,10|0,1:2|0:0,0:0:0:0:
104,344,7460,6,0,P|143:313|235:335,1,129.999994049073,0|0,3:2|0:0,0:0:0:0:
296,360,7860,6,0,P|312:320|432:320,1,160,0|0,3:2|0:0,0:0:0:0:
488,368,8260,6,0,P|434:321|506:199,1,220.000006713867,0|0,3:2|0:0,0:0:0:0:
512,285,8660,5,4,3:0:0:0:
292,238,8793,1,0,3:0:0:0:
512,285,8926,1,0,3:0:0:0:
232,176,9060,6,0,B|186:130|243:65|243:65|325:92|309:155,1,250,4|0,3:0|0:0,0:0:0:0:
292,238,9460,5,4,3:0:0:0:
292,238,9593,1,0,3:0:0:0:
360,40,9860,6,0,B|346:28|368:8|368:8|377:36|360:40,1,75.000002861023,2|0,0:0|0:0,0:0:0:0:
32,256,10260,6,0,B|48:208|96:203|96:203|143:211|143:211|160:206|160:206|255:223|255:223|195:212|154:254,1,359.999989013672,4|0,3:0|0:0,0:0:0:0:
170,333,10926,5,0,3:0:0:0:
139,129,11060,2,0,L|28:109,2,89.999997253418,8|0|0,0:0|0:0|0:0,0:0:0:0:
290,59,11460,6,0,B|222:47|167:135|238:213|315:191|335:140|335:140|359:95|415:77|462:100|483:140,1,449.99998626709,2|0,3:2|0:0,0:0:0:0:
440,208,12260,6,0,P|422:195|409:177,2,44.999998626709,0|0|0,3:0|0:0|0:0,0:0:0:0:
481,137,12526,1,0,0:0:0:0:
200,56,12660,1,8,0:0:0:0:
264,264,12926,6,0,P|257:321|285:370,1,110.000003356934,4|0,3:0|0:0,0:0:0:0:
405,238,13193,2,0,P|430:287|424:340,1,110.000003356934,0|0,3:0|0:0,0:0:0:0:
88,216,13460,6,0,B|73:219|59:228|51:240|51:240|78:162|212:162|233:310|131:355|74:314,1,359.999989013672,4|0,3:0|0:0,0:0:0:0:
6,306,14126,5,0,3:0:0:0:
39,139,14260,2,0,P|82:120|140:121,2,89.999997253418,8|0|0,0:0|0:0|0:0,0:0:0:0:
200,216,14660,6,0,B|205:186|205:186|200:169|200:169|215:83|215:83|215:83|215:83|222:2|342:-32|407:80|348:160|282:158,1,449.99998626709,2|0,3:2|0:0,0:0:0:0:
127,102,15460,6,0,L|131:78,10,22.4999993133545,0|0|0|0|0|0|0|0|0|0|0,3:0|0:0|0:0|0:0|0:0|0:0|0:0|0:0|0:0|0:0|0:0,0:0:0:0:
124,117,15860,5,8,0:0:0:0:
481,66,16660,6,0,P|436:105|433:186,1,129.999994049073,2|0,3:2|0:0,0:0:0:0:
424,183,17060,2,0,P|446:206|456:243,1,59.9999981689454
336,288,17460,6,0,P|366:280|403:290,1,59.9999981689454,8|0,0:1|0:0,0:0:0:0:
448,352,17726,1,0,0:0:0:0:
256,312,17860,2,0,P|189:303|144:353,1,129.999994049073
136,349,18260,6,0,P|141:305|124:264,1,89.9999972534181
57,317,18926,6,0,L|49:318,2,7.49999977111817
241,153,19060,6,0,P|309:132|356:186,1,150.000005722046,8|0,0:1|3:0,0:0:0:0:
179,206,19460,6,0,P|137:182|88:189,1,100
81,198,19860,6,0,P|48:167|35:125,1,89.9999972534181,0|0,3:0|0:0,0:0:0:0:
236,34,20526,1,0,0:0:0:0:
114,99,20660,6,0,P|124:55|154:22,1,89.9999972534181,8|0,0:1|0:0,0:0:0:0:
331,138,21460,6,0,L|386:128,2,44.999998626709,0|0|0,0:0|0:0|3:0,0:0:0:0:
249,152,22126,6,0,L|241:153,2,7.49999977111817
421,63,22260,6,0,P|453:103|451:154,1,75.000002861023,8|0,0:1|0:0,0:0:0:0:
386,263,22526,1,0,3:0:0:0:
386,263,22593,1,0,0:0:0:0:
386,263,22660,2,0,P|395:227|421:200,2,75.000002861023
512,378,23060,6,0,P|448:306|351:340,1,200,2|0,3:2|0:0,0:0:0:0:
353,342,23460,5,0,0:0:0:0:
272,372,23593,1,0,0:0:0:0:
192,264,23726,1,0,0:0:0:0:
72,357,23860,6,0,P|33:343|12:342,1,59.9999981689454,8|0,0:1|0:0,0:0:0:0:
5,350,24260,1,0,0:0:0:0:
88,272,24393,1,0,0:0:0:0:
0,144,24526,1,0,0:0:0:0:
152,184,24660,6,0,P|196:178|231:151,1,89.9999972534181
109,78,25326,2,0,P|103:109|105:130,1,37.5000014305115
385,185,25460,6,0,P|372:124|341:95,1,75.000002861023,8|0,0:1|0:0,0:0:0:0:
231,151,25726,2,0,P|289:170|330:158,1,75.000002861023,0|0,3:0|0:0,0:0:0:0:
337,36,25993,2,0,P|291:77|281:117,1,75.000002861023
232,264,26260,5,0,3:0:0:0:
315,247,26393,2,0,P|330:258|345:273,1,29.9999990844727
368,379,26660,6,0,P|360:328|409:254,1,129.999994049073
465,343,27060,6,0,P|440:339|464:345,1,75.000002861023,10|0,0:1|0:0,0:0:0:0:
128,112,29260,6,0,L|136:113,3,7.49999977111817
56,16,29460,6,0,P|104:88|88:200,1,200,2|0,3:2|0:0,0:0:0:0:
19,214,29860,6,0,P|52:197|89:196,1,75
192,344,30260,1,8,0:1:0:0:
73,278,30460,1,0,0:0:0:0:
248,248,30660,1,0,3:0:0:0:
104,360,30860,1,0,0:0:0:0:
320,296,31060,6,0,P|357:297|389:315,1,75
424,168,31460,6,0,L|421:152,3,12.5
438,248,31660,1,0,0:0:0:0:
376,48,31860,5,8,0:1:0:0:
336,200,32060,1,0,0:0:0:0:
472,80,32260,2,0,L|460:16,2,50,0|0|0,0:0|0:0|3:0,0:0:0:0:
264,152,32593,5,0,0:0:0:0:
264,152,32660,2,0,P|143:126|122:78,1,150.000005722046,0|0,3:0|0:0,0:0:0:0:
127,103,33060,6,0,P|119:137|95:161,1,59.9999981689454
25,119,33460,2,0,P|33:85|57:61,1,59.9999981689454,8|0,0:1|0:0,0:0:0:0:
112,240,33860,5,0,3:0:0:0:
0,304,34060,1,0,0:0:0:0:
120,324,34260,1,0,0:0:0:0:
33,204,34460,1,0,0:0:0:0:
194,271,34660,6,0,L|192:281,3,7.49999977111817,0|0|0|0,3:0|0:0|0:0|0:0,0:0:0:0:
206,191,34860,1,0,0:0:0:0:
360,360,35060,6,0,P|399:348|413:331,1,59.9999981689454,8|0,0:1|0:0,0:0:0:0:
417,324,35460,2,0,P|406:276|448:219,1,100,2|0,0:0|0:0,0:0:0:0:
506,202,35726,1,0,0:0:0:0:
336,224,35860,6,0,P|292:184|396:63,1,200,0|0,3:0|0:0,0:0:0:0:
405,58,36260,2,0,P|369:70|333:65,1,75
176,16,36660,5,8,0:1:0:0:
240,184,36860,1,0,0:0:0:0:
262,12,37060,1,0,3:0:0:0:
152,208,37260,1,0,0:0:0:0:
0,136,37460,5,0,0:0:0:0:
216,96,37660,1,0,0:0:0:0:
8,48,37860,6,0,L|-2:46,3,7.49999977111817
88,60,38060,1,0,0:0:0:0:
8,272,38260,6,0,P|58:349|119:352,1,150.000005722046,8|0,0:1|0:0,0:0:0:0:
216,216,38660,6,0,P|172:240|151:284,1,100,2|0,0:0|0:0,0:0:0:0:
288,344,38926,1,0,0:0:0:0:
288,344,38993,1,0,0:0:0:0:
288,344,39060,6,0,P|264:280|280:136,1,200,0|0,3:0|0:0,0:0:0:0:
281,142,39460,2,0,P|327:133|349:110,1,50
360,56,39726,1,0,3:0:0:0:
368,312,39860,6,0,P|419:354|458:361,1,100,8|0,0:1|0:0,0:0:0:0:
493,285,40260,2,0,P|456:251|408:238,1,100,0|0,3:0|0:0,0:0:0:0:
216,216,40660,2,0,P|197:234|180:261,1,50
188,339,40926,1,2,0:0:0:0:
112,208,41060,1,0,3:0:0:0:
112,208,41193,2,0,P|87:214|59:229,1,50
26,300,41460,5,8,0:1:0:0:
168,136,41860,2,0,P|186:69|168:29,1,100
106,85,42260,6,0,B|138:108|186:102|216:74|216:74|248:42|297:41|331:66|331:66|248:123|275:265|409:293|490:220|481:134|481:134|452:158|415:158|387:143,1,747.499965782167,4|0,3:0|0:0,0:0:0:0:
428,71,45460,6,0,P|416:183|448:312,1,247.4999924469,2|0,3:2|0:0,0:0:0:0:
504,376,47060,2,0,P|461:343|410:344,1,101.249996910095,2|0,3:2|0:0,0:0:0:0:
342,307,47860,6,0,P|334:331|337:364,2,50,8|0|0,3:2|0:0|0:0,0:0:0:0:
415,342,48260,1,0,0:0:0:0:
144,376,48526,1,0,0:0:0:0:
192,48,48660,6,0,P|191:72|184:104,2,32.4999985122681,0|0|0,3:2|0:0|0:0,0:0:0:0:
264,144,49060,2,0,P|265:120|272:88,2,32.4999985122681,0|0|0,3:2|0:0|0:0,0:0:0:0:
320,16,49460,6,0,P|331:58|331:79,2,44.999998626709,8|0|0,3:2|0:0|0:0,0:0:0:0:
422,136,49860,2,0,P|410:93|410:72,2,44.999998626709,0|0|0,3:2|0:0|0:0,0:0:0:0:
343,232,50260,6,0,P|382:241|398:252,1,44.999998626709,0|0,3:2|0:0,0:0:0:0:
438,311,50526,1,0,0:0:0:0:
343,232,50660,6,0,P|352:192|363:176,1,44.999998626709,0|0,3:2|0:0,0:0:0:0:
422,136,50926,1,0,0:0:0:0:
343,232,51060,6,0,P|303:222|287:211,1,44.999998626709,8|0,3:2|0:0,0:0:0:0:
247,152,51326,1,0,0:0:0:0:
343,232,51460,6,0,P|333:271|322:287,1,44.999998626709,0|0,3:2|0:0,0:0:0:0:
263,327,51726,2,0,L|255:328,2,7.49999977111817
115,308,51860,6,0,P|133:246|169:228,1,75.000002861023,4|0,3:0|0:0,0:0:0:0:
247,152,52126,2,0,P|184:166|150:144,1,75.000002861023,4|0,3:0|0:0,0:0:0:0:
46,114,52393,2,0,P|89:161|87:201,1,75.000002861023,4|0,3:0|0:0,0:0:0:0:
32,344,52660,5,4,3:0:0:0:
38,337,52793,1,0,0:0:0:0:
40,346,52926,1,0,0:0:0:0:
144,48,53060,5,4,3:0:0:0:
263,327,53193,1,12,3:0:0:0:
144,48,53326,1,8,0:0:0:0:
115,308,54126,5,0,3:0:0:0:
320,48,54260,1,8,0:0:0:0:
320,48,54660,6,0,B|366:80|366:80|385:190|385:190|380:207|380:207|386:239|386:239|397:302|397:302|401:326|425:321|420:298|420:298|411:243,1,375.000014305115,4|0,3:0|0:0,0:0:0:0:
465,187,55060,6,0,B|409:147|353:195|353:195|297:243|241:203|241:203|279:216|313:187,1,300.000011444092,4|0,3:0|0:0,0:0:0:0:
296,190,55726,1,0,0:0:0:0:
240,336,55860,5,8,0:0:0:0:
246,343,55993,1,0,0:0:0:0:
248,334,56126,1,0,0:0:0:0:
16,272,56260,6,0,B|27:347|123:382|194:313|185:236|139:201|139:201|101:208|65:189|47:156,1,375.000014305115,0|0,3:0|0:0,0:0:0:0:
68,171,57060,6,0,B|119:115|103:54|103:54|119:115|191:137,1,250,0|0,3:0|0:0,0:0:0:0:
352,72,57460,6,0,B|433:52|401:-2|305:6|284:147|400:184,1,250,8|0,0:0|0:0,0:0:0:0:
384,172,57860,6,0,P|446:184|500:152,1,125
472,16,58126,1,0,0:0:0:0:
264,272,58260,6,0,B|342:285|342:285|357:296|357:296|475:317|475:317|425:307|395:262,1,300.000011444092,4|0,3:0|0:0,0:0:0:0:
406,266,58926,1,0,3:0:0:0:
230,349,59060,6,0,P|187:306|199:218,1,150.000005722046,8|0,0:0|0:0,0:0:0:0:
316,213,59460,5,0,3:0:0:0:
316,213,59526,1,0,0:0:0:0:
316,213,59593,2,0,P|287:200|265:178,1,62.5
248,96,59726,1,0,0:0:0:0:
104,216,59860,6,0,P|92:168|110:124,1,75.000002861023
153,79,60126,1,0,0:0:0:0:
403,236,60260,6,0,P|436:128|330:90,1,250,0|0,3:0|0:0,0:0:0:0:
286,186,60660,6,0,P|332:242|404:236,1,150.000005722046,8|0,0:0|0:0,0:0:0:0:
236,266,61060,2,0,P|196:266|164:290,1,75.000002861023,0|0,3:0|0:0,0:0:0:0:
140,362,61326,1,0,3:0:0:0:
476,330,61460,6,0,B|502:293|502:293|483:183,1,150.000005722046,4|0,3:0|0:0,0:0:0:0:
484,178,61860,5,0,0:0:0:0:
333,91,61993,1,0,0:0:0:0:
484,4,62126,1,0,0:0:0:0:
304,171,62260,5,8,0:0:0:0:
304,171,62393,2,0,P|251:115|248:85,1,100
324,10,62660,6,0,P|273:70|116:34,1,250,0|0,3:0|0:0,0:0:0:0:
123,28,63060,6,0,P|131:77|108:129,1,75.000002861023
44,178,63326,1,0,0:0:0:0:
206,161,63460,6,0,P|168:192|111:199,1,75.000002861023,0|0,3:0|0:0,0:0:0:0:
36,167,63726,1,0,0:0:0:0:
283,203,63860,6,0,B|344:217|385:271|386:334|358:380|358:380|368:344|354:308|326:287,1,300.000011444092,8|0,0:0|0:0,0:0:0:0:
335,303,64260,6,0,P|355:247|400:225,1,100,2|0,0:0|0:0,0:0:0:0:
400,144,64660,6,0,P|467:242|496:127,1,300.000011444092,4|0,3:0|0:0,0:0:0:0:
484,118,65326,1,0,3:0:0:0:
312,128,65460,6,0,P|237:101|211:37,1,150.000005722046,8|0,0:0|0:0,0:0:0:0:
222,33,65860,5,0,3:0:0:0:
222,33,65926,1,0,0:0:0:0:
222,33,65993,2,0,P|196:51|166:59,1,62.5
88,24,66126,1,0,0:0:0:0:
176,160,66260,6,0,P|162:188|140:210,1,62.5
37,273,66393,2,0,P|67:269|97:277,1,62.5
205,336,66526,2,0,P|186:311|178:280,1,62.5
176,160,66660,6,0,B|245:131|292:188|292:188|339:245|409:217,1,250,0|0,3:0|0:0,0:0:0:0:
405,212,67060,1,8,0:0:0:0:
255,137,67326,6,0,B|197:129|175:201|230:250|295:226|327:178|327:178|355:126|422:110|468:157,1,375,0|0,3:0|0:0,0:0:0:0:
463,152,67860,6,0,B|401:167|340:132|319:70|336:17|336:17|293:63|229:56,1,300.000011444092,4|0,3:0|0:0,0:0:0:0:
261,52,68526,1,0,3:0:0:0:
456,38,68659,5,8,0:0:0:0:
449,44,68792,1,0,0:0:0:0:
447,36,68926,1,0,0:0:0:0:
185,20,69060,6,0,B|164:83|217:122|217:122|207:193|130:204|130:204|172:267|126:345,1,375.000014305115,0|0,3:0|0:0,0:0:0:0:
127,336,69860,6,0,P|161:252|314:222,1,250,0|0,3:0|0:0,0:0:0:0:
464,296,70260,6,0,B|511:312|503:360|503:360|448:352|405:276|447:200,1,250,8|0,0:0|0:0,0:0:0:0:
444,218,70660,6,0,P|447:155|400:82,1,125
290,56,70926,1,0,0:0:0:0:
256,304,71060,6,0,B|224:310|224:310|185:317|162:280|171:238|211:231|211:231|266:221|266:221|283:226|283:226|393:207,1,300.000011444092,4|0,3:0|0:0,0:0:0:0:
355,206,71726,1,0,3:0:0:0:
103,167,71860,6,0,L|251:141,1,150.000005722046,8|0,0:0|0:0,0:0:0:0:
390,91,72260,5,0,3:0:0:0:
390,91,72326,1,0,0:0:0:0:
390,91,72393,2,0,P|360:101|336:121,1,62.5
312,200,72526,1,0,0:0:0:0:
492,301,72660,6,0,P|468:280|428:267,1,75.000002861023
346,283,72926,1,0,0:0:0:0:
96,312,73060,6,0,P|140:208|246:247,1,250,0|0,3:0|0:0,0:0:0:0:
217,348,73460,6,0,P|146:361|94:310,1,150.000005722046,8|0,0:0|0:0,0:0:0:0:
144,176,73860,2,0,P|144:120|120:88,2,75.000002861023,0|0|0,3:0|0:0|0:0,0:0:0:0:
48,40,74260,6,0,B|85:66|85:66|195:47,1,150.000005722046,4|0,3:0|0:0,0:0:0:0:
192,36,74660,1,0,0:0:0:0:
312,176,74793,1,0,0:0:0:0:
472,16,74926,1,0,0:0:0:0:
244,124,75060,6,0,P|228:188|255:240,1,100,8|0,0:0|0:0,0:0:0:0:
312,264,75326,1,0,0:0:0:0:
144,152,75460,6,0,P|98:199|96:258,1,100,0|0,3:0|0:0,0:0:0:0:
131,307,75726,1,0,0:0:0:0:
424,288,75860,6,0,B|384:237|423:182|423:182|461:126|415:69,1,225.000008583069,0|0,3:0|0:0,0:0:0:0:
337,98,76126,6,0,B|322:161|381:195|381:195|439:229|421:300,1,225.000008583069,0|0,3:0|0:0,0:0:0:0:
427,300,76393,5,0,3:0:0:0:
488,24,76526,1,0,3:0:0:0:
192,264,76660,6,0,B|164:294|168:339|199:365|199:365|278:358|333:269|287:181|212:165,1,375.000014305115,8|0,3:0|0:0,0:0:0:0:
225,168,77060,5,0,3:0:0:0:
0,296,77193,1,0,3:0:0:0:
358,351,77326,1,0,3:0:0:0:
104,40,77460,1,0,3:0:0:0:
232,352,79060,5,4,3:0:0:0:
452,305,79193,1,0,3:0:0:0:
232,352,79326,1,0,3:0:0:0:
512,243,79460,6,0,B|558:197|501:132|501:132|419:159|435:222,1,250,4|0,3:0|0:0,0:0:0:0:
452,305,79860,5,4,3:0:0:0:
452,305,79993,1,0,3:0:0:0:
384,99,80260,6,0,B|398:87|376:67|376:67|367:95|384:99,1,75.000002861023,2|0,0:0|0:0,0:0:0:0:
