osu file format v14

[General]
AudioFilename: audio.mp3
AudioLeadIn: 0
PreviewTime: 53825
Countdown: 0
SampleSet: Soft
StackLeniency: 0.7
Mode: 0
LetterboxInBreaks: 0
WidescreenStoryboard: 0

[Editor]
Bookmarks: 3825,5425,7025,8625,10225,16625,23558,29425,39025,53025,53436,55025,77425
DistanceSpacing: 1
BeatDivisor: 6
GridSize: 4
TimelineZoom: 3.199999

[Metadata]
Title:Take Over (feat. Jeremy McKinnon (A Day To Remember), MAX, Henry) (Cut Ver.)
TitleUnicode:Take Over (feat. Jeremy McKinnon (A Day To Remember), MAX, Henry) (Cut Ver.)
Artist:League of Legends
ArtistUnicode:League of Legends
Creator:Cacturne
Version:Insane
Source:League of Legends
Tags:english modern pop male vocalist video game worlds 2020 riot games sirmirai mirai lol daycore Ikira Moko xm4ti3
BeatmapID:2650764
BeatmapSetID:1275804

[Difficulty]
HPDrainRate:6
CircleSize:3.7
OverallDifficulty:8.3
ApproachRate:9.2
SliderMultiplier:1.5
SliderTickRate:1

[Events]
//Background and Video events
0,0,"bg.jpg",0,0
//Break Periods
//Storyboard Layer 0 (Background)
//Storyboard Layer 1 (Fail)
//Storyboard Layer 2 (Pass)
//Storyboard Layer 3 (Foreground)
//Storyboard Layer 4 (Overlay)
//Storyboard Sound Samples

[TimingPoints]
3860,400,4,2,1,50,1,0
3860,-133.333333333333,4,2,1,50,0,0
7025,-133.333333333333,4,2,1,50,0,0
7060,-100,4,2,1,60,0,0
7425,-100,4,2,1,60,0,0
7460,-90.9090909090909,4,2,1,62,0,0
7825,-90.9090909090909,4,2,1,62,0,0
7860,-83.3333333333333,4,2,1,65,0,0
8225,-83.3333333333333,4,2,1,65,0,0
8260,-76.9230769230769,4,2,1,70,0,0
8625,-76.9230769230769,4,2,1,70,0,0
8660,-100,4,2,1,80,0,0
9060,-100,4,2,1,80,0,0
9860,-285.714285714284,4,2,1,80,0,0
10060,-285.714285714284,4,2,1,5,0,0
10260,-79.9999999999999,4,2,1,80,0,0
11060,-133.333333333333,4,2,1,80,0,0
11460,-66.6666666666667,4,2,1,80,0,0
12260,-133.333333333333,4,2,1,80,0,0
12660,-100,4,2,1,80,0,0
12926,-50,4,2,1,80,0,0
13193,-50,4,2,1,80,0,0
13460,-79.9999999999999,4,2,1,80,0,0
14260,-133.333333333333,4,2,1,80,0,0
14660,-66.6666666666667,4,2,1,80,0,0
15460,-133.333333333333,4,2,1,80,0,0
15860,-100,4,2,1,80,0,0
16625,-100,4,2,1,80,0,0
16660,-100,4,2,1,65,0,0
23060,-50,4,2,1,65,0,0
23460,-100,4,2,1,65,0,0
23860,-100,4,2,1,65,0,0
24660,-100,4,2,1,65,0,0
26660,-100,4,2,1,65,0,0
29460,-50,4,2,1,65,0,0
29860,-100,4,2,1,65,0,0
31060,-100,4,2,1,65,0,0
32660,-200,4,2,1,65,0,0
33460,-100,4,2,1,65,0,0
42291,-100,4,2,1,65,0,0
42326,-100,4,2,1,35,0,0
47825,-100,4,2,1,35,0,0
47860,-100,4,2,1,50,0,0
48660,-83.3333333333333,4,2,1,65,0,0
49460,-83.3333333333333,4,2,1,70,0,0
50260,-83.3333333333333,4,2,1,75,0,0
51060,-83.3333333333333,4,2,1,80,0,0
51860,-83.3333333333333,4,2,1,85,0,0
53025,-83.3333333333333,4,2,1,85,0,0
53060,-83.3333333333333,4,2,1,90,0,0
53193,-83.3333333333333,4,2,1,55,0,0
54126,-83.3333333333333,4,2,1,65,0,0
54625,-83.3333333333333,4,2,1,65,0,0
54660,-50,4,2,1,65,0,0
55025,-50,4,2,1,65,0,0
55060,-100,4,2,1,100,0,1
55860,-200,4,2,1,100,0,1
56260,-100,4,2,1,100,0,1
57860,-333.333333333333,4,2,1,100,0,1
58260,-71.4285714285714,4,2,1,100,0,1
59060,-100,4,2,1,100,0,1
59860,-71.4285714285714,4,2,1,100,0,1
60126,-100,4,2,1,100,0,1
60260,-66.6666666666667,4,2,1,100,0,1
62260,-100,4,2,1,100,0,1
62660,-66.6666666666667,4,2,1,100,0,1
63860,-50,4,2,1,100,0,1
64260,-200,4,2,1,100,0,1
64660,-66.6666666666667,4,2,1,100,0,1
65460,-50,4,2,1,100,0,1
66260,-200,4,2,1,100,0,1
66660,-71.4285714285714,4,2,1,100,0,1
69060,-100,4,2,1,100,0,1
69860,-66.6666666666667,4,2,1,100,0,1
70660,-200,4,2,1,100,0,1
71060,-66.6666666666667,4,2,1,100,0,1
71860,-100,4,2,1,100,0,1
73060,-66.6666666666667,4,2,1,100,0,1
76660,-66.6666666666667,4,2,1,100,0,1
77460,-100,4,2,1,100,0,0
79025,-100,4,2,1,100,0,0
79060,-50,4,2,1,80,0,0
79460,-66.6666666666667,4,2,1,80,0,0
80225,-66.6666666666667,4,2,1,80,0,0
80260,-66.6666666666667,4,2,1,50,0,0

[Colours]
Combo1 : 170,118,83
Combo2 : 185,158,77
Combo3 : 175,73,75
Combo4 : 78,142,156

[HitObjects]
309,27,3860,6,0,P|321:39|337:67,2,37.5000014305115,10|0|0,0:0|0:0|0:0,0:0:0:0:
405,47,4260,2,0,P|406:63|400:95,2,37.5000014305115
473,119,4660,1,0,0:0:0:0:
485,132,4726,1,0,0:0:0:0:
485,150,4793,2,0,P|475:163|450:184,1,37.5000014305115
490,249,5060,2,0,P|473:253|441:253,2,37.5000014305115
331,161,5460,6,0,P|314:156|282:156,2,37.5000014305115,10|0|0,0:0|0:0|0:0,0:0:0:0:
266,88,5860,2,0,P|251:95|226:116,2,37.5000014305115
170,65,6260,1,0,0:0:0:0:
152,61,6326,1,0,0:0:0:0:
137,70,6393,2,0,P|130:85|125:117,1,37.5000014305115
49,115,6660,2,0,P|54:131|70:159,2,37.5000014305115
2,290,7060,6,0,P|31:251|85:237,1,100,10|0,1:2|0:0,0:0:0:0:
63,149,7460,6,0,P|111:153|163:197,1,110.000003356934,0|0,3:2|0:0,0:0:0:0:
202,106,7860,6,0,P|238:138|250:210,1,119.999996337891,0|0,3:2|0:0,0:0:0:0:
351,189,8260,6,0,P|349:237|293:297,1,129.999994049073,0|0,3:2|0:0,0:0:0:0:
158,189,8660,5,4,3:0:0:0:
296,140,8793,1,0,3:0:0:0:
199,21,8926,1,0,3:0:0:0:
305,40,9060,2,0,L|296:139,1,100,4|0,3:0|0:0,0:0:0:0:
158,189,9460,1,4,3:0:0:0:
305,40,9593,1,0,3:0:0:0:
360,228,9860,2,0,L|360:256,1,26.2499991989136,2|0,0:0|0:0,0:0:0:0:
60,284,10260,6,0,B|0:260|16:192|16:192|76:185|76:185|93:170|93:170|132:160|132:160|144:164|144:164|192:156,1,281.25,4|0,3:0|0:0,0:0:0:0:
204,176,10926,1,0,3:0:0:0:
274,100,11060,2,0,P|276:62|233:15,1,75.000002861023,8|0,0:0|0:0,0:0:0:0:
231,35,11460,6,0,B|295:57|348:22|293:4|395:-28|441:23|441:23|370:108|453:189,1,375.000014305115,2|0,3:2|0:0,0:0:0:0:
468,223,12260,2,0,L|520:217,2,37.5000014305115,0|0|0,3:0|0:0|0:0,0:0:0:0:
345,234,12660,1,8,0:0:0:0:
345,234,12926,6,0,P|320:193|315:136,1,100,4|0,3:0|0:0,0:0:0:0:
292,290,13193,6,0,P|257:250|245:205,1,100,0|0,3:0|0:0,0:0:0:0:
231,35,13460,6,0,B|171:150|75:141|34:33|167:25|120:92,1,250,4|0,3:0|0:0,0:0:0:0:
130,184,14126,1,0,3:0:0:0:
71,262,14260,2,0,P|22:260|-12:237,1,75.000002861023,8|0,0:0|0:0,0:0:0:0:
130,184,14660,6,0,B|174:165|248:162|338:236|318:323|199:391|162:250,1,375.000014305115,2|0,3:2|0:0,0:0:0:0:
64,143,15460,6,0,P|118:107|158:104,1,75.000002861023,0|0,3:0|0:0,0:0:0:0:
247,96,15860,1,8,0:0:0:0:
247,96,16660,6,0,P|224:49|247:-16,1,100,2|0,3:2|0:0,0:0:0:0:
347,63,17060,2,0,P|354:111|332:155,1,100
238,187,17460,2,0,P|163:170|125:161,1,100,8|0,0:1|0:0,0:0:0:0:
191,271,17860,2,0,P|142:282|93:293,1,100
220,374,18260,6,0,P|289:314|292:255,2,150,0|0|8,0:0|0:0|0:1,0:0:0:0:
191,271,19326,1,0,3:0:0:0:
245,198,19460,2,0,P|279:181|322:192,2,50
88,266,19860,6,0,P|71:204|58:155,1,100,0|0,3:0|0:0,0:0:0:0:
178,81,20260,2,0,P|165:129|151:177,1,100
245,198,20660,2,0,L|343:182,1,100,8|0,0:1|0:0,0:0:0:0:
389,269,21060,2,0,L|290:286,1,100
171,340,21460,6,0,P|198:355|239:352,1,50
290,285,21726,1,0,0:0:0:0:
238,226,21860,2,0,L|235:177,1,50,0|0,3:0|0:0,0:0:0:0:
296,111,22126,1,0,0:0:0:0:
403,150,22260,2,0,P|368:185|306:193,1,100,8|0,0:1|3:0,0:0:0:0:
234,176,22660,2,0,P|199:141|150:130,1,100
319,195,23060,6,0,B|327:84|251:137|266:1,1,200,2|0,3:2|0:0,0:0:0:0:
391,21,23460,2,0,P|367:32|342:36,2,50
456,89,23860,2,0,P|486:45|478:-23,1,100,8|0,0:1|0:0,0:0:0:0:
380,106,24260,2,0,P|387:129|402:149,1,50
478,165,24527,1,0,0:0:0:0:
380,106,24660,6,0,L|268:94,1,100
234,173,25060,2,0,L|346:185,1,100
198,43,25460,2,0,L|186:107,1,50,8|0,0:1|0:0,0:0:0:0:
145,165,25726,2,0,L|133:229,1,50,0|0,3:0|0:0,0:0:0:0:
165,299,25993,1,0,0:0:0:0:
92,99,26260,6,0,P|144:83|208:103,1,100,0|0,3:0|0:0,0:0:0:0:
333,183,26660,2,0,P|284:191|237:175,1,100
292,87,27060,1,10,0:1:0:0:
292,87,29460,6,0,B|245:123|245:123|285:269,1,200,2|0,3:2|0:0,0:0:0:0:
354,315,29860,2,0,P|403:317|444:289,1,100
369,222,30260,1,8,0:1:0:0:
269,333,30460,1,0,0:0:0:0:
183,209,30660,1,0,3:0:0:0:
269,333,30860,1,0,0:0:0:0:
436,275,31060,6,0,P|453:216|435:174,1,100
332,232,31460,1,0,0:0:0:0:
407,360,31660,1,0,0:0:0:0:
440,181,31860,1,8,0:1:0:0:
269,333,32060,1,0,0:0:0:0:
192,277,32260,2,0,L|115:294,1,75
118,293,32660,6,0,P|146:297|174:309,1,50,0|0,3:0|0:0,0:0:0:0:
35,234,33060,2,0,P|74:228|100:216,1,50
121,149,33460,2,0,L|108:30,1,100,8|0,0:1|0:0,0:0:0:0:
177,206,33860,2,0,P|219:203|285:224,1,100,0|0,3:0|0:0,0:0:0:0:
391,311,34260,6,0,P|443:303|485:255,1,100
512,175,34660,2,0,L|488:86,1,75,0|0,3:0|0:0,0:0:0:0:
485,92,35060,6,0,B|387:112|387:112|339:96,2,150,8|2|0,0:1|0:0|3:0,0:0:0:0:
339,96,36126,2,0,L|326:24,1,50
330,46,36660,1,8,0:1:0:0:
411,105,36860,1,0,0:0:0:0:
425,223,37060,1,0,3:0:0:0:
328,332,37260,1,0,0:0:0:0:
193,188,37460,6,0,P|261:163|304:183,1,100
336,222,37860,1,0,0:0:0:0:
337,235,37926,1,0,0:0:0:0:
338,250,37993,1,0,0:0:0:0:
338,250,38260,5,8,0:1:0:0:
227,85,38526,1,0,0:0:0:0:
249,236,38660,1,2,0:0:0:0:
411,105,38926,1,0,0:0:0:0:
411,105,38993,1,0,0:0:0:0:
408,125,39060,6,0,B|282:108,1,100,0|0,3:0|0:0,0:0:0:0:
186,162,39460,1,0,0:0:0:0:
186,162,39526,1,0,0:0:0:0:
171,167,39593,2,0,P|168:199|181:235,1,50,0|0,0:0|3:0,0:0:0:0:
233,319,39860,1,8,0:1:0:0:
308,111,40260,1,0,3:0:0:0:
92,244,40660,6,0,L|148:340,1,100,0|2,0:0|0:0,0:0:0:0:
192,244,41060,2,0,L|160:192,1,50,0|0,3:0|0:0,0:0:0:0:
160,100,41326,1,0,0:0:0:0:
248,152,41460,2,0,B|280:192|280:192|400:180,1,150,8|0,0:1|0:0,0:0:0:0:
392,188,42260,5,4,3:0:0:0:
108,48,43460,1,0,3:0:0:0:
104,164,43860,5,2,0:0:0:0:
472,232,45060,1,0,0:0:0:0:
468,88,45460,6,0,B|408:76|408:76|394:63|394:63|328:60|264:40|264:40|260:88|208:104,2,300,2|8|2,3:2|0:0|3:2,0:0:0:0:
209,88,47860,2,0,L|141:86,2,50,8|0|0,3:2|0:0|0:0,0:0:0:0:
316,108,48260,1,0,0:0:0:0:
236,292,48526,1,0,0:0:0:0:
208,168,48660,5,0,3:2:0:0:
268,156,48793,1,0,0:0:0:0:
312,196,48926,1,0,0:0:0:0:
344,248,49060,2,0,L|428:244,2,59.9999981689454,0|0|0,3:2|0:0|0:0,0:0:0:0:
412,60,49460,5,8,3:2:0:0:
352,48,49593,1,0,0:0:0:0:
308,88,49726,1,0,0:0:0:0:
276,140,49860,2,0,L|192:136,2,59.9999981689454,0|0|0,3:2|0:0|0:0,0:0:0:0:
412,60,50260,5,0,3:2:0:0:
426,118,50393,1,0,0:0:0:0:
441,176,50526,1,0,0:0:0:0:
456,236,50660,2,0,L|384:228,2,59.9999981689454,0|0|0,3:2|0:0|0:0,0:0:0:0:
168,144,51060,5,8,3:2:0:0:
154,202,51194,1,0,0:0:0:0:
139,260,51327,1,0,0:0:0:0:
124,320,51460,2,0,L|204:312,2,59.9999981689454,0|0|0,3:2|0:0|0:0,0:0:0:0:
448,260,51860,6,0,P|461:231|486:201,1,59.9999981689454,4|0,3:0|0:0,0:0:0:0:
293,279,52126,2,0,P|303:306|326:326,1,59.9999981689454,4|0,3:0|0:0,0:0:0:0:
349,123,52393,2,0,P|359:94|361:65,1,59.9999981689454,4|0,3:0|0:0,0:0:0:0:
133,196,52659,2,0,L|200:182,1,59.9999981689454,4|0,3:0|0:0,0:0:0:0:
367,261,52926,5,0,0:0:0:0:
243,56,53060,2,0,P|225:35|195:20,1,59.9999981689454,4|12,3:0|3:0,0:0:0:0:
79,110,53326,1,8,0:0:0:0:
408,220,54126,5,0,3:0:0:0:
154,150,54260,1,8,0:0:0:0:
408,220,54660,2,0,B|439:205|475:169|481:87|427:55|334:84|389:171,1,250,4|0,3:0|0:0,0:0:0:0:
256,236,55060,6,0,B|344:220|400:224|400:224|376:280|428:324,1,250,4|0,3:0|0:0,0:0:0:0:
316,308,55860,1,8,0:0:0:0:
240,312,55993,1,0,0:0:0:0:
164,320,56126,1,0,0:0:0:0:
316,308,56260,6,0,P|352:248|300:196,1,150,0|0,3:0|0:0,0:0:0:0:
204,200,56793,1,0,0:0:0:0:
104,204,56926,1,0,0:0:0:0:
304,196,57060,2,0,L|440:184,1,125,0|0,3:0|0:0,0:0:0:0:
472,180,57460,1,8,0:0:0:0:
104,204,57860,2,0,L|107:241,1,37.4999988555909
48,352,58260,6,0,B|60:260|188:244|188:352|252:368|320:320,1,314.999990386963,4|0,3:0|0:0,0:0:0:0:
319,299,58926,1,0,3:0:0:0:
330,287,58993,1,0,0:0:0:0:
339,272,59060,2,0,B|363:232|363:232|331:156,1,125,8|0,0:0|0:0,0:0:0:0:
350,126,59460,2,0,P|366:128|394:122,2,25,0|0|0,3:0|0:0|0:0,0:0:0:0:
288,24,59726,1,0,0:0:0:0:
216,84,59860,6,0,P|172:108|96:84,1,104.999996795654
99,72,60126,1,0,0:0:0:0:
21,200,60260,2,0,B|87:169|174:228,1,150.000005722046,0|0,3:0|0:0,0:0:0:0:
256,252,60660,2,0,P|332:264|260:204,1,225.000008583069,8|0,0:0|3:0,0:0:0:0:
163,150,61193,2,0,P|156:203|173:235,1,75.000002861023,0|0,0:0|3:0,0:0:0:0:
247,82,61460,5,4,3:0:0:0:
24,312,61860,1,0,0:0:0:0:
32,200,61993,1,0,0:0:0:0:
124,264,62126,1,0,0:0:0:0:
46,121,62260,2,0,L|38:97,1,25,8|0,0:0|0:0,0:0:0:0:
66,126,62393,2,0,P|102:103|130:74,1,75
184,28,62660,2,0,P|148:112|220:184,1,187.500007152558,0|0,3:0|0:0,0:0:0:0:
346,181,63060,6,0,P|401:110|364:29,1,187.500007152558
202,179,63460,2,0,B|218:147|272:120|272:120|330:147|354:195,1,187.500007152558,0|0,3:0|0:0,0:0:0:0:
276,276,63860,1,8,0:0:0:0:
272,100,64126,1,0,0:0:0:0:
276,276,64260,2,0,L|276:340,1,62.5,2|0,0:0|0:0,0:0:0:0:
357,379,64660,6,0,B|416:341|478:208|381:146|275:164|275:274,1,375.000014305115,4|0,3:0|3:0,0:0:0:0:
293,379,65460,2,0,B|330:350|382:362|382:362|374:302|318:350|242:310|306:302|230:270|203:299,1,300,8|0,0:0|3:0,0:0:0:0:
152,364,66126,1,0,0:0:0:0:
80,340,66260,5,0,0:0:0:0:
132,280,66393,1,0,0:0:0:0:
204,300,66526,1,0,0:0:0:0:
60,256,66660,2,0,L|124:64,1,139.999995727539,0|0,3:0|0:0,0:0:0:0:
204,56,67060,2,0,L|180:132,1,69.9999978637696,8|0,0:0|0:0,0:0:0:0:
104,360,67326,1,0,3:0:0:0:
104,360,67460,2,0,L|168:168,1,139.999995727539
52,108,67860,6,0,P|160:196|328:148,1,314.999990386963,4|0,3:0|0:0,0:0:0:0:
352,88,68526,2,0,L|352:48,1,34.9999989318848,0|0,3:0|0:0,0:0:0:0:
380,100,68660,2,0,P|424:164|440:272,1,174.999994659424,8|0,0:0|0:0,0:0:0:0:
348,296,69060,6,0,P|412:273|480:317,1,150,0|0,3:0|0:0,0:0:0:0:
406,367,69593,1,0,0:0:0:0:
307,377,69726,1,0,0:0:0:0:
223,337,69860,2,0,P|275:287|348:296,1,150,0|0,3:0|0:0,0:0:0:0:
253,207,70260,5,8,0:0:0:0:
253,207,70660,2,0,P|248:180|259:152,1,50
430,168,71060,6,0,B|396:134|368:121|368:121|332:131|265:229|225:245|225:245|195:231|158:179,1,337.500012874604,4|0,3:0|0:0,0:0:0:0:
184,116,71726,2,0,L|212:64,1,37.5000014305115,0|0,3:0|0:0,0:0:0:0:
112,8,71860,2,0,B|136:48|136:48|96:120,1,125,8|0,0:0|0:0,0:0:0:0:
24,188,72260,2,0,L|0:190,2,25,0|0|0,3:0|0:0|0:0,0:0:0:0:
101,251,72526,5,0,0:0:0:0:
112,262,72660,1,0,0:0:0:0:
111,273,72793,1,0,0:0:0:0:
107,284,72926,1,0,0:0:0:0:
252,264,73060,2,0,B|288:236|308:208|308:208|344:228|392:236|392:236|400:244|400:244|468:260,2,225.000008583069,0|8|0,3:0|0:0|3:0,0:0:0:0:
161,240,73993,2,0,P|161:277|172:312,1,75.000002861023
309,212,74260,6,0,P|320:176|298:61,1,150.000005722046,4|0,3:0|0:0,0:0:0:0:
228,35,74660,2,0,L|145:28,1,75.000002861023
60,80,74926,1,0,0:0:0:0:
60,80,75060,2,0,P|58:117|66:153,1,75.000002861023,8|0,0:0|0:0,0:0:0:0:
194,266,75326,1,0,0:0:0:0:
194,266,75460,2,0,P|205:196|138:196,1,150.000005722046,0|0,3:0|0:0,0:0:0:0:
137,332,75860,6,0,P|205:344|257:332,1,112.500004291535,0|0,3:0|0:0,0:0:0:0:
289,307,76126,2,0,P|357:295|409:307,1,112.500004291535,0|0,3:0|0:0,0:0:0:0:
430,321,76393,1,0,3:0:0:0:
512,352,76526,1,0,3:0:0:0:
512,352,76660,2,0,B|524:211|434:281|437:123,1,225.000008583069,8|0,3:0|3:0,0:0:0:0:
341,83,77193,2,0,P|301:73|244:74,1,75.000002861023,0|0,3:0|3:0,0:0:0:0:
433,39,77460,5,0,3:0:0:0:
168,84,79060,6,0,L|228:76,1,50,4|0,3:0|0:0,0:0:0:0:
152,108,79193,2,0,L|212:100,1,50,0|0,3:0|0:0,0:0:0:0:
140,132,79326,2,0,L|200:124,1,50,0|0,3:0|0:0,0:0:0:0:
439,70,79460,2,0,B|391:70|369:79|382:61|383:85|368:64|391:70|362:175,1,150.000005722046,4|0,3:0|0:0,0:0:0:0:
352,319,79860,1,4,3:0:0:0:
354,307,79993,1,0,3:0:0:0:
382,74,80260,5,2,0:0:0:0:
