osu file format v14

[General]
AudioFilename: audio.mp3
AudioLeadIn: 0
PreviewTime: 53825
Countdown: 0
SampleSet: Soft
StackLeniency: 0.4
Mode: 0
LetterboxInBreaks: 0
WidescreenStoryboard: 0

[Editor]
Bookmarks: 45291
DistanceSpacing: 1
BeatDivisor: 2
GridSize: 4
TimelineZoom: 2.699999

[Metadata]
Title:Take Over (feat. Jeremy McKinnon (A Day To Remember), MAX, Henry) (Cut Ver.)
TitleUnicode:Take Over (feat. Jeremy McKinnon (A Day To Remember), MAX, Henry) (Cut Ver.)
Artist:League of Legends
ArtistUnicode:League of Legends
Creator:Cacturne
Version:Daycore's Hard
Source:League of Legends
Tags:english modern pop male vocalist video game worlds 2020 riot games sirmirai mirai lol daycore Ikira Moko xm4ti3
BeatmapID:2766306
BeatmapSetID:1275804

[Difficulty]
HPDrainRate:4.5
CircleSize:4.5
OverallDifficulty:6.5
ApproachRate:7.5
SliderMultiplier:1.3
SliderTickRate:1

[Events]
//Background and Video events
0,0,"bg.jpg",0,0
//Break Periods
//Storyboard Layer 0 (Background)
//Storyboard Layer 1 (Fail)
//Storyboard Layer 2 (Pass)
//Storyboard Layer 3 (Foreground)
//Storyboard Layer 4 (Overlay)
//Storyboard Sound Samples

[TimingPoints]
3860,400,4,2,1,50,1,0
5460,-100,4,2,1,50,0,0
7025,-100,4,2,1,50,0,0
7060,-100,4,2,1,60,0,0
7425,-100,4,2,1,60,0,0
7460,-100,4,2,1,62,0,0
7825,-100,4,2,1,62,0,0
7860,-100,4,2,1,65,0,0
8225,-100,4,2,1,65,0,0
8260,-100,4,2,1,70,0,0
8625,-100,4,2,1,70,0,0
8660,-100,4,2,1,80,0,0
10260,-86.9565217391304,4,2,1,80,0,0
16625,-76.9230769230769,4,2,1,80,0,0
16660,-117.647058823529,4,2,1,65,0,0
42291,-117.647058823529,4,2,1,65,0,0
42326,-100,4,2,1,35,0,0
47825,-100,4,2,1,35,0,0
47860,-100,4,2,1,50,0,0
48660,-100,4,2,1,65,0,0
49460,-100,4,2,1,70,0,0
50260,-100,4,2,1,75,0,0
51060,-100,4,2,1,80,0,0
51860,-100,4,2,1,85,0,0
53025,-100,4,2,1,85,0,0
53060,-100,4,2,1,90,0,0
53193,-100,4,2,1,55,0,0
54126,-100,4,2,1,65,0,0
54625,-100,4,2,1,65,0,0
54660,-66.6666666666667,4,2,1,65,0,0
55025,-66.6666666666667,4,2,1,65,0,0
55060,-80,4,2,1,100,0,1
57860,-100,4,2,1,100,0,1
58260,-80,4,2,1,100,0,1
63926,-80,4,2,1,5,0,1
64260,-100,4,2,1,100,0,1
64660,-80,4,2,1,100,0,1
70660,-100,4,2,1,100,0,1
71060,-80,4,2,1,100,0,1
77460,-100,4,2,1,100,0,0
79025,-100,4,2,1,100,0,0
79060,-100,4,2,1,80,0,0
80225,-100,4,2,1,80,0,0
80260,-100,4,2,1,50,0,0

[Colours]
Combo1 : 170,118,83
Combo2 : 185,158,77
Combo3 : 175,73,75
Combo4 : 78,142,156

[HitObjects]
100,138,3860,6,0,P|128:161|241:119,1,130,10|0,0:0|0:0,0:0:0:0:
323,78,4660,2,0,L|292:223,1,130
329,284,5326,1,0,0:0:0:0:
366,262,5460,6,0,P|414:245|453:264,1,86.6666666666667,2|0,0:0|0:0,0:0:0:0:
473,290,5860,2,0,L|465:354,2,43.3333333333333
445,257,6260,6,0,B|450:203|450:203|458:183|458:183|466:126,1,130
360,52,7060,6,0,P|306:39|270:37,1,86.6666666666667,10|0,1:2|0:0,0:0:0:0:
243,67,7460,2,0,P|189:80|153:82,1,86.6666666666667,0|0,3:2|0:0,0:0:0:0:
118,64,7860,2,0,P|63:70|47:125,1,86.6666666666667,0|0,3:2|0:0,0:0:0:0:
59,134,8260,2,0,P|80:171|82:230,1,86.6666666666667,0|0,3:2|0:0,0:0:0:0:
49,277,8660,5,4,3:0:0:0:
90,287,8793,1,0,3:0:0:0:
129,268,8926,1,0,3:0:0:0:
190,214,9060,6,0,P|246:209|273:231,1,86.6666666666667,4|0,3:0|0:0,0:0:0:0:
312,279,9460,1,4,3:0:0:0:
379,265,9593,2,0,B|423:233|447:271|418:297|399:276,1,86.6666666666667,0|2,3:0|0:0,0:0:0:0:
379,265,10260,6,0,B|360:134|360:134|370:176|415:213,1,199.333337135315,4|0,3:0|0:0,0:0:0:0:
467,189,10926,1,0,3:0:0:0:
392,192,11060,2,0,L|306:187,1,49.8333342838288,8|0,0:0|0:0,0:0:0:0:
274,215,11326,1,0,0:0:0:0:
274,215,11460,2,0,B|212:206|191:133|191:133|143:190|57:173,1,249.166671419144,2|0,3:2|0:0,0:0:0:0:
63,109,12260,2,0,P|119:114|162:61,1,99.6666685676575,0|0,3:0|0:0,0:0:0:0:
215,47,12660,6,0,L|294:37,1,49.8333342838288,8|0,0:0|0:0,0:0:0:0:
270,107,12926,2,0,L|349:117,1,49.8333342838288,4|0,3:0|0:0,0:0:0:0:
305,35,13193,2,0,L|384:25,1,49.8333342838288,0|0,3:0|0:0,0:0:0:0:
433,61,13460,6,0,B|468:86|473:161|432:195|432:195|456:158|427:107,1,199.333337135315,4|0,3:0|0:0,0:0:0:0:
368,153,14126,1,0,3:0:0:0:
432,195,14260,2,0,L|444:313,1,99.6666685676575,8|0,0:0|0:0,0:0:0:0:
381,329,14660,2,0,B|293:313|293:313|295:315|295:315|234:316|234:316|238:319|238:319|112:295,1,249.166671419144,2|0,3:2|0:0,0:0:0:0:
87,265,15460,2,0,B|84:223|84:223|67:205|67:205|64:159,1,99.6666685676575,0|0,3:0|0:0,0:0:0:0:
73,123,15860,1,8,0:0:0:0:
73,123,16660,6,0,B|109:149|173:149|208:123|208:123|184:128|144:121,1,184.166670179367,2|0,3:2|0:0,0:0:0:0:
183,52,17460,2,0,P|233:53|268:78,1,73.6666680717469,8|0,0:1|0:0,0:0:0:0:
286,130,17860,2,0,P|336:129|371:104,1,73.6666680717469
409,67,18260,6,0,L|393:201,2,110.50000210762,0|0|8,0:0|0:0|0:1,0:0:0:0:
485,192,19326,1,0,3:0:0:0:
471,218,19460,2,0,P|461:261|467:305,1,73.6666680717469
508,375,19860,6,0,B|479:347|479:347|393:363,1,110.50000210762,0|0,3:0|0:0,0:0:0:0:
249,282,20660,2,0,B|220:310|220:310|150:297,1,110.50000210762,8|0,0:1|0:0,0:0:0:0:
39,174,21460,6,0,P|59:218|58:268,1,73.6666680717469
80,314,21860,1,0,3:0:0:0:
149,184,22126,1,0,0:0:0:0:
160,156,22260,2,0,L|180:104,1,36.8333340358734,8|0,0:1|0:0,0:0:0:0:
203,55,22526,1,0,3:0:0:0:
230,43,22660,1,0,0:0:0:0:
230,43,23060,6,0,L|131:33,1,73.6666680717469,2|0,3:2|0:0,0:0:0:0:
82,29,23460,2,0,L|36:26,2,36.8333340358734
156,35,23860,2,0,B|138:70|138:70|152:122,1,73.6666680717469,8|0,0:1|0:0,0:0:0:0:
188,164,24260,2,0,B|196:197|196:197|178:232,1,73.6666680717469
226,289,24660,6,0,P|167:273|103:276,2,110.50000210762,0|0|8,0:0|0:0|0:1,0:0:0:0:
351,365,25726,2,0,P|347:322|354:303,1,36.8333340358734,0|0,3:0|0:0,0:0:0:0:
387,267,25993,2,0,P|391:224|384:205,1,36.8333340358734
337,165,26260,6,0,L|321:62,1,73.6666680717469,0|0,3:0|0:0,0:0:0:0:
314,19,26660,2,0,P|343:61|369:67,1,73.6666680717469
438,54,27060,1,10,0:1:0:0:
321,106,29460,6,0,B|257:98|257:98|254:95|254:95|251:97|251:97|185:88|185:88|210:100|224:125,1,184.166670179367,2|0,3:2|0:0,0:0:0:0:
155,155,30260,2,0,P|158:200|172:228,1,73.6666680717469,8|0,0:1|0:0,0:0:0:0:
243,233,30660,2,0,P|257:266|258:303,1,73.6666680717469,0|0,3:0|0:0,0:0:0:0:
192,337,31060,6,0,P|224:370|280:366,1,73.6666680717469
316,342,31460,2,0,P|348:309|404:313,1,73.6666680717469
431,349,31860,2,0,L|496:355,1,55.2500010538101,8|0,0:1|0:0,0:0:0:0:
482,276,32260,2,0,L|436:273,2,36.8333340358734,0|0|0,0:0|0:0|3:0,0:0:0:0:
510,188,32660,6,0,L|433:182,1,73.6666680717469,0|0,3:0|0:0,0:0:0:0:
367,148,33060,1,0,0:0:0:0:
207,205,33460,2,0,P|230:161|212:114,1,73.6666680717469,8|0,0:1|0:0,0:0:0:0:
160,107,33860,2,0,L|77:117,1,73.6666680717469,0|0,3:0|0:0,0:0:0:0:
54,49,34260,6,0,L|98:45,2,36.8333340358734
49,122,34660,2,0,L|61:223,1,73.6666680717469,0|0,3:0|0:0,0:0:0:0:
44,268,35060,2,0,P|106:278|131:261,1,73.6666680717469,8|0,0:1|0:0,0:0:0:0:
159,216,35460,1,2,0:0:0:0:
279,360,35860,5,0,3:0:0:0:
358,283,36126,1,0,0:0:0:0:
358,283,36260,2,0,P|351:253|368:215,1,73.6666680717469
428,172,36660,2,0,L|415:98,1,73.6666680717469,8|0,0:1|0:0,0:0:0:0:
487,85,37060,2,0,L|499:157,1,73.6666680717469,0|0,3:0|0:0,0:0:0:0:
428,172,37460,6,0,L|441:240,1,55.2500010538101
409,332,37860,2,0,P|385:299|344:278,1,73.6666680717469
287,307,38260,1,8,0:1:0:0:
167,220,38526,1,0,0:0:0:0:
150,244,38660,2,0,L|61:236,1,73.6666680717469,2|0,0:0|0:0,0:0:0:0:
1,268,39060,6,0,P|-4:228|16:185,1,73.6666680717469,0|0,3:0|0:0,0:0:0:0:
67,155,39460,2,0,L|62:111,1,36.8333340358734
21,59,39726,1,0,3:0:0:0:
36,33,39860,2,0,L|129:23,1,73.6666680717469,8|0,0:1|0:0,0:0:0:0:
169,68,40260,2,0,P|211:75|246:56,1,73.6666680717469,0|0,3:0|0:0,0:0:0:0:
289,9,40660,5,0,0:0:0:0:
374,128,40926,1,2,0:0:0:0:
400,115,41060,2,0,P|403:174|414:204,1,73.6666680717469,0|0,3:0|0:0,0:0:0:0:
477,211,41460,1,8,0:1:0:0:
345,277,41726,6,0,L|205:263,1,110.50000210762
177,218,42260,6,0,B|207:296|207:296|48:272|48:272|139:42|139:42|-18:17|-18:17|17:106,1,736.666680717469,4|0,3:0|0:0,0:0:0:0:
235,134,45460,6,0,P|291:147|349:53,1,173.333333333333,2|0,3:2|0:0,0:0:0:0:
278,73,46126,2,0,L|339:170,1,86.6666666666667
365,202,46526,1,0,0:0:0:0:
348,227,46660,1,0,0:0:0:0:
240,313,46926,1,0,0:0:0:0:
240,313,47060,6,0,B|320:305|288:371|391:354,1,130,2|0,3:2|0:0,0:0:0:0:
477,303,47726,1,0,0:0:0:0:
482,267,47860,6,0,L|444:219,2,43.3333333333333,8|0|0,3:2|0:0|0:0,0:0:0:0:
467,335,48260,2,0,L|425:342,1,43.3333333333333
361,361,48526,1,0,0:0:0:0:
361,361,48660,6,0,L|357:267,1,86.6666666666667,0|0,3:2|0:0,0:0:0:0:
293,302,49060,2,0,L|289:208,1,86.6666666666667,0|0,3:2|0:0,0:0:0:0:
286,145,49460,6,0,L|284:98,2,43.3333333333333,8|0|0,3:2|0:0|0:0,0:0:0:0:
289,215,49860,2,0,L|189:204,1,86.6666666666667,0|0,3:2|0:0,0:0:0:0:
134,194,50260,6,0,L|86:188,2,43.3333333333333,0|0|0,3:2|0:0|0:0,0:0:0:0:
179,141,50660,2,0,L|185:93,2,43.3333333333333,0|0|0,3:2|0:0|0:0,0:0:0:0:
202,205,51060,2,0,L|250:211,2,43.3333333333333,8|0|0,3:2|0:0|0:0,0:0:0:0:
160,260,51460,2,0,L|154:308,2,43.3333333333333,0|0|0,3:2|0:0|0:0,0:0:0:0:
134,194,51860,5,4,3:0:0:0:
260,137,52126,1,4,3:0:0:0:
228,272,52393,1,4,3:0:0:0:
101,330,52660,1,4,3:0:0:0:
291,218,53060,5,4,3:0:0:0:
313,287,53193,2,0,P|347:286|384:276,1,43.3333333333333,12|8,3:0|0:0,0:0:0:0:
17,367,53860,6,0,L|37:313,1,43.3333333333333
13,255,54126,1,0,3:0:0:0:
13,255,54260,2,0,P|47:280|105:274,1,86.6666666666667,8|0,0:0|0:0,0:0:0:0:
132,219,54660,6,0,B|159:134|159:134|167:164|188:180,1,130.000004959107,4|0,3:0|0:0,0:0:0:0:
251,187,55060,6,0,P|324:178|227:138,1,270.833333333333,4|0,3:0|0:0,0:0:0:0:
177,170,55860,2,0,B|122:188|122:188|65:141,1,108.333333333333,8|0,0:0|0:0,0:0:0:0:
35,82,56260,6,0,B|47:282|47:282|121:280,1,270.833333333333,0|0,3:0|0:0,0:0:0:0:
185,245,57060,2,0,P|226:269|182:292,1,108.333333333333,0|0,3:0|0:0,0:0:0:0:
117,280,57460,1,8,0:0:0:0:
302,326,57860,2,0,L|413:316,1,86.6666666666667
438,378,58260,6,0,B|482:354|477:278|451:259|413:240|413:240|437:223|443:193,1,216.666666666667,4|0,3:0|0:0,0:0:0:0:
368,179,58926,1,0,3:0:0:0:
423,126,59060,2,0,P|365:142|314:109,1,108.333333333333,8|0,0:0|0:0,0:0:0:0:
377,67,59460,6,0,L|359:295,1,216.666666666667,0|0,3:0|0:0,0:0:0:0:
285,262,60126,1,0,0:0:0:0:
285,262,60260,2,0,L|292:197,2,54.1666666666667,0|0|0,3:0|0:0|0:0,0:0:0:0:
221,321,60660,1,8,0:0:0:0:
132,163,61060,1,0,3:0:0:0:
113,280,61326,1,0,3:0:0:0:
170,230,61460,6,0,P|209:182|177:100,1,108.333333333333,4|0,3:0|0:0,0:0:0:0:
158,78,61860,2,0,L|174:17,2,54.1666666666667
211,142,62260,1,8,0:0:0:0:
211,142,62393,2,0,L|276:130,1,54.1666666666667
350,117,62660,6,0,B|324:110|303:88|303:88|321:160|321:160|321:167|321:167|331:202|331:202|329:208|329:208|334:212|334:212|341:238|341:238|345:243|345:243|360:310,1,270.833333333333,0|0,3:0|0:0,0:0:0:0:
304,349,63460,2,0,P|366:369|428:311,1,108.333333333333,0|0,3:0|0:0,0:0:0:0:
441,287,63860,2,0,L|479:294,1,27.0833333333333,8|0,0:0|0:0,0:0:0:0:
269,262,64260,6,0,L|154:240,1,86.6666666666667,2|0,0:0|0:0,0:0:0:0:
126,296,64660,6,0,B|182:239|188:162|124:148|71:179|99:241,1,216.666666666667,4|0,3:0|0:0,0:0:0:0:
49,284,65326,1,0,3:0:0:0:
126,296,65460,2,0,P|173:300|230:346,1,108.333333333333,8|0,0:0|0:0,0:0:0:0:
296,317,65860,6,0,B|226:247|218:151|298:134|362:172|328:249,1,270.833333333333,0|0,3:0|0:0,0:0:0:0:
372,293,66660,2,0,P|376:245|427:203,1,108.333333333333,0|0,3:0|0:0,0:0:0:0:
444,276,67060,1,8,0:0:0:0:
482,129,67326,6,0,B|512:101|512:101|451:104|451:104|446:107|446:107|377:112,1,162.5,0|0,3:0|0:0,0:0:0:0:
304,116,67860,6,0,B|248:127|210:165|210:165|181:115|110:89,1,216.666666666667,4|0,3:0|0:0,0:0:0:0:
94,164,68526,1,0,3:0:0:0:
27,126,68660,2,0,B|53:154|53:154|36:265,1,108.333333333333,8|0,0:0|0:0,0:0:0:0:
23,294,69060,6,0,B|139:287|139:287|181:270|181:270|306:265,1,270.833333333333,0|0,3:0|0:0,0:0:0:0:
347,316,69860,2,0,P|367:260|343:211,1,108.333333333333,0|0,3:0|0:0,0:0:0:0:
277,189,70260,1,8,0:0:0:0:
114,107,70660,2,0,P|173:113|219:89,1,86.6666666666667
251,41,71060,6,0,B|326:36|326:36|385:65|385:65|474:55,1,216.666666666667,4|0,3:0|0:0,0:0:0:0:
512,2,71726,1,0,3:0:0:0:
460,56,71860,2,0,P|436:92|461:174,1,108.333333333333,8|0,0:0|0:0,0:0:0:0:
476,222,72260,6,0,L|468:284,2,54.1666666666667,0|0|0,3:0|0:0|0:0,0:0:0:0:
443,154,72660,2,0,P|401:148|341:200,1,108.333333333333
357,258,73060,1,0,3:0:0:0:
146,178,73460,2,0,P|169:120|234:143,1,108.333333333333,8|0,0:0|0:0,0:0:0:0:
257,176,73860,2,0,P|242:213|237:295,1,108.333333333333,0|0,3:0|0:0,0:0:0:0:
291,347,74260,6,0,P|238:367|160:321,1,108.333333333333,4|0,3:0|0:0,0:0:0:0:
130,305,74660,2,0,L|63:310,2,54.1666666666667
143,230,75060,2,0,L|28:239,1,108.333333333333,8|0,0:0|0:0,0:0:0:0:
22,163,75460,2,0,L|130:154,1,108.333333333333,0|0,3:0|0:0,0:0:0:0:
202,179,75860,5,0,3:0:0:0:
296,58,76126,1,0,3:0:0:0:
341,202,76393,2,0,P|370:169|409:153,1,54.1666666666667,0|0,3:0|3:0,0:0:0:0:
448,133,76660,2,0,P|421:197|415:249,1,108.333333333333,8|0,3:0|0:0,0:0:0:0:
456,299,77060,5,0,3:0:0:0:
459,314,77193,1,0,3:0:0:0:
462,329,77326,1,0,3:0:0:0:
460,333,77460,5,0,3:0:0:0:
415,9,79060,2,0,L|357:2,2,43.3333333333333,4|0|0,3:0|3:0|3:0,0:0:0:0:
477,48,79460,2,0,P|492:79|448:128,1,86.6666666666667,4|0,3:0|0:0,0:0:0:0:
397,141,79860,1,4,3:0:0:0:
384,177,79993,2,0,B|387:214|387:214|393:205|393:205|398:257,1,86.6666666666667,0|2,3:0|0:0,0:0:0:0:
