osu file format v14

[General]
AudioFilename: audio.mp3
AudioLeadIn: 0
PreviewTime: 91863
Countdown: 0
SampleSet: Soft
StackLeniency: 0.6
Mode: 0
LetterboxInBreaks: 0
EpilepsyWarning: 1
WidescreenStoryboard: 1

[Editor]
DistanceSpacing: 1.2
BeatDivisor: 4
GridSize: 32
TimelineZoom: 1

[Metadata]
Title:RISE (ft. The Glitch Mob, Mako, and The Word Alive)
TitleUnicode:RISE (ft. The Glitch Mob, Mako, and The Word Alive)
Artist:League of Legends
ArtistUnicode:League of Legends
Creator:SquareTude
Version:Zelq's Light Insane
Source:League of Legends
Tags:Worlds 2018 Riot Games Megapcmx Celektus RVMathew Nelliel Apo11o MinorSonek ChaoticRed Zelq [[Pika]]
BeatmapID:1806549
BeatmapSetID:858938

[Difficulty]
HPDrainRate:5
CircleSize:3
OverallDifficulty:7
ApproachRate:8.5
SliderMultiplier:1.6
SliderTickRate:1

[Events]
//Background and Video events
0,0,"best bg ever.png",0,0
//Break Periods
//Storyboard Layer 0 (Background)
//Storyboard Layer 1 (Fail)
//Storyboard Layer 2 (Pass)
//Storyboard Layer 3 (Foreground)
Sprite,Foreground,Centre,"sb/sprites/c2.png",161,389 S,2,49829,50495,0.2,0.4 F,2,49829,50495,0.5,0 P,0,49829,50833,A
Sprite,Foreground,Centre,"sb/sprites/c2.png",199,306 S,2,50337,51003,0.2,0.4 F,2,50337,51003,0.5,0 P,0,50337,51003,A
Sprite,Foreground,Centre,"sb/sprites/c2.png",338,182 S,2,50507,51173,0.2,0.4 F,2,50507,51173,0.5,0 P,0,50507,51511,A
Sprite,Foreground,Centre,"sb/sprites/c2.png",268,236 S,2,51015,51681,0.2,0.4 F,2,51015,51681,0.5,0 P,0,51015,51681,A
Sprite,Foreground,Centre,"sb/sprites/c2.png",453,123 S,2,51185,51851,0.2,0.4 F,2,51185,51851,0.5,0 P,0,51185,52189,A
Sprite,Foreground,Centre,"sb/sprites/c2.png",405,375 S,2,51693,52359,0.2,0.4 F,2,51693,52359,0.5,0 P,0,51693,52359,A
Sprite,Foreground,Centre,"sb/sprites/c2.png",313,178 S,2,51863,52529,0.2,0.4 F,2,51863,52529,0.5,0 P,0,51863,52867,A
Sprite,Foreground,Centre,"sb/sprites/c2.png",152,297 S,2,52371,53037,0.2,0.4 F,2,52371,53037,0.5,0 P,0,52371,53037,A
Sprite,Foreground,Centre,"sb/sprites/c2.png",313,178 S,2,52541,53207,0.2,0.4 F,2,52541,53207,0.5,0 P,0,52541,53545,A
Sprite,Foreground,Centre,"sb/sprites/c2.png",490,150 S,2,53049,53715,0.2,0.4 F,2,53049,53715,0.5,0 P,0,53049,53715,A
Sprite,Foreground,Centre,"sb/sprites/c2.png",342,273 S,2,53219,53885,0.2,0.4 F,2,53219,53885,0.5,0 P,0,53219,54054,A
Sprite,Foreground,Centre,"sb/sprites/c2.png",132,247 S,2,53558,54224,0.2,0.4 F,2,53558,54224,0.5,0 P,0,53558,54224,A
Sprite,Foreground,Centre,"sb/sprites/c2.png",132,247 S,2,53727,54393,0.2,0.4 F,2,53727,54393,0.5,0 P,0,53727,54393,A
Sprite,Foreground,Centre,"sb/sprites/c2.png",160,91 S,2,53897,54563,0.2,0.4 F,2,53897,54563,0.5,0 P,0,53897,55071,A
Sprite,Foreground,Centre,"sb/sprites/c2.png",313,178 S,2,54575,55241,0.2,0.4 F,2,54575,55241,0.5,0 P,0,54575,55241,A
Sprite,Foreground,Centre,"sb/sprites/c2.png",313,178 S,2,54914,55580,0.2,0.4 F,2,54914,55580,0.5,0 P,0,54914,55580,A
Sprite,Foreground,Centre,"sb/sprites/c2.png",494,80 S,2,55253,55919,0.2,0.4 F,2,55253,55919,0.5,0 P,0,55253,56088,A
Sprite,Foreground,Centre,"sb/sprites/c2.png",545,279 S,2,55592,56258,0.2,0.4 F,2,55592,56258,0.5,0 P,0,55592,56427,A
Sprite,Foreground,Centre,"sb/sprites/c2.png",328,203 S,2,55931,56597,0.2,0.4 F,2,55931,56597,0.5,0 P,0,55931,56935,A
Sprite,Foreground,Centre,"sb/sprites/c2.png",204,174 S,2,56439,57105,0.2,0.4 F,2,56439,57105,0.5,0 P,0,56439,57105,A
Sprite,Foreground,Centre,"sb/sprites/c2.png",108,314 S,2,56608,57274,0.2,0.4 F,2,56608,57274,0.5,0 P,0,56608,57443,A
Sprite,Foreground,Centre,"sb/sprites/c2.png",215,360 S,2,56947,57613,0.2,0.4 F,2,56947,57613,0.5,0 P,0,56947,57782,A
Sprite,Foreground,Centre,"sb/sprites/c2.png",442,228 S,2,57286,57952,0.2,0.4 F,2,57286,57952,0.5,0 P,0,57286,57952,A
Sprite,Foreground,Centre,"sb/sprites/c2.png",285,294 S,2,57456,58122,0.2,0.4 F,2,57456,58122,0.5,0 P,0,57456,58122,A
Sprite,Foreground,Centre,"sb/sprites/c2.png",407,402 S,2,57625,58291,0.2,0.4 F,2,57625,58291,0.5,0 P,0,57625,58460,A
Sprite,Foreground,Centre,"sb/sprites/c2.png",361,195 S,2,57964,58630,0.2,0.4 F,2,57964,58630,0.5,0 P,0,57964,58968,A
Sprite,Foreground,Centre,"sb/sprites/c2.png",537,225 S,2,58473,59139,0.2,0.4 F,2,58473,59139,0.5,0 P,0,58473,59139,A
Sprite,Foreground,Centre,"sb/sprites/c2.png",411,102 S,2,58642,59308,0.2,0.4 F,2,58642,59308,0.5,0 P,0,58642,59646,A
Sprite,Foreground,Centre,"sb/sprites/c2.png",92,168 S,2,59151,59817,0.2,0.4 F,2,59151,59817,0.5,0 P,0,59151,59817,A
Sprite,Foreground,Centre,"sb/sprites/c2.png",250,231 S,2,59320,59986,0.2,0.4 F,2,59320,59986,0.5,0 P,0,59320,59986,A
Sprite,Foreground,Centre,"sb/sprites/c2.png",203,93 S,2,59490,60156,0.2,0.4 F,2,59490,60156,0.5,0 P,0,59490,60156,A
Sprite,Foreground,Centre,"sb/sprites/c2.png",150,233 S,2,59659,60325,0.2,0.4 F,2,59659,60325,0.5,0 P,0,59659,60494,A
Sprite,Foreground,Centre,"sb/sprites/c2.png",368,206 S,2,59998,60664,0.2,0.4 F,2,59998,60664,0.5,0 P,0,59998,60833,A
Sprite,Foreground,Centre,"sb/sprites/c2.png",323,311 S,2,60337,61003,0.2,0.4 F,2,60337,61003,0.5,0 P,0,60337,61172,A
Sprite,Foreground,Centre,"sb/sprites/c2.png",515,155 S,2,60676,61342,0.2,0.4 F,2,60676,61342,0.5,0 P,0,60676,61680,A
Sprite,Foreground,Centre,"sb/sprites/c2.png",397,194 S,2,61185,61851,0.2,0.4 F,2,61185,61851,0.5,0 P,0,61185,61851,A
Sprite,Foreground,Centre,"sb/sprites/c2.png",304,406 S,2,61354,62020,0.2,0.4 F,2,61354,62020,0.5,0 P,0,61354,62358,A
Sprite,Foreground,Centre,"sb/sprites/c2.png",222,342 S,2,61863,62529,0.2,0.4 F,2,61863,62529,0.5,0 P,0,61863,62529,A
Sprite,Foreground,Centre,"sb/sprites/c2.png",98,170 S,2,62032,62698,0.2,0.4 F,2,62032,62698,0.5,0 P,0,62032,63036,A
Sprite,Foreground,Centre,"sb/sprites/c2.png",177,201 S,2,62541,63207,0.2,0.4 F,2,62541,63207,0.5,0 P,0,62541,63207,A
Sprite,Foreground,Centre,"sb/sprites/c2.png",237,378 S,2,62710,63376,0.2,0.4 F,2,62710,63376,0.5,0 P,0,62710,63714,A
Sprite,Foreground,Centre,"sb/sprites/c2.png",167,231 S,2,63219,63885,0.2,0.4 F,2,63219,63885,0.5,0 P,0,63219,63885,A
Sprite,Foreground,Centre,"sb/sprites/c2.png",296,123 S,2,63388,64054,0.2,0.4 F,2,63388,64054,0.5,0 P,0,63388,64392,A
Sprite,Foreground,Centre,"sb/sprites/c2.png",449,73 S,2,63897,64563,0.2,0.4 F,2,63897,64563,0.5,0 P,0,63897,64563,A
Sprite,Foreground,Centre,"sb/sprites/c2.png",317,226 S,2,64066,64732,0.2,0.4 F,2,64066,64732,0.5,0 P,0,64066,64901,A
Sprite,Foreground,Centre,"sb/sprites/c2.png",317,434 S,2,64405,65071,0.2,0.4 F,2,64405,65071,0.5,0 P,0,64405,65071,A
Sprite,Foreground,Centre,"sb/sprites/c2.png",317,434 S,2,64575,65241,0.2,0.4 F,2,64575,65241,0.5,0 P,0,64575,65241,A
Sprite,Foreground,Centre,"sb/sprites/c2.png",422,299 S,2,64744,65410,0.2,0.4 F,2,64744,65410,0.5,0 P,0,64744,65918,A
Sprite,Foreground,Centre,"sb/sprites/c2.png",462,427 S,2,65422,66088,0.2,0.4 F,2,65422,66088,0.5,0 P,0,65422,66088,A
Sprite,Foreground,Centre,"sb/sprites/c2.png",462,427 S,2,65761,66427,0.2,0.4 F,2,65761,66427,0.5,0 P,0,65761,66427,A
Sprite,Foreground,Centre,"sb/sprites/c2.png",282,345 S,2,66100,66766,0.2,0.4 F,2,66100,66766,0.5,0 P,0,66100,66935,A
Sprite,Foreground,Centre,"sb/sprites/c2.png",312,250 S,2,66439,67105,0.2,0.4 F,2,66439,67105,0.5,0 P,0,66439,67274,A
Sprite,Foreground,Centre,"sb/sprites/c2.png",143,151 S,2,66778,67444,0.2,0.4 F,2,66778,67444,0.5,0 P,0,66778,67782,A
Sprite,Foreground,Centre,"sb/sprites/c2.png",97,73 S,2,67286,67952,0.2,0.4 F,2,67286,67952,0.5,0 P,0,67286,67952,A
Sprite,Foreground,Centre,"sb/sprites/c2.png",106,289 S,2,67456,68122,0.2,0.4 F,2,67456,68122,0.5,0 P,0,67456,68291,A
Sprite,Foreground,Centre,"sb/sprites/c2.png",352,158 S,2,67795,68461,0.2,0.4 F,2,67795,68461,0.5,0 P,0,67795,68630,A
Sprite,Foreground,Centre,"sb/sprites/c2.png",412,402 S,2,68134,68800,0.2,0.4 F,2,68134,68800,0.5,0 P,0,68134,68800,A
Sprite,Foreground,Centre,"sb/sprites/c2.png",409,233 S,2,68303,68969,0.2,0.4 F,2,68303,68969,0.5,0 P,0,68303,68969,A
Sprite,Foreground,Centre,"sb/sprites/c2.png",305,403 S,2,68473,69139,0.2,0.4 F,2,68473,69139,0.5,0 P,0,68473,69308,A
Sprite,Foreground,Centre,"sb/sprites/c2.png",103,295 S,2,68812,69478,0.2,0.4 F,2,68812,69478,0.5,0 P,0,68812,69816,A
Sprite,Foreground,Centre,"sb/sprites/c2.png",263,84 S,2,69320,69986,0.2,0.4 F,2,69320,69986,0.5,0 P,0,69320,69986,A
Sprite,Foreground,Centre,"sb/sprites/c2.png",147,217 S,2,69490,70156,0.2,0.4 F,2,69490,70156,0.5,0 P,0,69490,70494,A
Sprite,Foreground,Centre,"sb/sprites/c2.png",511,342 S,2,69998,70664,0.2,0.4 F,2,69998,70664,0.5,0 P,0,69998,70664,A
Sprite,Foreground,Centre,"sb/sprites/c2.png",388,312 S,2,93219,93885,0.2,0.4 F,2,93219,93885,0.5,0 P,0,93219,94223,A
Sprite,Foreground,Centre,"sb/sprites/c2.png",169,158 S,2,93727,94393,0.2,0.4 F,2,93727,94393,0.5,0 P,0,93727,94393,A
Sprite,Foreground,Centre,"sb/sprites/c2.png",117,321 S,2,93897,94563,0.2,0.4 F,2,93897,94563,0.5,0 P,0,93897,94901,A
Sprite,Foreground,Centre,"sb/sprites/c2.png",240,248 S,2,94405,95071,0.2,0.4 F,2,94405,95071,0.5,0 P,0,94405,95071,A
Sprite,Foreground,Centre,"sb/sprites/c2.png",77,405 S,2,94575,95241,0.2,0.4 F,2,94575,95241,0.5,0 P,0,94575,95410,A
Sprite,Foreground,Centre,"sb/sprites/c2.png",257,225 S,2,94914,95580,0.2,0.4 F,2,94914,95580,0.5,0 P,0,94914,95749,A
Sprite,Foreground,Centre,"sb/sprites/c2.png",325,119 S,2,95253,95919,0.2,0.4 F,2,95253,95919,0.5,0 P,0,95253,96257,A
Sprite,Foreground,Centre,"sb/sprites/c2.png",257,225 S,2,95761,96427,0.2,0.4 F,2,95761,96427,0.5,0 P,0,95761,96427,A
Sprite,Foreground,Centre,"sb/sprites/c2.png",416,129 S,2,95931,96597,0.2,0.4 F,2,95931,96597,0.5,0 P,0,95931,96935,A
Sprite,Foreground,Centre,"sb/sprites/c2.png",483,249 S,2,96439,97105,0.2,0.4 F,2,96439,97105,0.5,0 P,0,96439,97105,A
Sprite,Foreground,Centre,"sb/sprites/c2.png",325,119 S,2,96608,97274,0.2,0.4 F,2,96608,97274,0.5,0 P,0,96608,97443,A
Sprite,Foreground,Centre,"sb/sprites/c2.png",297,373 S,2,96947,97613,0.2,0.4 F,2,96947,97613,0.5,0 P,0,96947,97613,A
Sprite,Foreground,Centre,"sb/sprites/c2.png",297,373 S,2,97117,97783,0.2,0.4 F,2,97117,97783,0.5,0 P,0,97117,97783,A
Sprite,Foreground,Centre,"sb/sprites/c2.png",176,301 S,2,97286,97952,0.2,0.4 F,2,97286,97952,0.5,0 P,0,97286,98460,A
Sprite,Foreground,Centre,"sb/sprites/c2.png",316,206 S,2,97964,98630,0.2,0.4 F,2,97964,98630,0.5,0 P,0,97964,98630,A
Sprite,Foreground,Centre,"sb/sprites/c2.png",316,206 S,2,98303,98969,0.2,0.4 F,2,98303,98969,0.5,0 P,0,98303,98969,A
Sprite,Foreground,Centre,"sb/sprites/c2.png",438,301 S,2,98642,99308,0.2,0.4 F,2,98642,99308,0.5,0 P,0,98642,99646,A
Sprite,Foreground,Centre,"sb/sprites/c2.png",369,59 S,2,99151,99817,0.2,0.4 F,2,99151,99817,0.5,0 P,0,99151,99817,A
Sprite,Foreground,Centre,"sb/sprites/c2.png",292,247 S,2,99320,99986,0.2,0.4 F,2,99320,99986,0.5,0 P,0,99320,100324,A
Sprite,Foreground,Centre,"sb/sprites/c2.png",201,188 S,2,99829,100495,0.2,0.4 F,2,99829,100495,0.5,0 P,0,99829,100495,A
Sprite,Foreground,Centre,"sb/sprites/c2.png",312,372 S,2,99998,100664,0.2,0.4 F,2,99998,100664,0.5,0 P,0,99998,100833,A
Sprite,Foreground,Centre,"sb/sprites/c2.png",409,142 S,2,100337,101003,0.2,0.4 F,2,100337,101003,0.5,0 P,0,100337,101172,A
Sprite,Foreground,Centre,"sb/sprites/c2.png",557,365 S,2,100676,101342,0.2,0.4 F,2,100676,101342,0.5,0 P,0,100676,101342,A
Sprite,Foreground,Centre,"sb/sprites/c2.png",467,216 S,2,100846,101512,0.2,0.4 F,2,100846,101512,0.5,0 P,0,100846,101512,A
Sprite,Foreground,Centre,"sb/sprites/c2.png",415,375 S,2,101015,101681,0.2,0.4 F,2,101015,101681,0.5,0 P,0,101015,101850,A
Sprite,Foreground,Centre,"sb/sprites/c2.png",243,224 S,2,101354,102020,0.2,0.4 F,2,101354,102020,0.5,0 P,0,101354,102358,A
Sprite,Foreground,Centre,"sb/sprites/c2.png",198,434 S,2,101863,102529,0.2,0.4 F,2,101863,102529,0.5,0 P,0,101863,102529,A
Sprite,Foreground,Centre,"sb/sprites/c2.png",167,263 S,2,102032,102698,0.2,0.4 F,2,102032,102698,0.5,0 P,0,102032,103036,A
Sprite,Foreground,Centre,"sb/sprites/c2.png",250,115 S,2,102541,103207,0.2,0.4 F,2,102541,103207,0.5,0 P,0,102541,103207,A
Sprite,Foreground,Centre,"sb/sprites/c2.png",81,225 S,2,102710,103376,0.2,0.4 F,2,102710,103376,0.5,0 P,0,102710,103545,A
Sprite,Foreground,Centre,"sb/sprites/c2.png",243,224 S,2,103049,103715,0.2,0.4 F,2,103049,103715,0.5,0 P,0,103049,103715,A
Sprite,Foreground,Centre,"sb/sprites/c2.png",102,139 S,2,103219,103885,0.2,0.4 F,2,103219,103885,0.5,0 P,0,103219,103885,A
Sprite,Foreground,Centre,"sb/sprites/c2.png",166,274 S,2,103388,104054,0.2,0.4 F,2,103388,104054,0.5,0 P,0,103388,104054,A
Sprite,Foreground,Centre,"sb/sprites/c2.png",250,115 S,2,103558,104224,0.2,0.4 F,2,103558,104224,0.5,0 P,0,103558,104224,A
Sprite,Foreground,Centre,"sb/sprites/c2.png",339,262 S,2,103727,104393,0.2,0.4 F,2,103727,104393,0.5,0 P,0,103727,104562,A
Sprite,Foreground,Centre,"sb/sprites/c2.png",408,188 S,2,104066,104732,0.2,0.4 F,2,104066,104732,0.5,0 P,0,104066,105070,A
Sprite,Foreground,Centre,"sb/sprites/c2.png",424,270 S,2,104575,105241,0.2,0.4 F,2,104575,105241,0.5,0 P,0,104575,105241,A
Sprite,Foreground,Centre,"sb/sprites/c2.png",367,88 S,2,104744,105410,0.2,0.4 F,2,104744,105410,0.5,0 P,0,104744,105748,A
Sprite,Foreground,Centre,"sb/sprites/c2.png",483,212 S,2,105253,105919,0.2,0.4 F,2,105253,105919,0.5,0 P,0,105253,105919,A
Sprite,Foreground,Centre,"sb/sprites/c2.png",298,173 S,2,105422,106088,0.2,0.4 F,2,105422,106088,0.5,0 P,0,105422,106257,A
Sprite,Foreground,Centre,"sb/sprites/c2.png",312,349 S,2,105761,106427,0.2,0.4 F,2,105761,106427,0.5,0 P,0,105761,106596,A
Sprite,Foreground,Centre,"sb/sprites/c2.png",184,267 S,2,106100,106766,0.2,0.4 F,2,106100,106766,0.5,0 P,0,106100,107104,A
Sprite,Foreground,Centre,"sb/sprites/c2.png",213,186 S,2,106608,107274,0.2,0.4 F,2,106608,107274,0.5,0 P,0,106608,107274,A
Sprite,Foreground,Centre,"sb/sprites/c2.png",64,352 S,2,106778,107444,0.2,0.4 F,2,106778,107444,0.5,0 P,0,106778,107782,A
Sprite,Foreground,Centre,"sb/sprites/c2.png",229,331 S,2,107286,107952,0.2,0.4 F,2,107286,107952,0.5,0 P,0,107286,107952,A
Sprite,Foreground,Centre,"sb/sprites/c2.png",298,173 S,2,107456,108122,0.2,0.4 F,2,107456,108122,0.5,0 P,0,107456,108291,A
Sprite,Foreground,Centre,"sb/sprites/c2.png",541,184 S,2,107795,108461,0.2,0.4 F,2,107795,108461,0.5,0 P,0,107795,108461,A
Sprite,Foreground,Centre,"sb/sprites/c2.png",541,184 S,2,107964,108630,0.2,0.4 F,2,107964,108630,0.5,0 P,0,107964,108630,A
Sprite,Foreground,Centre,"sb/sprites/c2.png",374,86 S,2,108134,108800,0.2,0.4 F,2,108134,108800,0.5,0 P,0,108134,109308,A
Sprite,Foreground,Centre,"sb/sprites/c2.png",422,247 S,2,108812,109478,0.2,0.4 F,2,108812,109478,0.5,0 P,0,108812,109478,A
Sprite,Foreground,Centre,"sb/sprites/c2.png",422,247 S,2,109151,109817,0.2,0.4 F,2,109151,109817,0.5,0 P,0,109151,109817,A
Sprite,Foreground,Centre,"sb/sprites/c2.png",551,83 S,2,109490,110156,0.2,0.4 F,2,109490,110156,0.5,0 P,0,109490,110325,A
Sprite,Foreground,Centre,"sb/sprites/c2.png",329,287 S,2,109829,110495,0.2,0.4 F,2,109829,110495,0.5,0 P,0,109829,110664,A
Sprite,Foreground,Centre,"sb/sprites/c2.png",462,416 S,2,110168,110834,0.2,0.4 F,2,110168,110834,0.5,0 P,0,110168,111172,A
Sprite,Foreground,Centre,"sb/sprites/c2.png",350,410 S,2,110676,111342,0.2,0.4 F,2,110676,111342,0.5,0 P,0,110676,111342,A
Sprite,Foreground,Centre,"sb/sprites/c2.png",240,271 S,2,110846,111512,0.2,0.4 F,2,110846,111512,0.5,0 P,0,110846,111681,A
Sprite,Foreground,Centre,"sb/sprites/c2.png",419,142 S,2,111185,111851,0.2,0.4 F,2,111185,111851,0.5,0 P,0,111185,112020,A
Sprite,Foreground,Centre,"sb/sprites/c2.png",176,109 S,2,111524,112190,0.2,0.4 F,2,111524,112190,0.5,0 P,0,111524,112528,A
Sprite,Foreground,Centre,"sb/sprites/c2.png",302,101 S,2,112032,112698,0.2,0.4 F,2,112032,112698,0.5,0 P,0,112032,112698,A
Sprite,Foreground,Centre,"sb/sprites/c2.png",421,245 S,2,112202,112868,0.2,0.4 F,2,112202,112868,0.5,0 P,0,112202,113206,A
Sprite,Foreground,Centre,"sb/sprites/c2.png",396,120 S,2,112710,113376,0.2,0.4 F,2,112710,113376,0.5,0 P,0,112710,113376,A
Sprite,Foreground,Centre,"sb/sprites/c2.png",357,311 S,2,112880,113546,0.2,0.4 F,2,112880,113546,0.5,0 P,0,112880,113715,A
Sprite,Foreground,Centre,"sb/sprites/c2.png",153,195 S,2,113219,113885,0.2,0.4 F,2,113219,113885,0.5,0 P,0,113219,114054,A
Sprite,Foreground,Centre,"sb/sprites/c2.png",385,293 S,2,113558,114224,0.2,0.4 F,2,113558,114224,0.5,0 P,0,113558,114224,A
Sprite,Foreground,Centre,"sb/sprites/c2.png",172,334 S,2,113727,114393,0.2,0.4 F,2,113727,114393,0.5,0 P,0,113727,114393,A
Sprite,Foreground,Centre,"sb/sprites/c2.png",256,192 S,2,113897,114563,0.2,0.4 F,2,113897,114563,0.5,0 P,0,113897,114563,A
Sprite,Foreground,Centre,"sb/sprites/c2.png",303,390 S,2,114066,114732,0.2,0.4 F,2,114066,114732,0.5,0 P,0,114066,114732,A
Sprite,Foreground,Centre,"sb/sprites/c2.png",390,160 S,2,114236,114902,0.2,0.4 F,2,114236,114902,0.5,0 P,0,114236,115071,A
Sprite,Foreground,Centre,"sb/sprites/c2.png",300,110 S,2,114575,115241,0.2,0.4 F,2,114575,115241,0.5,0 P,0,114575,115410,A
Sprite,Foreground,Centre,"sb/sprites/c2.png",183,247 S,2,125761,126427,0.2,0.4 F,2,125761,126427,0.5,0 P,0,125761,126765,A
Sprite,Foreground,Centre,"sb/sprites/c2.png",262,229 S,2,126269,126935,0.2,0.4 F,2,126269,126935,0.5,0 P,0,126269,126935,A
Sprite,Foreground,Centre,"sb/sprites/c2.png",367,363 S,2,126439,127105,0.2,0.4 F,2,126439,127105,0.5,0 P,0,126439,127443,A
Sprite,Foreground,Centre,"sb/sprites/c2.png",401,166 S,2,126947,127613,0.2,0.4 F,2,126947,127613,0.5,0 P,0,126947,127613,A
Sprite,Foreground,Centre,"sb/sprites/c2.png",290,308 S,2,127117,127783,0.2,0.4 F,2,127117,127783,0.5,0 P,0,127117,127952,A
Sprite,Foreground,Centre,"sb/sprites/c2.png",372,86 S,2,127456,128122,0.2,0.4 F,2,127456,128122,0.5,0 P,0,127456,128291,A
Sprite,Foreground,Centre,"sb/sprites/c2.png",201,91 S,2,127795,128461,0.2,0.4 F,2,127795,128461,0.5,0 P,0,127795,128799,A
Sprite,Foreground,Centre,"sb/sprites/c2.png",284,65 S,2,128303,128969,0.2,0.4 F,2,128303,128969,0.5,0 P,0,128303,128969,A
Sprite,Foreground,Centre,"sb/sprites/c2.png",400,165 S,2,128473,129139,0.2,0.4 F,2,128473,129139,0.5,0 P,0,128473,129647,A
Sprite,Foreground,Centre,"sb/sprites/c2.png",296,300 S,2,129151,129817,0.2,0.4 F,2,129151,129817,0.5,0 P,0,129151,130155,A
Sprite,Foreground,Centre,"sb/sprites/c2.png",327,219 S,2,129659,130325,0.2,0.4 F,2,129659,130325,0.5,0 P,0,129659,130325,A
Sprite,Foreground,Centre,"sb/sprites/c2.png",281,400 S,2,129829,130495,0.2,0.4 F,2,129829,130495,0.5,0 P,0,129829,130495,A
Sprite,Foreground,Centre,"sb/sprites/c2.png",417,281 S,2,129998,130664,0.2,0.4 F,2,129998,130664,0.5,0 P,0,129998,130664,A
Sprite,Foreground,Centre,"sb/sprites/c2.png",212,285 S,2,130168,130834,0.2,0.4 F,2,130168,130834,0.5,0 P,0,130168,130834,A
Sprite,Foreground,Centre,"sb/sprites/c2.png",389,371 S,2,130337,131003,0.2,0.4 F,2,130337,131003,0.5,0 P,0,130337,131003,A
Sprite,Foreground,Centre,"sb/sprites/c2.png",147,373 S,2,130507,131173,0.2,0.4 F,2,130507,131173,0.5,0 P,0,130507,131173,A
Sprite,Foreground,Centre,"sb/sprites/c2.png",95,287 S,2,131185,131851,0.2,0.4 F,2,131185,131851,0.5,0 P,0,131185,132020,A
Sprite,Foreground,Centre,"sb/sprites/c2.png",302,361 S,2,131524,132190,0.2,0.4 F,2,131524,132190,0.5,0 P,0,131524,132359,A
Sprite,Foreground,Centre,"sb/sprites/c2.png",362,164 S,2,131863,132529,0.2,0.4 F,2,131863,132529,0.5,0 P,0,131863,132867,A
Sprite,Foreground,Centre,"sb/sprites/c2.png",451,113 S,2,132371,133037,0.2,0.4 F,2,132371,133037,0.5,0 P,0,132371,133037,A
Sprite,Foreground,Centre,"sb/sprites/c2.png",568,334 S,2,132541,133207,0.2,0.4 F,2,132541,133207,0.5,0 P,0,132541,133376,A
Sprite,Foreground,Centre,"sb/sprites/c2.png",304,418 S,2,132880,133546,0.2,0.4 F,2,132880,133546,0.5,0 P,0,132880,133715,A
Sprite,Foreground,Centre,"sb/sprites/c2.png",226,172 S,2,133219,133885,0.2,0.4 F,2,133219,133885,0.5,0 P,0,133219,134223,A
Sprite,Foreground,Centre,"sb/sprites/c2.png",373,147 S,2,133727,134393,0.2,0.4 F,2,133727,134393,0.5,0 P,0,133727,134393,A
Sprite,Foreground,Centre,"sb/sprites/c2.png",471,303 S,2,133897,134563,0.2,0.4 F,2,133897,134563,0.5,0 P,0,133897,134901,A
Sprite,Foreground,Centre,"sb/sprites/c2.png",447,199 S,2,134405,135071,0.2,0.4 F,2,134405,135071,0.5,0 P,0,134405,135071,A
Sprite,Foreground,Centre,"sb/sprites/c2.png",523,410 S,2,134575,135241,0.2,0.4 F,2,134575,135241,0.5,0 P,0,134575,135579,A
Sprite,Foreground,Centre,"sb/sprites/c2.png",372,385 S,2,135083,135749,0.2,0.4 F,2,135083,135749,0.5,0 P,0,135083,135749,A
Sprite,Foreground,Centre,"sb/sprites/c2.png",314,187 S,2,135253,135919,0.2,0.4 F,2,135253,135919,0.5,0 P,0,135253,135919,A
Sprite,Foreground,Centre,"sb/sprites/c2.png",471,303 S,2,135422,136088,0.2,0.4 F,2,135422,136088,0.5,0 P,0,135422,136088,A
Sprite,Foreground,Centre,"sb/sprites/c2.png",276,296 S,2,135592,136258,0.2,0.4 F,2,135592,136258,0.5,0 P,0,135592,136427,A
Sprite,Foreground,Centre,"sb/sprites/c2.png",130,158 S,2,135931,136597,0.2,0.4 F,2,135931,136597,0.5,0 P,0,135931,136766,A
Sprite,Foreground,Centre,"sb/sprites/c2.png",67,317 S,2,136269,136935,0.2,0.4 F,2,136269,136935,0.5,0 P,0,136269,137104,A
Sprite,Foreground,Centre,"sb/sprites/c.png",0,0 C,0,17286,,255,255,255 F,0,17286,,0.9 S,7,17286,18396,0.2,0.6 F,0,17287,18397,0.9,0 M,0,17286,,500,410 R,22,17287,18397,0,2 P,0,17286,18396,A C,0,19998,,255,255,255 F,0,19998,,0.9 S,7,19998,21108,0.2,0.6 F,0,19999,21109,0.9,0 M,0,19998,,304,349 R,22,19999,21109,0,-1 P,0,19998,21108,A C,0,22710,,255,255,255 F,0,22710,,0.9 S,7,22710,23820,0.2,0.6 F,0,22711,23821,0.9,0 M,0,22710,,318,257 R,22,22711,23821,0,-3 P,0,22710,23820,A C,0,25422,,255,255,255 F,0,25422,,0.9 S,7,25422,26532,0.2,0.6 F,0,25423,26533,0.9,0 M,0,25422,,535,265 R,22,25423,26533,0,3 P,0,25422,26532,A C,0,28134,,255,255,255 F,0,28134,,0.9 S,7,28134,29244,0.2,0.6 F,0,28135,29245,0.9,0 M,0,28134,,285,183 R,22,28135,29245,0,-4 P,0,28134,29244,A C,0,30846,,255,255,255 F,0,30846,,0.9 S,7,30846,31956,0.2,0.6 F,0,30847,31957,0.9,0 M,0,30846,,474,66 R,22,30847,31957,0,-2 P,0,30846,31956,A C,0,33558,,255,255,255 F,0,33558,,0.9 S,7,33558,34668,0.2,0.6 F,0,33559,34669,0.9,0 M,0,33558,,525,346 R,22,33559,34669,0,2 P,0,33558,34668,A C,0,36269,,255,255,255 F,0,36269,,0.9 S,7,36269,37379,0.2,0.6 F,0,36270,37380,0.9,0 M,0,36269,,247,197 R,22,36270,37380,0,-1 P,0,36269,37379,A C,0,38981,,255,255,255 F,0,38981,,0.9 S,7,38981,40091,0.2,0.6 F,0,38982,40092,0.9,0 M,0,38981,,186,387 R,22,38982,40092,0,-3 P,0,38981,40091,A C,0,41693,,255,255,255 F,0,41693,,0.9 S,7,41693,42803,0.2,0.6 F,0,41694,42804,0.9,0 M,0,41693,,371,307 R,22,41694,42804,0,-4 P,0,41693,42803,A C,0,44405,,255,255,255 F,0,44405,,0.9 S,7,44405,45515,0.2,0.6 F,0,44406,45516,0.9,0 M,0,44405,,156,300 R,22,44406,45516,0,2 P,0,44405,45515,A C,0,47117,,255,255,255 F,0,47117,,0.9 S,7,47117,48227,0.2,0.6 F,0,47118,48228,0.9,0 M,0,47117,,457,269 R,22,47118,48228,0,-4 P,0,47117,48227,A C,0,71524,,255,255,255 F,0,71524,,0.9 S,7,71524,72634,0.2,0.6 F,0,71525,72635,0.9,0 M,0,71524,,375,196 R,22,71525,72635,0,-4 P,0,71524,72634,A C,0,74236,,255,255,255 F,0,74236,,0.9 S,7,74236,75346,0.2,0.6 F,0,74237,75347,0.9,0 M,0,74236,,298,187 R,22,74237,75347,0 P,0,74236,75346,A C,0,76947,,255,255,255 F,0,76947,,0.9 S,7,76947,78057,0.2,0.6 F,0,76948,78058,0.9,0 M,0,76947,,91,208 R,22,76948,78058,0,-1 P,0,76947,78057,A
Sprite,Foreground,Centre,"sb/sprites/c.png",0,0 C,0,79659,,255,255,255 F,0,79659,,0.9 S,7,79659,80769,0.2,0.6 F,0,79660,80770,0.9,0 M,0,79659,,277,278 R,22,79660,80770,0,-2 P,0,79659,80769,A C,0,82371,,255,255,255 F,0,82371,,0.9 S,7,82371,83481,0.2,0.6 F,0,82372,83482,0.9,0 M,0,82371,,455,85 R,22,82372,83482,0,1 P,0,82371,83481,A C,0,85083,,255,255,255 F,0,85083,,0.9 S,7,85083,86193,0.2,0.6 F,0,85084,86194,0.9,0 M,0,85083,,275,367 R,22,85084,86194,0,-3 P,0,85083,86193,A C,0,87795,,255,255,255 F,0,87795,,0.9 S,7,87795,88905,0.2,0.6 F,0,87796,88906,0.9,0 M,0,87795,,437,79 R,22,87796,88906,0,1 P,0,87795,88905,A C,0,90507,,255,255,255 F,0,90507,,0.9 S,7,90507,91617,0.2,0.6 F,0,90508,91618,0.9,0 M,0,90507,,496,83 R,22,90508,91618,0,-4 P,0,90507,91617,A C,0,124405,,255,255,255 F,0,124405,,0.9 S,7,124405,125515,0.2,0.6 F,0,124406,125516,0.9,0 M,0,124405,,330,280 R,22,124406,125516,0,-4 P,0,124405,125515,A
Sprite,Foreground,Centre,"sb/sprites/c.png",0,0 C,0,124575,,255,255,255 F,0,124575,,0.9 S,7,124575,125685,0.2,0.6 F,0,124576,125686,0.9,0 M,0,124575,,297,126 R,22,124576,125686,0,-2 P,0,124575,125685,A
Sprite,Foreground,Centre,"sb/sprites/c.png",0,0 C,0,124744,,255,255,255 F,0,124744,,0.9 S,7,124744,125854,0.2,0.6 F,0,124745,125855,0.9,0 M,0,124744,,233,314 R,22,124745,125855,0,-2 P,0,124744,125854,A
Sprite,Foreground,Centre,"sb/sprites/c.png",0,0 C,0,124914,,255,255,255 F,0,124914,,0.9 S,7,124914,126024,0.2,0.6 F,0,124915,126025,0.9,0 M,0,124914,,401,166 R,22,124915,126025,0,1 P,0,124914,126024,A
Sprite,Foreground,Centre,"sb/sprites/c.png",0,0 C,0,125083,,255,255,255 F,0,125083,,0.9 S,7,125083,126193,0.2,0.6 F,0,125084,126194,0.9,0 M,0,125083,,202,154 R,22,125084,126194,0,3 P,0,125083,126193,A
Sprite,Foreground,Centre,"sb/sprites/c.png",0,0 C,0,125422,,255,255,255 F,0,125422,,0.9 S,7,125422,126532,0.2,0.6 F,0,125423,126533,0.9,0 M,0,125422,,330,280 R,22,125423,126533,0,2 P,0,125422,126532,A
Sprite,Foreground,Centre,"sb/sprites/hb.png",0,240 C,21,49830,50940,255,0,0,255,255,255 F,0,49830,50940,0.7,0 MX,0,49829,,161 L,49830,17 V,2,0,20,1.2,1.313,1.6,1.313 V,2,20,40,1.6,1.313,1.2,1.313 L,50676,1 V,2,0,338,1.2,1.313,0.05,1.313 P,0,49829,50939,A C,21,51186,52296,255,0,0,255,255,255 F,0,51186,52296,0.7,0 MX,0,51185,,453 L,51186,17 V,2,0,20,1.2,1.313,1.6,1.313 V,2,20,40,1.6,1.313,1.2,1.313 L,52032,1 V,2,0,338,1.2,1.313,0.05,1.313 P,0,51185,52295,A C,21,52542,53652,255,0,0,255,255,255 F,0,52542,53652,0.7,0 MX,0,52541,,313 L,52542,17 V,2,0,20,1.2,1.313,1.6,1.313 V,2,20,40,1.6,1.313,1.2,1.313 L,53388,1 V,2,0,338,1.2,1.313,0.05,1.313 P,0,52541,53651,A C,21,55254,56364,255,0,0,255,255,255 F,0,55254,56364,0.7,0 MX,0,55253,,494 L,55254,17 V,2,0,20,1.2,1.313,1.6,1.313 V,2,20,40,1.6,1.313,1.2,1.313 L,56100,1 V,2,0,338,1.2,1.313,0.05,1.313 P,0,55253,56363,A C,21,56948,58058,255,0,0,255,255,255 F,0,56948,58058,0.7,0 MX,0,56947,,215 L,56948,17 V,2,0,20,1.2,1.313,1.6,1.313 V,2,20,40,1.6,1.313,1.2,1.313 L,57794,1 V,2,0,338,1.2,1.313,0.05,1.313 P,0,56947,58057,A C,21,60677,61787,255,0,0,255,255,255 F,0,60677,61787,0.7,0 MX,0,60676,,515 L,60677,17 V,2,0,20,1.2,1.313,1.6,1.313 V,2,20,40,1.6,1.313,1.2,1.313 L,61523,1 V,2,0,338,1.2,1.313,0.05,1.313 P,0,60676,61786,A C,21,62033,63143,255,0,0,255,255,255 F,0,62033,63143,0.7,0 MX,0,62032,,98 L,62033,17 V,2,0,20,1.2,1.313,1.6,1.313 V,2,20,40,1.6,1.313,1.2,1.313 L,62879,1 V,2,0,338,1.2,1.313,0.05,1.313 P,0,62032,63142,A C,21,63389,64499,255,0,0,255,255,255 F,0,63389,64499,0.7,0 MX,0,63388,,296 L,63389,17 V,2,0,20,1.2,1.313,1.6,1.313 V,2,20,40,1.6,1.313,1.2,1.313 L,64235,1 V,2,0,338,1.2,1.313,0.05,1.313 P,0,63388,64498,A C,21,66101,67211,255,0,0,255,255,255 F,0,66101,67211,0.7,0 MX,0,66100,,282 L,66101,17 V,2,0,20,1.2,1.313,1.6,1.313 V,2,20,40,1.6,1.313,1.2,1.313 L,66947,1 V,2,0,338,1.2,1.313,0.05,1.313 P,0,66100,67210,A C,21,67796,68906,255,0,0,255,255,255 F,0,67796,68906,0.7,0 MX,0,67795,,352 L,67796,17 V,2,0,20,1.2,1.313,1.6,1.313 V,2,20,40,1.6,1.313,1.2,1.313 L,68642,1 V,2,0,338,1.2,1.313,0.05,1.313 P,0,67795,68905,A C,21,93220,94330,255,0,0,255,255,255 F,0,93220,94330,0.7,0 MX,0,93219,,388 L,93220,17 V,2,0,20,1.2,1.313,1.6,1.313 V,2,20,40,1.6,1.313,1.2,1.313 L,94066,1 V,2,0,338,1.2,1.313,0.05,1.313 P,0,93219,94329,A C,21,94576,95686,255,0,0,255,255,255 F,0,94576,95686,0.7,0 MX,0,94575,,77 L,94576,17 V,2,0,20,1.2,1.313,1.6,1.313 V,2,20,40,1.6,1.313,1.2,1.313 L,95422,1 V,2,0,338,1.2,1.313,0.05,1.313 P,0,94575,95685,A C,21,95932,97042,255,0,0,255,255,255 F,0,95932,97042,0.7,0 MX,0,95931,,416 L,95932,17 V,2,0,20,1.2,1.313,1.6,1.313 V,2,20,40,1.6,1.313,1.2,1.313 L,96778,1 V,2,0,338,1.2,1.313,0.05,1.313 P,0,95931,97041,A C,21,98643,99753,255,0,0,255,255,255 F,0,98643,99753,0.7,0 MX,0,98642,,438 L,98643,17 V,2,0,20,1.2,1.313,1.6,1.313 V,2,20,40,1.6,1.313,1.2,1.313 L,99489,1 V,2,0,338,1.2,1.313,0.05,1.313 P,0,98642,99752,A C,21,100338,101448,255,0,0,255,255,255 F,0,100338,101448,0.7,0 MX,0,100337,,409 L,100338,17 V,2,0,20,1.2,1.313,1.6,1.313 V,2,20,40,1.6,1.313,1.2,1.313 L,101184,1 V,2,0,338,1.2,1.313,0.05,1.313 P,0,100337,101447,A C,21,104067,105177,255,0,0,255,255,255 F,0,104067,105177,0.7,0 MX,0,104066,,408 L,104067,17 V,2,0,20,1.2,1.313,1.6,1.313 V,2,20,40,1.6,1.313,1.2,1.313 L,104913,1 V,2,0,338,1.2,1.313,0.05,1.313 P,0,104066,105176,A C,21,105423,106533,255,0,0,255,255,255 F,0,105423,106533,0.7,0 MX,0,105422,,298 L,105423,17 V,2,0,20,1.2,1.313,1.6,1.313 V,2,20,40,1.6,1.313,1.2,1.313 L,106269,1 V,2,0,338,1.2,1.313,0.05,1.313 P,0,105422,106532,A C,21,106779,107889,255,0,0,255,255,255 F,0,106779,107889,0.7,0 MX,0,106778,,64 L,106779,17 V,2,0,20,1.2,1.313,1.6,1.313 V,2,20,40,1.6,1.313,1.2,1.313 L,107625,1 V,2,0,338,1.2,1.313,0.05,1.313 P,0,106778,107888,A C,21,109491,110601,255,0,0,255,255,255 F,0,109491,110601,0.7,0 MX,0,109490,,551 L,109491,17 V,2,0,20,1.2,1.313,1.6,1.313 V,2,20,40,1.6,1.313,1.2,1.313 L,110337,1 V,2,0,338,1.2,1.313,0.05,1.313 P,0,109490,110600,A
Sprite,Foreground,Centre,"sb/sprites/hb.png",0,240 C,21,57965,59075,255,0,0,255,255,255 F,0,57965,59075,0.7,0 MX,0,57964,,361 L,57965,17 V,2,0,20,1.2,1.313,1.6,1.313 V,2,20,40,1.6,1.313,1.2,1.313 L,58811,1 V,2,0,338,1.2,1.313,0.05,1.313 P,0,57964,59074,A C,21,68813,69923,255,0,0,255,255,255 F,0,68813,69923,0.7,0 MX,0,68812,,103 L,68813,17 V,2,0,20,1.2,1.313,1.6,1.313 V,2,20,40,1.6,1.313,1.2,1.313 L,69659,1 V,2,0,338,1.2,1.313,0.05,1.313 P,0,68812,69922,A C,21,101355,102465,255,0,0,255,255,255 F,0,101355,102465,0.7,0 MX,0,101354,,243 L,101355,17 V,2,0,20,1.2,1.313,1.6,1.313 V,2,20,40,1.6,1.313,1.2,1.313 L,102201,1 V,2,0,338,1.2,1.313,0.05,1.313 P,0,101354,102464,A C,21,111186,112296,255,0,0,255,255,255 F,0,111186,112296,0.7,0 MX,0,111185,,419 L,111186,17 V,2,0,20,1.2,1.313,1.6,1.313 V,2,20,40,1.6,1.313,1.2,1.313 L,112032,1 V,2,0,338,1.2,1.313,0.05,1.313 P,0,111185,112295,A
Sprite,Foreground,Centre,"sb/sprites/hb.png",0,240 C,21,112203,113313,255,0,0,255,255,255 F,0,112203,113313,0.7,0 MX,0,112202,,421 L,112203,17 V,2,0,20,1.2,1.313,1.6,1.313 V,2,20,40,1.6,1.313,1.2,1.313 L,113049,1 V,2,0,338,1.2,1.313,0.05,1.313 P,0,112202,113312,A C,21,125762,126872,255,0,0,255,255,255 F,0,125762,126872,0.7,0 MX,0,125761,,183 L,125762,17 V,2,0,20,1.2,1.313,1.6,1.313 V,2,20,40,1.6,1.313,1.2,1.313 L,126608,1 V,2,0,338,1.2,1.313,0.05,1.313 P,0,125761,126871,A C,21,127118,128228,255,0,0,255,255,255 F,0,127118,128228,0.7,0 MX,0,127117,,290 L,127118,17 V,2,0,20,1.2,1.313,1.6,1.313 V,2,20,40,1.6,1.313,1.2,1.313 L,127964,1 V,2,0,338,1.2,1.313,0.05,1.313 P,0,127117,128227,A C,21,128474,129584,255,0,0,255,255,255 F,0,128474,129584,0.7,0 MX,0,128473,,400 L,128474,17 V,2,0,20,1.2,1.313,1.6,1.313 V,2,20,40,1.6,1.313,1.2,1.313 L,129320,1 V,2,0,338,1.2,1.313,0.05,1.313 P,0,128473,129583,A C,21,131186,132296,255,0,0,255,255,255 F,0,131186,132296,0.7,0 MX,0,131185,,95 L,131186,17 V,2,0,20,1.2,1.313,1.6,1.313 V,2,20,40,1.6,1.313,1.2,1.313 L,132032,1 V,2,0,338,1.2,1.313,0.05,1.313 P,0,131185,132295,A C,21,132881,133991,255,0,0,255,255,255 F,0,132881,133991,0.7,0 MX,0,132880,,304 L,132881,17 V,2,0,20,1.2,1.313,1.6,1.313 V,2,20,40,1.6,1.313,1.2,1.313 L,133727,1 V,2,0,338,1.2,1.313,0.05,1.313 P,0,132880,133990,A
Sprite,Foreground,Centre,"sb/sprites/hb.png",0,240 C,21,133898,135008,255,0,0,255,255,255 F,0,133898,135008,0.7,0 MX,0,133897,,471 L,133898,17 V,2,0,20,1.2,1.313,1.6,1.313 V,2,20,40,1.6,1.313,1.2,1.313 L,134744,1 V,2,0,338,1.2,1.313,0.05,1.313 P,0,133897,135007,A
//Storyboard Sound Samples

[TimingPoints]
15931,338.983050847458,4,2,1,10,1,0
15931,-250,4,2,1,10,0,0
17286,-142.857142857143,4,2,1,40,0,0
17880,-142.857142857143,4,2,1,40,0,0
17964,-111.111111111111,4,2,1,40,0,0
18642,-142.857142857143,4,2,1,40,0,0
19236,-142.857142857143,4,2,1,40,0,0
19320,-111.111111111111,4,2,1,40,0,0
19998,-142.857142857143,4,2,1,40,0,0
20592,-142.857142857143,4,2,1,40,0,0
20676,-111.111111111111,4,2,1,40,0,0
21354,-142.857142857143,4,2,1,40,0,0
21608,-142.857142857143,4,2,1,40,0,0
21693,-142.857142857143,4,2,1,40,0,0
21947,-142.857142857143,4,2,1,40,0,0
22032,-111.111111111111,4,2,1,40,0,0
22710,-142.857142857143,4,2,1,40,0,0
23388,-111.111111111111,4,2,1,40,0,0
24066,-142.857142857143,4,2,1,40,0,0
24744,-111.111111111111,4,2,1,40,0,0
25422,-142.857142857143,4,2,1,40,0,0
26015,-142.857142857143,4,2,1,40,0,0
26100,-250,4,2,1,40,0,0
26778,-142.857142857143,4,2,1,40,0,0
28134,-125,4,2,1,50,0,0
29490,-142.857142857143,4,2,1,50,0,0
30846,-125,4,2,1,50,0,0
32202,-142.857142857143,4,2,1,50,0,0
33558,-125,4,2,1,50,0,0
34914,-142.857142857143,4,2,1,50,0,0
36269,-125,4,2,1,50,0,0
37625,-111.111111111111,4,2,1,60,0,0
38981,-200,4,2,1,40,0,0
47117,-125,4,2,1,50,0,0
47795,-125,4,2,1,60,0,0
48473,-200,4,2,1,60,0,0
48812,-200,4,2,1,55,0,0
49151,-200,4,2,1,60,0,0
49490,-200,4,2,1,65,0,0
49829,-90.9090909090909,4,2,1,80,0,1
50507,-76.9230769230769,4,2,1,80,0,1
51185,-90.9090909090909,4,2,1,80,0,1
51863,-76.9230769230769,4,2,1,80,0,1
52541,-90.9090909090909,4,2,1,80,0,1
53897,-100,4,2,1,80,0,0
55253,-90.9090909090909,4,2,1,80,0,1
55931,-66.6666666666667,4,2,1,80,0,1
56608,-76.9230769230769,4,2,1,80,0,1
57964,-90.9090909090909,4,2,1,80,0,1
58642,-76.9230769230769,4,2,1,80,0,1
60676,-90.9090909090909,4,2,1,80,0,1
61354,-76.9230769230769,4,2,1,80,0,1
62032,-90.9090909090909,4,2,1,80,0,1
62710,-76.9230769230769,4,2,1,80,0,1
63388,-90.9090909090909,4,2,1,80,0,1
64744,-100,4,2,1,80,0,0
66100,-76.9230769230769,4,2,1,80,0,1
66778,-66.6666666666667,4,2,1,80,0,1
67456,-76.9230769230769,4,2,1,80,0,1
68812,-90.9090909090909,4,2,1,80,0,1
69490,-76.9230769230769,4,2,1,80,0,1
70168,-125,4,2,1,80,0,0
71524,-142.857142857143,4,2,1,50,0,0
72117,-142.857142857143,4,2,1,50,0,0
72202,-111.111111111111,4,2,1,50,0,0
72880,-142.857142857143,4,2,1,50,0,0
73558,-111.111111111111,4,2,1,50,0,0
74236,-142.857142857143,4,2,1,50,0,0
74914,-111.111111111111,4,2,1,50,0,0
75592,-142.857142857143,4,2,1,50,0,0
76269,-111.111111111111,4,2,1,50,0,0
76947,-142.857142857143,4,2,1,50,0,0
77541,-142.857142857143,4,2,1,50,0,0
77625,-111.111111111111,4,2,1,50,0,0
78303,-142.857142857143,4,2,1,50,0,0
78981,-111.111111111111,4,2,1,50,0,0
79659,-125,4,2,1,50,0,0
81015,-111.111111111111,4,2,1,60,0,0
82371,-200,4,2,1,40,0,0
90507,-125,4,2,1,50,0,0
91185,-125,4,2,1,60,0,0
91863,-200,4,2,1,60,0,0
93219,-90.9090909090909,4,2,1,80,0,1
93897,-76.9230769230769,4,2,1,80,0,1
94575,-90.9090909090909,4,2,1,80,0,1
95253,-76.9230769230769,4,2,1,80,0,1
95931,-90.9090909090909,4,2,1,80,0,1
97286,-100,4,2,1,80,0,0
98642,-90.9090909090909,4,2,1,80,0,1
99320,-66.6666666666667,4,2,1,80,0,1
99998,-76.9230769230769,4,2,1,80,0,1
101354,-90.9090909090909,4,2,1,80,0,1
102032,-76.9230769230769,4,2,1,80,0,1
104066,-90.9090909090909,4,2,1,80,0,1
104744,-76.9230769230769,4,2,1,80,0,1
105422,-90.9090909090909,4,2,1,80,0,1
106100,-76.9230769230769,4,2,1,80,0,1
106778,-90.9090909090909,4,2,1,80,0,1
108134,-100,4,2,1,80,0,0
109490,-76.9230769230769,4,2,1,80,0,1
110168,-66.6666666666667,4,2,1,80,0,1
110846,-76.9230769230769,4,2,1,80,0,1
112202,-90.9090909090909,4,2,1,80,0,1
112880,-76.9230769230769,4,2,1,80,0,1
114914,-166.666666666667,4,2,1,60,0,0
120337,-166.666666666667,4,2,1,70,0,0
124405,-111.111111111111,4,2,1,70,0,0
125761,-90.9090909090908,4,2,1,80,0,1
126439,-76.9230769230769,4,2,1,80,0,1
127117,-90.9090909090909,4,2,1,80,0,1
127795,-76.9230769230769,4,2,1,80,0,1
128473,-100,4,2,1,80,0,1
129829,-76.9230769230769,4,2,1,80,0,1
130507,-76.9230769230769,4,2,1,80,0,0
131185,-90.9090909090909,4,2,1,80,0,1
131863,-66.6666666666667,4,2,1,80,0,1
132541,-76.9230769230769,4,2,1,80,0,1
133897,-90.9090909090909,4,2,1,80,0,1
134575,-76.9230769230769,4,2,1,80,0,1
135253,-90.9090909090909,4,2,1,80,0,1
136608,-166.666666666667,4,2,1,80,0,0
140337,-166.666666666667,4,2,1,60,0,0

[Colours]
Combo1 : 216,192,73
Combo2 : 56,114,151
Combo3 : 192,20,20
Combo4 : 192,192,192

[HitObjects]
107,170,15931,6,0,B|221:149|167:234|292:208,1,192,0|0,0:0|0:0,0:0:0:0:
436,354,17286,6,0,P|449:258|428:151,1,195.999994018555,2|0,3:2|0:0,0:0:0:0:
422,158,17964,2,0,P|412:84|426:13,1,143.999995605469,10|0,0:2|0:0,0:0:0:0:
335,282,18642,6,0,P|269:251|151:270,1,195.999994018555,0|0,0:0|0:0,0:0:0:0:
144,283,19320,2,0,P|90:294|12:247,1,143.999995605469,10|0,0:2|0:0,0:0:0:0:
101,190,19829,1,2,3:2:0:0:
240,293,19998,5,2,3:2:0:0:
306,152,20168,2,0,P|362:135|444:177,1,139.999995727539,0|0,0:0|0:0,0:0:0:0:
449,180,20676,2,0,P|428:120|445:31,1,143.999995605469,8|0,0:2|0:0,0:0:0:0:
159,38,21354,6,0,P|99:35|76:45,1,83.9999974365235,0|0,0:0|0:0,0:0:0:0:
62,82,21693,2,0,P|122:85|145:75,1,83.9999974365235,2|0,3:2|0:0,0:0:0:0:
159,38,22032,2,0,L|150:192,1,143.999995605469,10|2,0:2|0:3,0:0:0:0:
142,315,22541,1,0,3:0:0:0:
254,201,22710,6,0,P|313:163|386:212,1,167.999994873047,2|0,3:2|0:0,0:0:0:0:
337,301,23388,2,0,P|275:286|251:212,1,143.999995605469,10|0,0:2|0:0,0:0:0:0:
0,142,24066,5,0,0:0:0:0:
0,142,24405,2,0,P|26:140|71:153,1,55.9999982910157,0|0,3:0|0:0,0:0:0:0:
135,268,24744,2,0,P|185:218|271:203,1,143.999995605469,10|2,0:2|0:2,0:0:0:0:
353,298,25253,1,0,3:0:0:0:
471,209,25422,6,0,P|419:193|415:51,1,195.999994018555,0|0,3:0|0:0,0:0:0:0:
412,56,26100,6,0,P|418:102|403:152,1,96,10|0,0:2|0:0,0:0:0:0:
265,185,26778,6,0,P|231:153|220:115,2,74.6666643880209,8|8|8,0:1|0:1|0:1,0:0:0:0:
249,38,27456,1,8,0:1:0:0:
249,38,27795,5,8,0:1:0:0:
398,68,27964,1,8,1:3:0:0:
221,127,28134,6,0,P|155:126|85:97,1,128,6|0,3:2|0:0,0:0:0:0:
124,212,28642,1,0,0:0:0:0:
20,249,28812,2,0,P|81:221|203:274,1,192,10|2,0:2|0:2,0:0:0:0:
286,372,29490,6,0,P|286:315|321:262,1,111.999996582031,2|2,0:2|3:2,0:0:0:0:
414,217,29998,1,2,0:2:0:0:
276,166,30168,2,0,P|256:106|272:54,1,111.999996582031,10|2,0:2|0:2,0:0:0:0:
358,107,30676,1,2,0:2:0:0:
410,10,30846,6,0,P|454:45|473:115,1,128,2|0,3:2|0:0,0:0:0:0:
414,217,31354,1,0,0:0:0:0:
276,166,31524,2,0,P|176:167|111:234,1,192,8|0,0:2|0:0,0:0:0:0:
176,364,32202,6,0,P|185:334|160:271,1,83.9999974365235,2|0,0:2|0:0,0:0:0:0:
55,301,32541,2,0,P|76:323|104:333,1,55.9999982910157,0|0,3:0|0:0,0:0:0:0:
241,246,32880,2,0,P|297:239|349:270,1,111.999996582031,10|6,0:2|0:3,0:0:0:0:
331,369,33388,1,8,0:3:0:0:
461,290,33558,6,0,P|398:295|344:264,1,128,2|0,3:2|0:0,0:0:0:0:
355,142,34066,1,0,0:0:0:0:
241,246,34236,2,0,P|270:175|224:49,1,192,8|2,0:2|0:2,0:0:0:0:
101,121,34914,6,0,P|141:131|199:109,1,83.9999974365235,2|0,0:2|0:0,0:0:0:0:
167,33,35253,2,0,P|136:23|104:25,1,55.9999982910157,2|2,3:2|0:2,0:0:0:0:
19,130,35592,2,0,L|22:206,1,55.9999982910157,8|0,0:2|0:0,0:0:0:0:
100,287,35931,2,0,L|105:217,1,55.9999982910157,2|0,0:2|0:0,0:0:0:0:
183,141,36269,6,0,P|246:126|305:173,1,128,2|0,3:2|0:0,0:0:0:0:
329,267,36778,1,0,0:0:0:0:
384,116,36947,2,0,P|395:32|309:59,1,192,10|0,0:2|0:0,0:0:0:0:
394,206,37625,5,2,3:2:0:0:
296,158,37795,1,0,1:0:0:0:
384,116,37964,1,2,3:2:0:0:
307,251,38134,1,0,1:0:0:0:
183,141,38303,2,0,P|144:137|99:159,1,71.9999978027344,10|0,0:2|1:0,0:0:0:0:
29,245,38642,2,0,L|25:292,2,35.9999989013672,2|0|2,1:2|1:0|1:2,0:0:0:0:
122,331,38981,6,0,P|184:313|250:334,1,120,6|4,3:2|1:3,0:0:0:0:
307,251,39659,1,4,1:3:0:0:
431,345,39998,1,4,1:3:0:0:
431,345,40168,1,0,0:0:0:0:
488,269,40337,6,0,L|490:202,2,53.3333333333333,4|0|0,1:3|0:0|0:0,0:0:0:0:
402,216,41015,1,4,1:3:0:0:
332,349,41354,1,4,1:3:0:0:
332,349,41524,1,4,1:3:0:0:
307,251,41693,6,0,P|301:201|346:133,1,120,6|4,3:2|1:3,0:0:0:0:
434,118,42371,1,4,1:3:0:0:
303,34,42710,1,4,1:3:0:0:
194,142,43049,6,0,P|186:114|197:59,1,80,4|4,1:3|1:3,0:0:0:0:
113,11,43558,1,0,0:0:0:0:
113,11,43727,1,4,1:3:0:0:
34,148,44066,2,0,L|35:182,2,20,4|0|4,1:3|0:0|1:3,0:0:0:0:
92,244,44405,6,0,P|128:237|170:251,1,80,6|4,3:2|1:3,0:0:0:0:
232,325,44914,1,4,1:3:0:0:
232,325,45083,1,4,1:3:0:0:
327,178,45422,2,0,L|276:175,1,40,4|0,1:3|0:0,0:0:0:0:
347,278,45761,5,4,1:3:0:0:
347,278,45931,1,4,1:3:0:0:
424,205,46100,1,4,1:3:0:0:
444,377,46439,2,0,L|404:376,1,40,4|0,1:3|0:0,0:0:0:0:
472,296,46778,2,0,L|500:298,2,20,4|0|4,1:3|0:0|1:3,0:0:0:0:
393,213,47117,6,0,P|376:240|369:271,1,64,6|4,3:2|1:3,0:0:0:0:
456,116,47456,2,0,P|472:143|479:174,1,64,4|4,1:3|1:3,0:0:0:0:
341,20,47794,1,4,1:3:0:0:
320,151,47964,1,4,1:3:0:0:
442,16,48134,1,4,1:3:0:0:
485,201,48303,1,4,1:3:0:0:
216,145,48473,6,0,L|134:141,1,80,2|2,0:2|0:2,0:0:0:0:
28,225,49151,1,2,0:2:0:0:
28,225,49490,1,2,0:2:0:0:
97,333,49829,6,0,P|134:296|264:324,1,176.000005371094,6|0,3:2|0:0,0:0:0:0:
135,250,50337,1,0,0:0:0:0:
274,126,50507,2,0,P|340:139|256:200,1,207.999990478516,10|0,0:2|0:0,0:0:0:0:
204,180,51015,1,0,0:0:0:0:
389,67,51185,6,0,P|428:116|417:243,1,176.000005371094,6|0,3:2|0:0,0:0:0:0:
341,319,51693,1,0,0:0:0:0:
249,122,51863,2,0,P|210:171|234:319,1,207.999990478516,10|0,0:2|0:0,0:0:0:0:
88,241,52371,1,0,0:0:0:0:
249,122,52541,6,0,P|299:115|372:211,1,176.000005371094,6|0,3:2|0:0,0:0:0:0:
426,94,53049,1,0,0:0:0:0:
278,217,53219,2,0,L|174:207,1,88.000002685547,10|0,0:2|0:0,0:0:0:0:
68,191,53558,1,0,3:0:0:0:
68,191,53727,1,0,0:0:0:0:
96,35,53897,6,0,P|126:83|135:160,2,120,0|0|0,0:0|0:0|0:0,0:0:0:0:
249,122,54575,1,10,0:2:0:0:
249,122,54914,1,0,0:0:0:0:
430,24,55253,6,0,P|409:68|417:138,1,88.000002685547,6|0,3:2|0:0,0:0:0:0:
481,223,55592,2,0,P|441:262|384:271,1,88.000002685547,0|0,0:0|0:0,0:0:0:0:
264,147,55931,2,0,P|198:137|268:220,1,240.000009155274,10|0,0:2|3:0,0:0:0:0:
140,118,56439,1,0,0:0:0:0:
44,258,56608,6,0,P|48:206|37:139,1,103.999995239258,0|0,0:0|0:0,0:0:0:0:
151,304,56947,2,0,P|204:325|281:312,1,103.999995239258,0|0,3:0|0:0,0:0:0:0:
378,172,57286,1,10,0:2:0:0:
221,238,57456,1,0,0:0:0:0:
343,346,57625,2,0,P|379:305|381:243,1,103.999995239258,0|0,0:0|0:0,0:0:0:0:
297,139,57964,6,0,P|307:222|384:257,1,176.000005371094,6|0,3:2|0:0,0:0:0:0:
473,169,58473,1,0,0:0:0:0:
347,46,58642,2,0,L|139:37,1,207.999990478516,10|0,0:2|3:0,0:0:0:0:
28,112,59151,1,0,0:0:0:0:
186,175,59320,5,0,1:0:0:0:
139,37,59490,1,0,0:0:0:0:
86,177,59659,2,0,P|96:227|131:264,1,103.999995239258,0|0,3:0|1:0,0:0:0:0:
304,150,59998,2,0,L|196:139,1,103.999995239258,10|0,0:2|3:0,0:0:0:0:
259,255,60337,2,0,P|296:265|367:245,1,103.999995239258,0|0,0:0|0:0,0:0:0:0:
451,99,60676,6,0,P|433:156|460:284,1,176.000005371094,6|0,3:2|0:0,0:0:0:0:
333,138,61185,1,0,0:0:0:0:
240,350,61354,2,0,P|258:293|226:149,1,207.999990478516,10|0,0:2|0:0,0:0:0:0:
158,286,61863,1,0,0:0:0:0:
34,114,62032,6,0,P|8:181|70:264,1,176.000005371094,6|0,3:2|0:0,0:0:0:0:
113,145,62541,1,0,0:0:0:0:
173,322,62710,2,0,P|231:301|240:154,1,207.999990478516,10|0,0:2|0:0,0:0:0:0:
103,175,63219,1,0,0:0:0:0:
232,67,63388,6,0,P|293:71|363:157,1,176.000005371094,6|0,3:2|0:0,0:0:0:0:
385,17,63897,1,0,0:0:0:0:
253,170,64066,2,0,L|252:273,1,88.000002685547,10|0,0:2|0:0,0:0:0:0:
253,378,64405,1,0,3:0:0:0:
253,378,64575,1,0,0:0:0:0:
358,243,64744,6,0,P|421:236|488:280,2,120,0|0|0,0:0|0:0|0:0,0:0:0:0:
398,371,65422,1,10,0:2:0:0:
398,371,65761,1,0,0:0:0:0:
218,289,66100,6,0,P|154:282|94:299,1,103.999995239258,6|0,3:2|0:0,0:0:0:0:
248,194,66439,2,0,P|268:143|258:72,1,103.999995239258,0|0,0:0|0:0,0:0:0:0:
79,95,66778,2,0,P|117:171|160:74,1,240.000009155274,10|0,0:2|3:0,0:0:0:0:
33,17,67286,1,0,0:0:0:0:
42,233,67456,6,0,P|92:256|164:256,1,103.999995239258,0|0,0:0|0:0,0:0:0:0:
288,102,67795,2,0,P|249:166|262:238,1,103.999995239258,0|0,3:0|0:0,0:0:0:0:
348,346,68134,1,10,0:2:0:0:
345,177,68303,1,0,0:0:0:0:
241,347,68473,2,0,L|107:342,1,103.999995239258,0|0,0:0|0:0,0:0:0:0:
39,239,68812,6,0,P|134:233|186:149,1,176.000005371094,6|0,3:2|0:0,0:0:0:0:
199,28,69320,1,0,0:0:0:0:
83,161,69490,2,0,L|306:195,1,207.999990478516,10|0,0:2|3:0,0:0:0:0:
447,286,69998,1,0,1:0:0:0:
405,132,70168,5,0,0:0:0:0:
347,249,70337,1,0,1:0:0:0:
460,199,70507,1,0,3:0:0:0:
380,338,70846,6,0,P|310:343|252:236,1,192,12|0,0:2|0:0,0:0:0:0:
311,140,71524,6,0,P|286:190|155:150,1,195.999994018555,2|0,3:2|0:0,0:0:0:0:
167,156,72202,2,0,P|177:90|261:67,1,143.999995605469,10|0,0:2|0:0,0:0:0:0:
55,148,72880,6,0,P|60:177|56:221,1,55.9999982910157,0|0,0:0|0:0,0:0:0:0:
0,324,73219,2,0,P|41:304|73:303,1,55.9999982910157,0|2,3:2|0:2,0:0:0:0:
208,238,73558,2,0,P|231:286|215:383,1,143.999995605469,10|2,0:2|0:2,0:0:0:0:
128,273,74066,1,0,3:2:0:0:
234,131,74236,6,0,P|286:119|345:134,1,111.999996582031,2|0,3:2|0:0,0:0:0:0:
429,200,74744,1,0,0:0:0:0:
409,17,74914,2,0,P|349:77|348:155,1,143.999995605469,8|0,0:2|0:0,0:0:0:0:
276,333,75592,6,0,P|267:287|302:228,1,111.999996582031,0|2,0:0|3:2,0:0:0:0:
401,306,76100,1,0,0:0:0:0:
228,262,76269,2,0,P|165:251|83:304,1,143.999995605469,10|2,0:2|0:3,0:0:0:0:
27,152,76778,1,0,3:0:0:0:
27,152,76863,1,0,3:0:0:0:
27,152,76947,6,0,P|77:125|223:169,1,195.999994018555,2|0,3:2|0:0,0:0:0:0:
216,138,77625,2,0,P|259:109|365:117,1,143.999995605469,10|0,0:2|0:0,0:0:0:0:
383,334,78303,6,0,P|354:261|357:218,1,111.999996582031,0|0,0:0|3:0,0:0:0:0:
431,162,78812,1,2,0:2:0:0:
325,30,78981,2,0,P|289:62|351:120,1,143.999995605469,10|2,0:2|0:2,0:0:0:0:
243,77,79490,1,0,3:0:0:0:
213,222,79659,5,0,3:0:0:0:
123,135,79829,2,0,L|114:272,1,128,0|0,0:0|3:0,0:0:0:0:
43,300,80253,1,0,3:0:0:0:
43,300,80337,2,0,P|67:331|159:331,1,128,10|0,0:2|0:0,0:0:0:0:
213,222,80846,1,0,1:0:0:0:
286,367,81015,5,0,0:0:0:0:
370,284,81185,1,0,1:0:0:0:
231,211,81354,2,0,L|235:295,1,71.9999978027344,0|0,3:0|0:0,0:0:0:0:
330,156,81693,2,0,P|325:117|349:70,1,71.9999978027344,8|0,0:2|0:0,0:0:0:0:
458,135,82032,2,0,L|463:177,2,35.9999989013672,0|0|0,1:0|0:0|1:0,0:0:0:0:
391,29,82371,6,0,P|353:8|280:28,1,120,6|4,3:2|1:3,0:0:0:0:
241,102,83049,1,4,1:3:0:0:
98,24,83388,1,4,1:3:0:0:
98,24,83558,1,0,0:0:0:0:
52,125,83727,6,0,L|50:186,2,53.3333333333333,4|0|0,1:3|0:0|0:0,0:0:0:0:
165,112,84405,1,4,1:3:0:0:
121,225,84744,2,0,L|119:256,2,20,4|0|4,1:3|0:0|1:3,0:0:0:0:
211,311,85083,6,0,P|251:299|331:333,1,120,6|4,3:2|1:3,0:0:0:0:
387,384,85761,1,4,1:3:0:0:
328,224,86100,1,4,1:3:0:0:
457,142,86439,5,4,1:3:0:0:
457,142,86608,1,4,1:3:0:0:
363,111,86778,1,4,1:3:0:0:
475,237,87117,1,4,1:3:0:0:
493,54,87456,2,0,L|525:61,2,20,4|0|4,1:3|0:0|1:3,0:0:0:0:
373,23,87795,6,0,P|352:22|321:31,1,40,6|0,3:2|0:0,0:0:0:0:
262,82,88134,1,4,1:3:0:0:
262,82,88303,1,4,1:3:0:0:
178,25,88473,1,4,1:3:0:0:
18,71,88812,1,4,1:3:0:0:
119,197,89151,6,0,L|168:201,2,40,4|4|4,1:3|1:3|1:3,0:0:0:0:
158,38,89829,2,0,L|164:84,1,40,4|0,1:3|0:0,0:0:0:0:
241,127,90168,2,0,L|236:164,2,20,4|0|0,1:3|0:0|0:0,0:0:0:0:
432,27,90507,6,0,L|354:19,1,64,6|4,3:2|1:3,0:0:0:0:
241,127,90846,2,0,L|305:121,1,64,4|4,1:3|1:3,0:0:0:0:
452,152,91185,1,4,1:3:0:0:
377,39,91354,1,4,1:3:0:0:
343,203,91524,1,4,1:3:0:0:
368,20,91693,1,4,1:3:0:0:
463,174,91863,6,0,P|475:219|466:262,1,80,2|2,0:2|0:2,0:0:0:0:
408,348,92541,1,2,0:2:0:0:
408,348,92880,1,2,0:2:0:0:
324,256,93219,6,0,P|279:204|160:200,1,176.000005371094,6|0,3:2|0:0,0:0:0:0:
105,102,93727,1,0,0:0:0:0:
53,265,93897,2,0,P|98:317|229:313,1,207.999990478516,10|0,0:2|0:0,0:0:0:0:
176,192,94405,1,0,0:0:0:0:
13,349,94575,6,0,L|131:358,1,88.000002685547,6|0,3:2|0:0,0:0:0:0:
193,169,94914,2,0,L|75:178,1,88.000002685547,0|0,0:0|0:0,0:0:0:0:
261,63,95253,2,0,P|339:121|316:216,1,207.999990478516,10|0,0:2|0:0,0:0:0:0:
193,169,95761,1,0,0:0:0:0:
352,73,95931,6,0,P|424:50|513:121,1,176.000005371094,6|0,3:2|0:0,0:0:0:0:
419,193,96439,1,0,0:0:0:0:
261,63,96608,2,0,L|251:171,1,88.000002685547,10|0,0:2|0:0,0:0:0:0:
233,317,96947,1,0,3:0:0:0:
233,317,97117,1,0,0:0:0:0:
112,245,97286,6,0,P|103:168|121:108,2,120,0|0|0,0:0|0:0|0:0,0:0:0:0:
252,150,97964,1,10,0:2:0:0:
252,150,98303,1,0,0:0:0:0:
374,245,98642,6,0,P|408:173|383:70,1,176.000005371094,6|0,3:2|0:0,0:0:0:0:
305,3,99151,1,0,0:0:0:0:
228,191,99320,2,0,P|301:197|219:125,1,240.000009155274,10|0,0:2|3:0,0:0:0:0:
137,132,99829,1,0,0:0:0:0:
248,316,99998,6,0,P|303:314|356:285,1,103.999995239258,0|0,0:0|0:0,0:0:0:0:
345,86,100337,2,0,P|319:134|317:195,1,103.999995239258,0|0,3:0|0:0,0:0:0:0:
493,309,100676,1,10,0:2:0:0:
403,160,100846,1,0,0:0:0:0:
351,319,101015,2,0,L|230:315,1,103.999995239258,0|0,0:0|0:0,0:0:0:0:
179,168,101354,6,0,P|239:229|247:314,1,176.000005371094,6|0,3:2|0:0,0:0:0:0:
134,378,101863,1,0,0:0:0:0:
103,207,102032,2,0,L|74:-1,1,207.999990478516,10|0,0:2|3:0,0:0:0:0:
186,59,102541,1,0,0:0:0:0:
17,169,102710,6,0,P|0:217|14:266,1,103.999995239258,0|0,1:0|0:0,0:0:0:0:
179,168,103049,1,0,3:0:0:0:
38,83,103219,1,0,1:0:0:0:
102,218,103388,1,10,0:2:0:0:
186,59,103558,1,0,3:0:0:0:
275,206,103727,2,0,P|284:258|266:306,1,103.999995239258,0|0,0:0|1:0,0:0:0:0:
344,132,104066,6,0,P|392:83|389:170,1,176.000005371094,6|0,3:2|0:0,0:0:0:0:
360,214,104575,1,0,0:0:0:0:
303,32,104744,2,0,P|391:0|509:89,1,207.999990478516,10|0,0:2|0:0,0:0:0:0:
419,156,105253,1,0,0:0:0:0:
234,117,105422,6,0,P|160:124|124:156,1,88.000002685547,6|0,3:2|0:0,0:0:0:0:
248,293,105761,2,0,P|322:286|358:254,1,88.000002685547,0|0,0:0|0:0,0:0:0:0:
120,211,106100,2,0,P|77:238|168:254,1,207.999990478516,10|0,0:2|0:0,0:0:0:0:
149,130,106608,1,0,0:0:0:0:
0,296,106778,6,0,P|0:216|74:141,1,176.000005371094,6|0,3:2|0:0,0:0:0:0:
165,275,107286,1,0,0:0:0:0:
234,117,107456,2,0,L|329:121,1,88.000002685547,10|0,0:2|0:0,0:0:0:0:
477,128,107795,1,0,3:0:0:0:
477,128,107964,1,0,0:0:0:0:
310,30,108134,6,0,P|257:9|175:19,2,120,0|0|0,0:0|0:0|0:0,0:0:0:0:
358,191,108812,1,10,0:2:0:0:
358,191,109151,1,0,0:0:0:0:
487,27,109490,6,0,P|493:78|476:127,1,103.999995239258,6|0,3:2|0:0,0:0:0:0:
265,231,109829,2,0,P|306:200|357:190,1,103.999995239258,0|0,0:0|0:0,0:0:0:0:
398,360,110168,2,0,P|318:342|412:310,1,240.000009155274,10|0,0:2|3:0,0:0:0:0:
286,354,110676,1,0,0:0:0:0:
176,215,110846,6,0,L|179:67,1,103.999995239258,0|0,0:0|0:0,0:0:0:0:
355,86,111185,2,0,L|357:189,1,103.999995239258,0|0,3:0|0:0,0:0:0:0:
112,53,111524,2,0,P|43:54|89:140,1,207.999990478516,10|0,0:2|0:0,0:0:0:0:
238,45,112032,1,0,0:0:0:0:
357,189,112202,6,0,P|421:196|474:88,1,176.000005371094,6|0,3:2|0:0,0:0:0:0:
332,64,112710,1,0,0:0:0:0:
293,255,112880,2,0,L|161:252,1,103.999995239258,10|0,0:2|0:0,0:0:0:0:
89,139,113219,2,0,L|221:136,1,103.999995239258,0|0,3:0|1:0,0:0:0:0:
321,237,113558,5,0,0:0:0:0:
108,278,113727,1,0,1:0:0:0:
192,136,113897,1,0,3:0:0:0:
239,334,114066,1,4,0:3:0:0:
326,104,114236,2,0,P|377:90|435:116,1,103.999995239258,12|0,0:2|3:0,0:0:0:0:
236,54,114575,2,0,P|183:43|114:77,1,103.999995239258,0|0,0:0|0:0,0:0:0:0:
149,199,114914,6,0,P|231:161|172:139,1,191.999994140625,6|0,0:2|0:0,0:0:0:0:
384,307,116269,2,0,P|301:269|360:247,1,191.999994140625,0|0,0:0|0:0,0:0:0:0:
198,305,117625,6,0,L|133:300,2,63.9999980468751,6|0|0,3:2|0:0|0:0,0:0:0:0:
148,198,118303,1,0,0:0:0:0:
33,370,118642,1,0,0:0:0:0:
33,370,118812,1,0,0:0:0:0:
9,248,118981,6,0,P|0:200|7:153,1,95.9999970703126,0|0,0:0|0:0,0:0:0:0:
70,74,119490,1,0,0:0:0:0:
165,118,119659,1,0,0:0:0:0:
271,19,119998,1,0,0:0:0:0:
409,129,120337,6,0,P|375:177|288:160,1,143.999995605469,6|0,3:2|0:0,0:0:0:0:
165,118,121015,2,0,P|185:166|170:218,1,95.9999970703126,0|0,0:0|3:0,0:0:0:0:
107,269,121524,1,0,0:0:0:0:
107,269,121693,6,0,P|146:298|207:293,2,95.9999970703126,0|0|10,0:0|3:0|0:2,0:0:0:0:
255,233,122710,1,0,0:0:0:0:
363,358,123049,6,0,L|349:277,2,71.9999978027344,6|0|0,3:2|0:0|0:0,0:0:0:0:
450,259,123727,2,0,P|456:208|425:161,1,95.9999970703126,14|0,0:2|3:0,0:0:0:0:
337,110,124236,1,0,0:0:0:0:
266,224,124405,5,0,1:0:0:0:
233,70,124575,1,0,0:0:0:0:
169,258,124744,1,0,3:0:0:0:
337,110,124914,1,0,1:0:0:0:
138,98,125083,2,0,L|36:93,1,71.9999978027344,10|0,0:2|3:0,0:0:0:0:
266,224,125422,2,0,L|368:219,1,71.9999978027344,0|0,0:0|1:0,0:0:0:0:
119,191,125761,6,0,P|58:258|122:252,1,176.000005371094,6|0,3:2|0:0,0:0:0:0:
198,173,126269,1,0,0:0:0:0:
303,307,126439,2,0,P|377:309|420:194,1,207.999990478516,10|0,0:2|0:0,0:0:0:0:
337,110,126947,1,0,0:0:0:0:
226,252,127117,6,0,P|201:214|200:159,1,88.000002685547,6|0,3:2|0:0,0:0:0:0:
308,30,127456,2,0,P|332:67|334:123,1,88.000002685547,0|0,0:0|0:0,0:0:0:0:
137,35,127795,2,0,P|63:48|145:102,1,207.999990478516,10|0,0:2|0:0,0:0:0:0:
220,9,128303,1,0,0:0:0:0:
336,109,128473,6,0,P|357:181|346:252,2,120,6|0|0,3:2|0:0|0:0,0:0:0:0:
232,244,129151,2,0,P|248:321|310:300,1,160,10|0,0:2|3:0,0:0:0:0:
263,163,129659,1,0,0:0:0:0:
217,344,129829,5,0,0:0:0:0:
353,225,129998,1,0,0:0:0:0:
148,229,130168,1,0,3:0:0:0:
325,315,130337,1,0,0:0:0:0:
83,317,130507,1,10,0:2:0:0:
31,231,131185,6,0,P|82:219|131:224,1,88.000002685547,6|0,3:2|0:0,0:0:0:0:
238,305,131524,2,0,P|289:317|338:312,1,88.000002685547,0|0,0:0|0:0,0:0:0:0:
298,108,131863,2,0,P|242:151|353:169,1,240.000009155274,10|0,0:2|3:0,0:0:0:0:
387,57,132371,1,0,0:0:0:0:
504,278,132541,6,0,L|373:278,1,103.999995239258,0|0,0:0|0:0,0:0:0:0:
240,362,132880,2,0,P|296:349|326:308,1,103.999995239258,0|0,3:0|0:0,0:0:0:0:
162,116,133219,2,0,P|84:188|176:197,1,207.999990478516,10|0,0:2|0:0,0:0:0:0:
309,91,133727,1,0,0:0:0:0:
407,247,133897,6,0,P|349:285|240:228,1,176.000005371094,6|0,3:2|0:0,0:0:0:0:
383,143,134405,1,0,0:0:0:0:
459,354,134575,2,0,P|401:320|480:225,1,207.999990478516,10|0,0:2|3:0,0:0:0:0:
308,329,135083,1,0,1:0:0:0:
250,131,135253,5,0,0:0:0:0:
407,247,135422,1,0,1:0:0:0:
212,240,135592,2,0,L|94:235,1,88.000002685547,0|4,3:0|0:3,0:0:0:0:
66,102,135931,2,0,L|62:53,2,44.0000013427735,12|0|0,0:2|0:0|3:0,0:0:0:0:
3,261,136269,2,0,L|-1:310,2,44.0000013427735,0|0|0,0:0|0:0|0:0,0:0:0:0:
250,131,136608,5,6,3:2:0:0:
250,131,137286,2,0,L|361:138,1,95.9999970703126
417,252,137964,1,0,0:0:0:0:
417,252,138642,2,0,L|306:259,1,95.9999970703126
