osu file format v14

[General]
AudioFilename: audio.mp3
AudioLeadIn: 0
PreviewTime: 91863
Countdown: 0
SampleSet: Soft
StackLeniency: 0.6
Mode: 0
LetterboxInBreaks: 0
EpilepsyWarning: 1
WidescreenStoryboard: 1

[Editor]
DistanceSpacing: 1.5
BeatDivisor: 4
GridSize: 32
TimelineZoom: 2.1

[Metadata]
Title:RISE (ft. The Glitch Mob, Mako, and The Word Alive)
TitleUnicode:RISE (ft. The Glitch Mob, Mako, and The Word Alive)
Artist:League of Legends
ArtistUnicode:League of Legends
Creator:SquareTude
Version:Summit
Source:League of Legends
Tags:Worlds 2018 Riot Games Megapcmx Celektus RVMathew Nelliel Apo11o MinorSonek ChaoticRed Zelq [[Pika]]
BeatmapID:1816320
BeatmapSetID:858938

[Difficulty]
HPDrainRate:6
CircleSize:4
OverallDifficulty:9.1
ApproachRate:9.4
SliderMultiplier:2
SliderTickRate:1

[Events]
//Background and Video events
0,0,"best bg ever.png",0,0
//Break Periods
//Storyboard Layer 0 (Background)
//Storyboard Layer 1 (Fail)
//Storyboard Layer 2 (Pass)
//Storyboard Layer 3 (Foreground)
Sprite,Foreground,Centre,"sb\sprites\c2.png",282,325 F,2,49829,50495,0.5,0 S,2,49829,50495,0.2,0.4 P,0,49829,50495,A
Sprite,Foreground,Centre,"sb\sprites\c2.png",285,78 F,2,49998,50664,0.5,0 S,2,49998,50664,0.2,0.4 P,0,49998,50664,A
Sprite,Foreground,Centre,"sb\sprites\c2.png",195,328 F,2,50168,50834,0.5,0 S,2,50168,50834,0.2,0.4 P,0,50168,50834,A
Sprite,Foreground,Centre,"sb\sprites\c2.png",163,77 F,2,50337,51003,0.5,0 S,2,50337,51003,0.2,0.4 P,0,50337,51003,A
Sprite,Foreground,Centre,"sb\sprites\c2.png",367,317 F,2,50507,51173,0.5,0 S,2,50507,51173,0.2,0.4 P,0,50507,51511,A
Sprite,Foreground,Centre,"sb\sprites\c2.png",386,67 F,2,51185,51851,0.5,0 S,2,51185,51851,0.2,0.4 P,0,51185,51851,A
Sprite,Foreground,Centre,"sb\sprites\c2.png",505,348 F,2,51354,52020,0.5,0 S,2,51354,52020,0.2,0.4 P,0,51354,52020,A
Sprite,Foreground,Centre,"sb\sprites\c2.png",302,162 F,2,51524,52190,0.5,0 S,2,51524,52190,0.2,0.4 P,0,51524,52190,A
Sprite,Foreground,Centre,"sb\sprites\c2.png",576,287 F,2,51693,52359,0.5,0 S,2,51693,52359,0.2,0.4 P,0,51693,52359,A
Sprite,Foreground,Centre,"sb\sprites\c2.png",400,400 F,2,51863,52529,0.5,0 S,2,51863,52529,0.2,0.4 P,0,51863,52867,A
Sprite,Foreground,Centre,"sb\sprites\c2.png",419,150 F,2,52541,53207,0.5,0 S,2,52541,53207,0.2,0.4 P,0,52541,53207,A
Sprite,Foreground,Centre,"sb\sprites\c2.png",485,414 F,2,52710,53376,0.5,0 S,2,52710,53376,0.2,0.4 P,0,52710,53376,A
Sprite,Foreground,Centre,"sb\sprites\c2.png",218,302 F,2,52880,53546,0.5,0 S,2,52880,53546,0.2,0.4 P,0,52880,53546,A
Sprite,Foreground,Centre,"sb\sprites\c2.png",495,215 F,2,53049,53715,0.5,0 S,2,53049,53715,0.2,0.4 P,0,53049,53715,A
Sprite,Foreground,Centre,"sb\sprites\c2.png",181,403 F,2,53219,53885,0.5,0 S,2,53219,53885,0.2,0.4 P,0,53219,54139,A
Sprite,Foreground,Centre,"sb\sprites\c2.png",149,128 F,2,53558,54224,0.5,0 S,2,53558,54224,0.2,0.4 P,0,53558,54224,A
Sprite,Foreground,Centre,"sb\sprites\c2.png",268,372 F,2,53727,54393,0.5,0 S,2,53727,54393,0.2,0.4 P,0,53727,54393,A
Sprite,Foreground,Centre,"sb\sprites\c2.png",279,102 F,2,53897,54563,0.5,0 S,2,53897,54563,0.2,0.4 P,0,53897,54732,A
Sprite,Foreground,Centre,"sb\sprites\c2.png",337,423 F,2,54236,54902,0.5,0 S,2,54236,54902,0.2,0.4 P,0,54236,54902,A
Sprite,Foreground,Centre,"sb\sprites\c2.png",125,356 F,2,54405,55071,0.5,0 S,2,54405,55071,0.2,0.4 P,0,54405,55071,A
Sprite,Foreground,Centre,"sb\sprites\c2.png",347,337 F,2,54575,55241,0.5,0 S,2,54575,55241,0.2,0.4 P,0,54575,55410,A
Sprite,Foreground,Centre,"sb\sprites\c2.png",479,179 F,2,54914,55580,0.5,0 S,2,54914,55580,0.2,0.4 P,0,54914,55834,A
Sprite,Foreground,Centre,"sb\sprites\c2.png",321,258 F,2,55253,55919,0.5,0 S,2,55253,55919,0.2,0.4 P,0,55253,56257,A
Sprite,Foreground,Centre,"sb\sprites\c2.png",350,166 F,2,55761,56427,0.5,0 S,2,55761,56427,0.2,0.4 P,0,55761,56427,A
Sprite,Foreground,Centre,"sb\sprites\c2.png",553,76 F,2,55931,56597,0.5,0 S,2,55931,56597,0.2,0.4 P,0,55931,56766,A
Sprite,Foreground,Centre,"sb\sprites\c2.png",263,194 F,2,56269,56935,0.5,0 S,2,56269,56935,0.2,0.4 P,0,56269,56935,A
Sprite,Foreground,Centre,"sb\sprites\c2.png",565,267 F,2,56439,57105,0.5,0 S,2,56439,57105,0.2,0.4 P,0,56439,57274,A
Sprite,Foreground,Centre,"sb\sprites\c2.png",293,112 F,2,56778,57444,0.5,0 S,2,56778,57444,0.2,0.4 P,0,56778,57444,A
Sprite,Foreground,Centre,"sb\sprites\c2.png",453,377 F,2,56947,57613,0.5,0 S,2,56947,57613,0.2,0.4 P,0,56947,57782,A
Sprite,Foreground,Centre,"sb\sprites\c2.png",210,115 F,2,57286,57952,0.5,0 S,2,57286,57952,0.2,0.4 P,0,57286,57952,A
Sprite,Foreground,Centre,"sb\sprites\c2.png",107,356 F,2,57456,58122,0.5,0 S,2,57456,58122,0.2,0.4 P,0,57456,58122,A
Sprite,Foreground,Centre,"sb\sprites\c2.png",385,214 F,2,57625,58291,0.5,0 S,2,57625,58291,0.2,0.4 P,0,57625,58545,A
Sprite,Foreground,Centre,"sb\sprites\c2.png",156,288 F,2,57964,58630,0.5,0 S,2,57964,58630,0.2,0.4 P,0,57964,58630,A
Sprite,Foreground,Centre,"sb\sprites\c2.png",396,202 F,2,58134,58800,0.5,0 S,2,58134,58800,0.2,0.4 P,0,58134,58800,A
Sprite,Foreground,Centre,"sb\sprites\c2.png",493,315 F,2,58303,58969,0.5,0 S,2,58303,58969,0.2,0.4 P,0,58303,58969,A
Sprite,Foreground,Centre,"sb\sprites\c2.png",272,289 F,2,58473,59139,0.5,0 S,2,58473,59139,0.2,0.4 P,0,58473,59139,A
Sprite,Foreground,Centre,"sb\sprites\c2.png",433,107 F,2,58642,59308,0.5,0 S,2,58642,59308,0.2,0.4 P,0,58642,59308,A
Sprite,Foreground,Centre,"sb\sprites\c2.png",338,350 F,2,58812,59478,0.5,0 S,2,58812,59478,0.2,0.4 P,0,58812,59478,A
Sprite,Foreground,Centre,"sb\sprites\c2.png",188,136 F,2,58981,59647,0.5,0 S,2,58981,59647,0.2,0.4 P,0,58981,59647,A
Sprite,Foreground,Centre,"sb\sprites\c2.png",396,202 F,2,59151,59817,0.5,0 S,2,59151,59817,0.2,0.4 P,0,59151,59817,A
Sprite,Foreground,Centre,"sb\sprites\c2.png",143,208 F,2,59320,59986,0.5,0 S,2,59320,59986,0.2,0.4 P,0,59320,60155,A
Sprite,Foreground,Centre,"sb\sprites\c2.png",393,119 F,2,59659,60325,0.5,0 S,2,59659,60325,0.2,0.4 P,0,59659,60325,A
Sprite,Foreground,Centre,"sb\sprites\c2.png",136,362 F,2,59829,60495,0.5,0 S,2,59829,60495,0.2,0.4 P,0,59829,60495,A
Sprite,Foreground,Centre,"sb\sprites\c2.png",267,85 F,2,59998,60664,0.5,0 S,2,59998,60664,0.2,0.4 P,0,59998,60664,A
Sprite,Foreground,Centre,"sb\sprites\c2.png",446,400 F,2,60168,60834,0.5,0 S,2,60168,60834,0.2,0.4 P,0,60168,60834,A
Sprite,Foreground,Centre,"sb\sprites\c2.png",336,252 F,2,60337,61003,0.5,0 S,2,60337,61003,0.2,0.4 P,0,60337,61172,A
Sprite,Foreground,Centre,"sb\sprites\c2.png",222,164 F,2,60676,61342,0.5,0 S,2,60676,61342,0.2,0.4 P,0,60676,61342,A
Sprite,Foreground,Centre,"sb\sprites\c2.png",327,411 F,2,60846,61512,0.5,0 S,2,60846,61512,0.2,0.4 P,0,60846,61512,A
Sprite,Foreground,Centre,"sb\sprites\c2.png",146,205 F,2,61015,61681,0.5,0 S,2,61015,61681,0.2,0.4 P,0,61015,61681,A
Sprite,Foreground,Centre,"sb\sprites\c2.png",132,440 F,2,61185,61851,0.5,0 S,2,61185,61851,0.2,0.4 P,0,61185,61851,A
Sprite,Foreground,Centre,"sb\sprites\c2.png",307,177 F,2,61354,62020,0.5,0 S,2,61354,62020,0.2,0.4 P,0,61354,62358,A
Sprite,Foreground,Centre,"sb\sprites\c2.png",142,123 F,2,62032,62698,0.5,0 S,2,62032,62698,0.2,0.4 P,0,62032,62698,A
Sprite,Foreground,Centre,"sb\sprites\c2.png",392,253 F,2,62202,62868,0.5,0 S,2,62202,62868,0.2,0.4 P,0,62202,62868,A
Sprite,Foreground,Centre,"sb\sprites\c2.png",158,303 F,2,62371,63037,0.5,0 S,2,62371,63037,0.2,0.4 P,0,62371,63037,A
Sprite,Foreground,Centre,"sb\sprites\c2.png",332,82 F,2,62541,63207,0.5,0 S,2,62541,63207,0.2,0.4 P,0,62541,63207,A
Sprite,Foreground,Centre,"sb\sprites\c2.png",129,215 F,2,62710,63376,0.5,0 S,2,62710,63376,0.2,0.4 P,0,62710,63714,A
Sprite,Foreground,Centre,"sb\sprites\c2.png",367,158 F,2,63388,64054,0.5,0 S,2,63388,64054,0.2,0.4 P,0,63388,64054,A
Sprite,Foreground,Centre,"sb\sprites\c2.png",234,401 F,2,63558,64224,0.5,0 S,2,63558,64224,0.2,0.4 P,0,63558,64224,A
Sprite,Foreground,Centre,"sb\sprites\c2.png",489,407 F,2,63727,64393,0.5,0 S,2,63727,64393,0.2,0.4 P,0,63727,64393,A
Sprite,Foreground,Centre,"sb\sprites\c2.png",245,270 F,2,63897,64563,0.5,0 S,2,63897,64563,0.2,0.4 P,0,63897,64563,A
Sprite,Foreground,Centre,"sb\sprites\c2.png",499,114 F,2,64066,64732,0.5,0 S,2,64066,64732,0.2,0.4 P,0,64066,64986,A
Sprite,Foreground,Centre,"sb\sprites\c2.png",511,310 F,2,64405,65071,0.5,0 S,2,64405,65071,0.2,0.4 P,0,64405,65071,A
Sprite,Foreground,Centre,"sb\sprites\c2.png",376,83 F,2,64575,65241,0.5,0 S,2,64575,65241,0.2,0.4 P,0,64575,65241,A
Sprite,Foreground,Centre,"sb\sprites\c2.png",302,333 F,2,64744,65410,0.5,0 S,2,64744,65410,0.2,0.4 P,0,64744,65579,A
Sprite,Foreground,Centre,"sb\sprites\c2.png",64,115 F,2,65083,65749,0.5,0 S,2,65083,65749,0.2,0.4 P,0,65083,65749,A
Sprite,Foreground,Centre,"sb\sprites\c2.png",245,270 F,2,65253,65919,0.5,0 S,2,65253,65919,0.2,0.4 P,0,65253,65919,A
Sprite,Foreground,Centre,"sb\sprites\c2.png",64,406 F,2,65422,66088,0.5,0 S,2,65422,66088,0.2,0.4 P,0,65422,66257,A
Sprite,Foreground,Centre,"sb\sprites\c2.png",219,150 F,2,65761,66427,0.5,0 S,2,65761,66427,0.2,0.4 P,0,65761,66681,A
Sprite,Foreground,Centre,"sb\sprites\c2.png",355,245 F,2,66100,66766,0.5,0 S,2,66100,66766,0.2,0.4 P,0,66100,67104,A
Sprite,Foreground,Centre,"sb\sprites\c2.png",245,270 F,2,66608,67274,0.5,0 S,2,66608,67274,0.2,0.4 P,0,66608,67274,A
Sprite,Foreground,Centre,"sb\sprites\c2.png",437,159 F,2,66778,67444,0.5,0 S,2,66778,67444,0.2,0.4 P,0,66778,67613,A
Sprite,Foreground,Centre,"sb\sprites\c2.png",314,327 F,2,67117,67783,0.5,0 S,2,67117,67783,0.2,0.4 P,0,67117,67783,A
Sprite,Foreground,Centre,"sb\sprites\c2.png",94,149 F,2,67286,67952,0.5,0 S,2,67286,67952,0.2,0.4 P,0,67286,68121,A
Sprite,Foreground,Centre,"sb\sprites\c2.png",404,348 F,2,67625,68291,0.5,0 S,2,67625,68291,0.2,0.4 P,0,67625,68291,A
Sprite,Foreground,Centre,"sb\sprites\c2.png",301,178 F,2,67795,68461,0.5,0 S,2,67795,68461,0.2,0.4 P,0,67795,68630,A
Sprite,Foreground,Centre,"sb\sprites\c2.png",488,297 F,2,68134,68800,0.5,0 S,2,68134,68800,0.2,0.4 P,0,68134,68800,A
Sprite,Foreground,Centre,"sb\sprites\c2.png",238,353 F,2,68303,68969,0.5,0 S,2,68303,68969,0.2,0.4 P,0,68303,68969,A
Sprite,Foreground,Centre,"sb\sprites\c2.png",399,116 F,2,68473,69139,0.5,0 S,2,68473,69139,0.2,0.4 P,0,68473,69308,A
Sprite,Foreground,Centre,"sb\sprites\c2.png",244,323 F,2,68812,69478,0.5,0 S,2,68812,69478,0.2,0.4 P,0,68812,69478,A
Sprite,Foreground,Centre,"sb\sprites\c2.png",192,70 F,2,68981,69647,0.5,0 S,2,68981,69647,0.2,0.4 P,0,68981,69647,A
Sprite,Foreground,Centre,"sb\sprites\c2.png",107,340 F,2,69151,69817,0.5,0 S,2,69151,69817,0.2,0.4 P,0,69151,69817,A
Sprite,Foreground,Centre,"sb\sprites\c2.png",292,138 F,2,69320,69986,0.5,0 S,2,69320,69986,0.2,0.4 P,0,69320,69986,A
Sprite,Foreground,Centre,"sb\sprites\c2.png",334,409 F,2,69490,70156,0.5,0 S,2,69490,70156,0.2,0.4 P,0,69490,70156,A
Sprite,Foreground,Centre,"sb\sprites\c2.png",168,262 F,2,69659,70325,0.5,0 S,2,69659,70325,0.2,0.4 P,0,69659,70325,A
Sprite,Foreground,Centre,"sb\sprites\c2.png",421,197 F,2,69829,70495,0.5,0 S,2,69829,70495,0.2,0.4 P,0,69829,70495,A
Sprite,Foreground,Centre,"sb\sprites\c2.png",223,343 F,2,69998,70664,0.5,0 S,2,69998,70664,0.2,0.4 P,0,69998,70833,A
Sprite,Foreground,Centre,"sb\sprites\c2.png",333,251 F,2,93219,93885,0.5,0 S,2,93219,93885,0.2,0.4 P,0,93219,93885,A
Sprite,Foreground,Centre,"sb\sprites\c2.png",95,216 F,2,93388,94054,0.5,0 S,2,93388,94054,0.2,0.4 P,0,93388,94054,A
Sprite,Foreground,Centre,"sb\sprites\c2.png",332,360 F,2,93558,94224,0.5,0 S,2,93558,94224,0.2,0.4 P,0,93558,94224,A
Sprite,Foreground,Centre,"sb\sprites\c2.png",88,389 F,2,93727,94393,0.5,0 S,2,93727,94393,0.2,0.4 P,0,93727,94393,A
Sprite,Foreground,Centre,"sb\sprites\c2.png",398,311 F,2,93897,94563,0.5,0 S,2,93897,94563,0.2,0.4 P,0,93897,94901,A
Sprite,Foreground,Centre,"sb\sprites\c2.png",294,166 F,2,94575,95241,0.5,0 S,2,94575,95241,0.2,0.4 P,0,94575,95241,A
Sprite,Foreground,Centre,"sb\sprites\c2.png",249,412 F,2,94744,95410,0.5,0 S,2,94744,95410,0.2,0.4 P,0,94744,95410,A
Sprite,Foreground,Centre,"sb\sprites\c2.png",388,167 F,2,94914,95580,0.5,0 S,2,94914,95580,0.2,0.4 P,0,94914,95580,A
Sprite,Foreground,Centre,"sb\sprites\c2.png",439,418 F,2,95083,95749,0.5,0 S,2,95083,95749,0.2,0.4 P,0,95083,95749,A
Sprite,Foreground,Centre,"sb\sprites\c2.png",472,163 F,2,95253,95919,0.5,0 S,2,95253,95919,0.2,0.4 P,0,95253,96257,A
Sprite,Foreground,Centre,"sb\sprites\c2.png",238,206 F,2,95931,96597,0.5,0 S,2,95931,96597,0.2,0.4 P,0,95931,96597,A
Sprite,Foreground,Centre,"sb\sprites\c2.png",439,69 F,2,96100,96766,0.5,0 S,2,96100,96766,0.2,0.4 P,0,96100,96766,A
Sprite,Foreground,Centre,"sb\sprites\c2.png",449,327 F,2,96269,96935,0.5,0 S,2,96269,96935,0.2,0.4 P,0,96269,96935,A
Sprite,Foreground,Centre,"sb\sprites\c2.png",307,123 F,2,96439,97105,0.5,0 S,2,96439,97105,0.2,0.4 P,0,96439,97105,A
Sprite,Foreground,Centre,"sb\sprites\c2.png",210,371 F,2,96608,97274,0.5,0 S,2,96608,97274,0.2,0.4 P,0,96608,97528,A
Sprite,Foreground,Centre,"sb\sprites\c2.png",238,206 F,2,96947,97613,0.5,0 S,2,96947,97613,0.2,0.4 P,0,96947,97613,A
Sprite,Foreground,Centre,"sb\sprites\c2.png",129,407 F,2,97117,97783,0.5,0 S,2,97117,97783,0.2,0.4 P,0,97117,97783,A
Sprite,Foreground,Centre,"sb\sprites\c2.png",186,145 F,2,97286,97952,0.5,0 S,2,97286,97952,0.2,0.4 P,0,97286,98121,A
Sprite,Foreground,Centre,"sb\sprites\c2.png",336,397 F,2,97625,98291,0.5,0 S,2,97625,98291,0.2,0.4 P,0,97625,98291,A
Sprite,Foreground,Centre,"sb\sprites\c2.png",110,313 F,2,97795,98461,0.5,0 S,2,97795,98461,0.2,0.4 P,0,97795,98461,A
Sprite,Foreground,Centre,"sb\sprites\c2.png",361,281 F,2,97964,98630,0.5,0 S,2,97964,98630,0.2,0.4 P,0,97964,98799,A
Sprite,Foreground,Centre,"sb\sprites\c2.png",509,187 F,2,98303,98969,0.5,0 S,2,98303,98969,0.2,0.4 P,0,98303,99223,A
Sprite,Foreground,Centre,"sb\sprites\c2.png",361,281 F,2,98642,99308,0.5,0 S,2,98642,99308,0.2,0.4 P,0,98642,99646,A
Sprite,Foreground,Centre,"sb\sprites\c2.png",159,105 F,2,99151,99817,0.5,0 S,2,99151,99817,0.2,0.4 P,0,99151,99817,A
Sprite,Foreground,Centre,"sb\sprites\c2.png",413,179 F,2,99320,99986,0.5,0 S,2,99320,99986,0.2,0.4 P,0,99320,100155,A
Sprite,Foreground,Centre,"sb\sprites\c2.png",275,250 F,2,99659,100325,0.5,0 S,2,99659,100325,0.2,0.4 P,0,99659,100325,A
Sprite,Foreground,Centre,"sb\sprites\c2.png",450,363 F,2,99829,100495,0.5,0 S,2,99829,100495,0.2,0.4 P,0,99829,100664,A
Sprite,Foreground,Centre,"sb\sprites\c2.png",413,179 F,2,100168,100834,0.5,0 S,2,100168,100834,0.2,0.4 P,0,100168,100834,A
Sprite,Foreground,Centre,"sb\sprites\c2.png",193,313 F,2,100337,101003,0.5,0 S,2,100337,101003,0.2,0.4 P,0,100337,101172,A
Sprite,Foreground,Centre,"sb\sprites\c2.png",318,161 F,2,100676,101342,0.5,0 S,2,100676,101342,0.2,0.4 P,0,100676,101342,A
Sprite,Foreground,Centre,"sb\sprites\c2.png",159,236 F,2,100846,101512,0.5,0 S,2,100846,101512,0.2,0.4 P,0,100846,101512,A
Sprite,Foreground,Centre,"sb\sprites\c2.png",64,78 F,2,101015,101681,0.5,0 S,2,101015,101681,0.2,0.4 P,0,101015,101935,A
Sprite,Foreground,Centre,"sb\sprites\c2.png",326,56 F,2,101354,102020,0.5,0 S,2,101354,102020,0.2,0.4 P,0,101354,102020,A
Sprite,Foreground,Centre,"sb\sprites\c2.png",257,274 F,2,101524,102190,0.5,0 S,2,101524,102190,0.2,0.4 P,0,101524,102190,A
Sprite,Foreground,Centre,"sb\sprites\c2.png",437,131 F,2,101693,102359,0.5,0 S,2,101693,102359,0.2,0.4 P,0,101693,102359,A
Sprite,Foreground,Centre,"sb\sprites\c2.png",194,166 F,2,101863,102529,0.5,0 S,2,101863,102529,0.2,0.4 P,0,101863,102529,A
Sprite,Foreground,Centre,"sb\sprites\c2.png",448,299 F,2,102032,102698,0.5,0 S,2,102032,102698,0.2,0.4 P,0,102032,102698,A
Sprite,Foreground,Centre,"sb\sprites\c2.png",405,56 F,2,102202,102868,0.5,0 S,2,102202,102868,0.2,0.4 P,0,102202,102868,A
Sprite,Foreground,Centre,"sb\sprites\c2.png",558,211 F,2,102371,103037,0.5,0 S,2,102371,103037,0.2,0.4 P,0,102371,103037,A
Sprite,Foreground,Centre,"sb\sprites\c2.png",347,145 F,2,102541,103207,0.5,0 S,2,102541,103207,0.2,0.4 P,0,102541,103207,A
Sprite,Foreground,Centre,"sb\sprites\c2.png",237,316 F,2,102710,103376,0.5,0 S,2,102710,103376,0.2,0.4 P,0,102710,103545,A
Sprite,Foreground,Centre,"sb\sprites\c2.png",506,439 F,2,103049,103715,0.5,0 S,2,103049,103715,0.2,0.4 P,0,103049,103715,A
Sprite,Foreground,Centre,"sb\sprites\c2.png",267,160 F,2,103219,103885,0.5,0 S,2,103219,103885,0.2,0.4 P,0,103219,103885,A
Sprite,Foreground,Centre,"sb\sprites\c2.png",244,440 F,2,103388,104054,0.5,0 S,2,103388,104054,0.2,0.4 P,0,103388,104054,A
Sprite,Foreground,Centre,"sb\sprites\c2.png",543,207 F,2,103558,104224,0.5,0 S,2,103558,104224,0.2,0.4 P,0,103558,104224,A
Sprite,Foreground,Centre,"sb\sprites\c2.png",387,310 F,2,103727,104393,0.5,0 S,2,103727,104393,0.2,0.4 P,0,103727,104562,A
Sprite,Foreground,Centre,"sb\sprites\c2.png",263,112 F,2,104066,104732,0.5,0 S,2,104066,104732,0.2,0.4 P,0,104066,104732,A
Sprite,Foreground,Centre,"sb\sprites\c2.png",304,355 F,2,104236,104902,0.5,0 S,2,104236,104902,0.2,0.4 P,0,104236,104902,A
Sprite,Foreground,Centre,"sb\sprites\c2.png",431,143 F,2,104405,105071,0.5,0 S,2,104405,105071,0.2,0.4 P,0,104405,105071,A
Sprite,Foreground,Centre,"sb\sprites\c2.png",477,389 F,2,104575,105241,0.5,0 S,2,104575,105241,0.2,0.4 P,0,104575,105241,A
Sprite,Foreground,Centre,"sb\sprites\c2.png",243,187 F,2,104744,105410,0.5,0 S,2,104744,105410,0.2,0.4 P,0,104744,105748,A
Sprite,Foreground,Centre,"sb\sprites\c2.png",115,232 F,2,105422,106088,0.5,0 S,2,105422,106088,0.2,0.4 P,0,105422,106088,A
Sprite,Foreground,Centre,"sb\sprites\c2.png",349,67 F,2,105592,106258,0.5,0 S,2,105592,106258,0.2,0.4 P,0,105592,106258,A
Sprite,Foreground,Centre,"sb\sprites\c2.png",91,102 F,2,105761,106427,0.5,0 S,2,105761,106427,0.2,0.4 P,0,105761,106427,A
Sprite,Foreground,Centre,"sb\sprites\c2.png",363,205 F,2,105931,106597,0.5,0 S,2,105931,106597,0.2,0.4 P,0,105931,106597,A
Sprite,Foreground,Centre,"sb\sprites\c2.png",207,336 F,2,106100,106766,0.5,0 S,2,106100,106766,0.2,0.4 P,0,106100,107104,A
Sprite,Foreground,Centre,"sb\sprites\c2.png",239,88 F,2,106778,107444,0.5,0 S,2,106778,107444,0.2,0.4 P,0,106778,107444,A
Sprite,Foreground,Centre,"sb\sprites\c2.png",87,309 F,2,106947,107613,0.5,0 S,2,106947,107613,0.2,0.4 P,0,106947,107613,A
Sprite,Foreground,Centre,"sb\sprites\c2.png",363,205 F,2,107117,107783,0.5,0 S,2,107117,107783,0.2,0.4 P,0,107117,107783,A
Sprite,Foreground,Centre,"sb\sprites\c2.png",76,95 F,2,107286,107952,0.5,0 S,2,107286,107952,0.2,0.4 P,0,107286,107952,A
Sprite,Foreground,Centre,"sb\sprites\c2.png",285,372 F,2,107456,108122,0.5,0 S,2,107456,108122,0.2,0.4 P,0,107456,108376,A
Sprite,Foreground,Centre,"sb\sprites\c2.png",574,386 F,2,107795,108461,0.5,0 S,2,107795,108461,0.2,0.4 P,0,107795,108461,A
Sprite,Foreground,Centre,"sb\sprites\c2.png",341,288 F,2,107964,108630,0.5,0 S,2,107964,108630,0.2,0.4 P,0,107964,108630,A
Sprite,Foreground,Centre,"sb\sprites\c2.png",494,117 F,2,108134,108800,0.5,0 S,2,108134,108800,0.2,0.4 P,0,108134,108969,A
Sprite,Foreground,Centre,"sb\sprites\c2.png",473,423 F,2,108473,109139,0.5,0 S,2,108473,109139,0.2,0.4 P,0,108473,109139,A
Sprite,Foreground,Centre,"sb\sprites\c2.png",255,280 F,2,108642,109308,0.5,0 S,2,108642,109308,0.2,0.4 P,0,108642,109308,A
Sprite,Foreground,Centre,"sb\sprites\c2.png",369,66 F,2,108812,109478,0.5,0 S,2,108812,109478,0.2,0.4 P,0,108812,109647,A
Sprite,Foreground,Centre,"sb\sprites\c2.png",322,440 F,2,109151,109817,0.5,0 S,2,109151,109817,0.2,0.4 P,0,109151,110071,A
Sprite,Foreground,Centre,"sb\sprites\c2.png",228,255 F,2,109490,110156,0.5,0 S,2,109490,110156,0.2,0.4 P,0,109490,110494,A
Sprite,Foreground,Centre,"sb\sprites\c2.png",105,232 F,2,109998,110664,0.5,0 S,2,109998,110664,0.2,0.4 P,0,109998,110664,A
Sprite,Foreground,Centre,"sb\sprites\c2.png",312,163 F,2,110168,110834,0.5,0 S,2,110168,110834,0.2,0.4 P,0,110168,111003,A
Sprite,Foreground,Centre,"sb\sprites\c2.png",180,56 F,2,110507,111173,0.5,0 S,2,110507,111173,0.2,0.4 P,0,110507,111173,A
Sprite,Foreground,Centre,"sb\sprites\c2.png",247,283 F,2,110676,111342,0.5,0 S,2,110676,111342,0.2,0.4 P,0,110676,111511,A
Sprite,Foreground,Centre,"sb\sprites\c2.png",174,150 F,2,111015,111681,0.5,0 S,2,111015,111681,0.2,0.4 P,0,111015,111681,A
Sprite,Foreground,Centre,"sb\sprites\c2.png",436,172 F,2,111185,111851,0.5,0 S,2,111185,111851,0.2,0.4 P,0,111185,112020,A
Sprite,Foreground,Centre,"sb\sprites\c2.png",182,237 F,2,111524,112190,0.5,0 S,2,111524,112190,0.2,0.4 P,0,111524,112190,A
Sprite,Foreground,Centre,"sb\sprites\c2.png",386,105 F,2,111693,112359,0.5,0 S,2,111693,112359,0.2,0.4 P,0,111693,112359,A
Sprite,Foreground,Centre,"sb\sprites\c2.png",132,84 F,2,111863,112529,0.5,0 S,2,111863,112529,0.2,0.4 P,0,111863,112698,A
Sprite,Foreground,Centre,"sb\sprites\c2.png",176,403 F,2,112202,112868,0.5,0 S,2,112202,112868,0.2,0.4 P,0,112202,113037,A
Sprite,Foreground,Centre,"sb\sprites\c2.png",275,144 F,2,112541,113207,0.5,0 S,2,112541,113207,0.2,0.4 P,0,112541,113207,A
Sprite,Foreground,Centre,"sb\sprites\c2.png",361,359 F,2,112710,113376,0.5,0 S,2,112710,113376,0.2,0.4 P,0,112710,113376,A
Sprite,Foreground,Centre,"sb\sprites\c2.png",454,62 F,2,112880,113546,0.5,0 S,2,112880,113546,0.2,0.4 P,0,112880,113546,A
Sprite,Foreground,Centre,"sb\sprites\c2.png",209,88 F,2,113049,113715,0.5,0 S,2,113049,113715,0.2,0.4 P,0,113049,113715,A
Sprite,Foreground,Centre,"sb\sprites\c2.png",255,413 F,2,113219,113885,0.5,0 S,2,113219,113885,0.2,0.4 P,0,113219,113885,A
Sprite,Foreground,Centre,"sb\sprites\c2.png",275,144 F,2,113388,114054,0.5,0 S,2,113388,114054,0.2,0.4 P,0,113388,114054,A
Sprite,Foreground,Centre,"sb\sprites\c2.png",74,428 F,2,113558,114224,0.5,0 S,2,113558,114224,0.2,0.4 P,0,113558,114224,A
Sprite,Foreground,Centre,"sb\sprites\c2.png",353,182 F,2,113727,114393,0.5,0 S,2,113727,114393,0.2,0.4 P,0,113727,114393,A
Sprite,Foreground,Centre,"sb\sprites\c2.png",386,440 F,2,113897,114563,0.5,0 S,2,113897,114563,0.2,0.4 P,0,113897,114563,A
Sprite,Foreground,Centre,"sb\sprites\c2.png",89,248 F,2,114066,114732,0.5,0 S,2,114066,114732,0.2,0.4 P,0,114066,114732,A
Sprite,Foreground,Centre,"sb\sprites\c2.png",477,251 F,2,114236,114902,0.5,0 S,2,114236,114902,0.2,0.4 P,0,114236,114986,A
Sprite,Foreground,Centre,"sb\sprites\c2.png",184,323 F,2,114405,115071,0.5,0 S,2,114405,115071,0.2,0.4 P,0,114405,115409,A
Sprite,Foreground,Centre,"sb\sprites\c2.png",506,337 F,2,114829,115495,0.5,0 S,2,114829,115495,0.2,0.4 P,0,114829,115495,A
Sprite,Foreground,Centre,"sb\sprites\c2.png",346,316 F,2,125761,126427,0.5,0 S,2,125761,126427,0.2,0.4 P,0,125761,126427,A
Sprite,Foreground,Centre,"sb\sprites\c2.png",212,75 F,2,125931,126597,0.5,0 S,2,125931,126597,0.2,0.4 P,0,125931,126597,A
Sprite,Foreground,Centre,"sb\sprites\c2.png",261,324 F,2,126100,126766,0.5,0 S,2,126100,126766,0.2,0.4 P,0,126100,126766,A
Sprite,Foreground,Centre,"sb\sprites\c2.png",338,72 F,2,126269,126935,0.5,0 S,2,126269,126935,0.2,0.4 P,0,126269,126935,A
Sprite,Foreground,Centre,"sb\sprites\c2.png",464,310 F,2,126439,127105,0.5,0 S,2,126439,127105,0.2,0.4 P,0,126439,127443,A
Sprite,Foreground,Centre,"sb\sprites\c2.png",494,84 F,2,127117,127783,0.5,0 S,2,127117,127783,0.2,0.4 P,0,127117,127783,A
Sprite,Foreground,Centre,"sb\sprites\c2.png",346,316 F,2,127286,127952,0.5,0 S,2,127286,127952,0.2,0.4 P,0,127286,127952,A
Sprite,Foreground,Centre,"sb\sprites\c2.png",338,72 F,2,127456,128122,0.5,0 S,2,127456,128122,0.2,0.4 P,0,127456,128122,A
Sprite,Foreground,Centre,"sb\sprites\c2.png",512,265 F,2,127625,128291,0.5,0 S,2,127625,128291,0.2,0.4 P,0,127625,128291,A
Sprite,Foreground,Centre,"sb\sprites\c2.png",251,332 F,2,127795,128461,0.5,0 S,2,127795,128461,0.2,0.4 P,0,127795,128799,A
Sprite,Foreground,Centre,"sb\sprites\c2.png",423,265 F,2,128473,129139,0.5,0 S,2,128473,129139,0.2,0.4 P,0,128473,129139,A
Sprite,Foreground,Centre,"sb\sprites\c2.png",219,413 F,2,128642,129308,0.5,0 S,2,128642,129308,0.2,0.4 P,0,128642,129308,A
Sprite,Foreground,Centre,"sb\sprites\c2.png",176,165 F,2,128812,129478,0.5,0 S,2,128812,129478,0.2,0.4 P,0,128812,129478,A
Sprite,Foreground,Centre,"sb\sprites\c2.png",346,316 F,2,128981,129647,0.5,0 S,2,128981,129647,0.2,0.4 P,0,128981,129647,A
Sprite,Foreground,Centre,"sb\sprites\c2.png",96,133 F,2,129151,129817,0.5,0 S,2,129151,129817,0.2,0.4 P,0,129151,129986,A
Sprite,Foreground,Centre,"sb\sprites\c2.png",315,162 F,2,129490,130156,0.5,0 S,2,129490,130156,0.2,0.4 P,0,129490,130156,A
Sprite,Foreground,Centre,"sb\sprites\c2.png",107,221 F,2,129659,130325,0.5,0 S,2,129659,130325,0.2,0.4 P,0,129659,130325,A
Sprite,Foreground,Centre,"sb\sprites\c2.png",451,268 F,2,129829,130495,0.5,0 S,2,129829,130495,0.2,0.4 P,0,129829,130495,A
Sprite,Foreground,Centre,"sb\sprites\c2.png",245,209 F,2,129998,130664,0.5,0 S,2,129998,130664,0.2,0.4 P,0,129998,130664,A
Sprite,Foreground,Centre,"sb\sprites\c2.png",525,186 F,2,130168,130834,0.5,0 S,2,130168,130834,0.2,0.4 P,0,130168,130834,A
Sprite,Foreground,Centre,"sb\sprites\c2.png",319,245 F,2,130337,131003,0.5,0 S,2,130337,131003,0.2,0.4 P,0,130337,131003,A
Sprite,Foreground,Centre,"sb\sprites\c2.png",523,396 F,2,130507,131173,0.5,0 S,2,130507,131173,0.2,0.4 P,0,130507,131342,A
Sprite,Foreground,Centre,"sb\sprites\c2.png",412,166 F,2,130846,131512,0.5,0 S,2,130846,131512,0.2,0.4 P,0,130846,131512,A
Sprite,Foreground,Centre,"sb\sprites\c2.png",533,271 F,2,131185,131851,0.5,0 S,2,131185,131851,0.2,0.4 P,0,131185,131851,A
Sprite,Foreground,Centre,"sb\sprites\c2.png",432,56 F,2,131354,132020,0.5,0 S,2,131354,132020,0.2,0.4 P,0,131354,132020,A
Sprite,Foreground,Centre,"sb\sprites\c2.png",451,268 F,2,131524,132190,0.5,0 S,2,131524,132190,0.2,0.4 P,0,131524,132190,A
Sprite,Foreground,Centre,"sb\sprites\c2.png",552,56 F,2,131693,132359,0.5,0 S,2,131693,132359,0.2,0.4 P,0,131693,132359,A
Sprite,Foreground,Centre,"sb\sprites\c2.png",355,269 F,2,131863,132529,0.5,0 S,2,131863,132529,0.2,0.4 P,0,131863,132698,A
Sprite,Foreground,Centre,"sb\sprites\c2.png",496,200 F,2,132202,132868,0.5,0 S,2,132202,132868,0.2,0.4 P,0,132202,132868,A
Sprite,Foreground,Centre,"sb\sprites\c2.png",248,191 F,2,132371,133037,0.5,0 S,2,132371,133037,0.2,0.4 P,0,132371,133206,A
Sprite,Foreground,Centre,"sb\sprites\c2.png",352,151 F,2,132710,133376,0.5,0 S,2,132710,133376,0.2,0.4 P,0,132710,133376,A
Sprite,Foreground,Centre,"sb\sprites\c2.png",149,401 F,2,132880,133546,0.5,0 S,2,132880,133546,0.2,0.4 P,0,132880,133715,A
Sprite,Foreground,Centre,"sb\sprites\c2.png",280,74 F,2,133219,133885,0.5,0 S,2,133219,133885,0.2,0.4 P,0,133219,133885,A
Sprite,Foreground,Centre,"sb\sprites\c2.png",337,310 F,2,133388,134054,0.5,0 S,2,133388,134054,0.2,0.4 P,0,133388,134054,A
Sprite,Foreground,Centre,"sb\sprites\c2.png",115,189 F,2,133558,134224,0.5,0 S,2,133558,134224,0.2,0.4 P,0,133558,134393,A
Sprite,Foreground,Centre,"sb\sprites\c2.png",513,164 F,2,133897,134563,0.5,0 S,2,133897,134563,0.2,0.4 P,0,133897,134563,A
Sprite,Foreground,Centre,"sb\sprites\c2.png",268,265 F,2,134066,134732,0.5,0 S,2,134066,134732,0.2,0.4 P,0,134066,134732,A
Sprite,Foreground,Centre,"sb\sprites\c2.png",452,96 F,2,134236,134902,0.5,0 S,2,134236,134902,0.2,0.4 P,0,134236,134902,A
Sprite,Foreground,Centre,"sb\sprites\c2.png",337,310 F,2,134405,135071,0.5,0 S,2,134405,135071,0.2,0.4 P,0,134405,135071,A
Sprite,Foreground,Centre,"sb\sprites\c2.png",171,81 F,2,134575,135241,0.5,0 S,2,134575,135241,0.2,0.4 P,0,134575,135241,A
Sprite,Foreground,Centre,"sb\sprites\c2.png",337,310 F,2,134744,135410,0.5,0 S,2,134744,135410,0.2,0.4 P,0,134744,135410,A
Sprite,Foreground,Centre,"sb\sprites\c2.png",539,83 F,2,134914,135580,0.5,0 S,2,134914,135580,0.2,0.4 P,0,134914,135580,A
Sprite,Foreground,Centre,"sb\sprites\c2.png",268,265 F,2,135083,135749,0.5,0 S,2,135083,135749,0.2,0.4 P,0,135083,135749,A
Sprite,Foreground,Centre,"sb\sprites\c2.png",576,248 F,2,135253,135919,0.5,0 S,2,135253,135919,0.2,0.4 P,0,135253,135919,A
Sprite,Foreground,Centre,"sb\sprites\c2.png",239,156 F,2,135422,136088,0.5,0 S,2,135422,136088,0.2,0.4 P,0,135422,136088,A
Sprite,Foreground,Centre,"sb\sprites\c2.png",534,336 F,2,135592,136258,0.5,0 S,2,135592,136258,0.2,0.4 P,0,135592,136258,A
Sprite,Foreground,Centre,"sb\sprites\c2.png",190,371 F,2,135761,136427,0.5,0 S,2,135761,136427,0.2,0.4 P,0,135761,136427,A
Sprite,Foreground,Centre,"sb\sprites\c2.png",452,96 F,2,135931,136597,0.5,0 S,2,135931,136597,0.2,0.4 P,0,135931,136597,A
Sprite,Foreground,Centre,"sb\sprites\c2.png",373,428 F,2,136100,136766,0.5,0 S,2,136100,136766,0.2,0.4 P,0,136100,136766,A
Sprite,Foreground,Centre,"sb\sprites\c2.png",171,81 F,2,136269,136935,0.5,0 S,2,136269,136935,0.2,0.4 P,0,136269,137019,A
Sprite,Foreground,Centre,"sb\sprites\c2.png",289,416 F,2,136439,137105,0.5,0 S,2,136439,137105,0.2,0.4 P,0,136439,137189,A
Sprite,Foreground,Centre,"sb\sprites\c.png",0,0 M,0,17286,,575,373 F,0,17286,,0.9 C,0,17286,,255,255,255 S,7,17286,18396,0.2,0.6 P,0,17286,18396,A F,0,17287,18397,0.9,0 R,22,17287,18397,0,2 M,0,19998,,164,394 F,0,19998,,0.9 C,0,19998,,255,255,255 S,7,19998,21108,0.2,0.6 P,0,19998,21108,A F,0,19999,21109,0.9,0 R,22,19999,21109,0,-1 M,0,22710,,133,161 F,0,22710,,0.9 C,0,22710,,255,255,255 S,7,22710,23820,0.2,0.6 P,0,22710,23820,A F,0,22711,23821,0.9,0 R,22,22711,23821,0,-3 M,0,25422,,310,223 F,0,25422,,0.9 C,0,25422,,255,255,255 S,7,25422,26532,0.2,0.6 P,0,25422,26532,A F,0,25423,26533,0.9,0 R,22,25423,26533,0,3 M,0,28134,,345,176 F,0,28134,,0.9 C,0,28134,,255,255,255 S,7,28134,29244,0.2,0.6 P,0,28134,29244,A F,0,28135,29245,0.9,0 R,22,28135,29245,0,-4 M,0,30846,,263,115 F,0,30846,,0.9 C,0,30846,,255,255,255 S,7,30846,31956,0.2,0.6 P,0,30846,31956,A F,0,30847,31957,0.9,0 R,22,30847,31957,0,-2 M,0,33558,,216,352 F,0,33558,,0.9 C,0,33558,,255,255,255 S,7,33558,34668,0.2,0.6 P,0,33558,34668,A F,0,33559,34669,0.9,0 R,22,33559,34669,0,2 M,0,36269,,242,276 F,0,36269,,0.9 C,0,36269,,255,255,255 S,7,36269,37379,0.2,0.6 P,0,36269,37379,A F,0,36270,37380,0.9,0 R,22,36270,37380,0,-1 M,0,38981,,456,111 F,0,38981,,0.9 C,0,38981,,255,255,255 S,7,38981,40091,0.2,0.6 P,0,38981,40091,A F,0,38982,40092,0.9,0 R,22,38982,40092,0,-3 M,0,41693,,498,190 F,0,41693,,0.9 C,0,41693,,255,255,255 S,7,41693,42803,0.2,0.6 P,0,41693,42803,A F,0,41694,42804,0.9,0 R,22,41694,42804,0,-4 M,0,44405,,329,235 F,0,44405,,0.9 C,0,44405,,255,255,255 S,7,44405,45515,0.2,0.6 P,0,44405,45515,A F,0,44406,45516,0.9,0 R,22,44406,45516,0,2 M,0,47117,,275,415 F,0,47117,,0.9 C,0,47117,,255,255,255 S,7,47117,48227,0.2,0.6 P,0,47117,48227,A F,0,47118,48228,0.9,0 R,22,47118,48228,0,-4 M,0,71524,,168,262 F,0,71524,,0.9 C,0,71524,,255,255,255 S,7,71524,72634,0.2,0.6 P,0,71524,72634,A F,0,71525,72635,0.9,0 R,22,71525,72635,0,-4 M,0,74236,,126,275 F,0,74236,,0.9 C,0,74236,,255,255,255 S,7,74236,75346,0.2,0.6 P,0,74236,75346,A F,0,74237,75347,0.9,0 R,22,74237,75347,0 M,0,76947,,336,293 F,0,76947,,0.9 C,0,76947,,255,255,255 S,7,76947,78057,0.2,0.6 P,0,76947,78057,A F,0,76948,78058,0.9,0 R,22,76948,78058,0,-1
Sprite,Foreground,Centre,"sb\sprites\c.png",0,0 M,0,79659,,415,216 F,0,79659,,0.9 C,0,79659,,255,255,255 S,7,79659,80769,0.2,0.6 P,0,79659,80769,A F,0,79660,80770,0.9,0 R,22,79660,80770,0,-2 M,0,82371,,310,95 F,0,82371,,0.9 C,0,82371,,255,255,255 S,7,82371,83481,0.2,0.6 P,0,82371,83481,A F,0,82372,83482,0.9,0 R,22,82372,83482,0,1 M,0,85083,,128,109 F,0,85083,,0.9 C,0,85083,,255,255,255 S,7,85083,86193,0.2,0.6 P,0,85083,86193,A F,0,85084,86194,0.9,0 R,22,85084,86194,0,-3 M,0,87795,,459,90 F,0,87795,,0.9 C,0,87795,,255,255,255 S,7,87795,88905,0.2,0.6 P,0,87795,88905,A F,0,87796,88906,0.9,0 R,22,87796,88906,0,1 M,0,90507,,388,435 F,0,90507,,0.9 C,0,90507,,255,255,255 S,7,90507,91617,0.2,0.6 P,0,90507,91617,A F,0,90508,91618,0.9,0 R,22,90508,91618,0,-4 M,0,124405,,343,154 F,0,124405,,0.9 C,0,124405,,255,255,255 S,7,124405,125515,0.2,0.6 P,0,124405,125515,A F,0,124406,125516,0.9,0 R,22,124406,125516,0,-4 M,0,125592,,338,72 F,0,125592,,0.9 C,0,125592,,255,255,255 S,7,125592,126702,0.2,0.6 P,0,125592,126702,A F,0,125593,126703,0.9,0 R,22,125593,126703,0,3
Sprite,Foreground,Centre,"sb\sprites\c.png",0,0 M,0,124575,,293,398 F,0,124575,,0.9 C,0,124575,,255,255,255 S,7,124575,125685,0.2,0.6 P,0,124575,125685,A F,0,124576,125686,0.9,0 R,22,124576,125686,0,-2
Sprite,Foreground,Centre,"sb\sprites\c.png",0,0 M,0,124744,,427,126 F,0,124744,,0.9 C,0,124744,,255,255,255 S,7,124744,125854,0.2,0.6 P,0,124744,125854,A F,0,124745,125855,0.9,0 R,22,124745,125855,0,-2
Sprite,Foreground,Centre,"sb\sprites\c.png",0,0 M,0,124914,,502,419 F,0,124914,,0.9 C,0,124914,,255,255,255 S,7,124914,126024,0.2,0.6 P,0,124914,126024,A F,0,124915,126025,0.9,0 R,22,124915,126025,0,1
Sprite,Foreground,Centre,"sb\sprites\c.png",0,0 M,0,125083,,205,192 F,0,125083,,0.9 C,0,125083,,255,255,255 S,7,125083,126193,0.2,0.6 P,0,125083,126193,A F,0,125084,126194,0.9,0 R,22,125084,126194,0,3
Sprite,Foreground,Centre,"sb\sprites\c.png",0,0 M,0,125253,,537,217 F,0,125253,,0.9 C,0,125253,,255,255,255 S,7,125253,126363,0.2,0.6 P,0,125253,126363,A F,0,125254,126364,0.9,0 R,22,125254,126364,0,2
Sprite,Foreground,Centre,"sb\sprites\c.png",0,0 M,0,125422,,206,387 F,0,125422,,0.9 C,0,125422,,255,255,255 S,7,125422,126532,0.2,0.6 P,0,125422,126532,A F,0,125423,126533,0.9,0 R,22,125423,126533,0,1
Sprite,Foreground,Centre,"sb\sprites\hb.png",0,240 L,49830,17 V,2,0,20,1.2,1.313,1.6,1.313 V,2,20,40,1.6,1.313,1.2,1.313 L,50676,1 V,2,0,338,1.2,1.313,0.05,1.313 L,51186,17 V,2,0,20,1.2,1.313,1.6,1.313 V,2,20,40,1.6,1.313,1.2,1.313 L,52032,1 V,2,0,338,1.2,1.313,0.05,1.313 L,52542,17 V,2,0,20,1.2,1.313,1.6,1.313 V,2,20,40,1.6,1.313,1.2,1.313 L,53388,1 V,2,0,338,1.2,1.313,0.05,1.313 L,55254,17 V,2,0,20,1.2,1.313,1.6,1.313 V,2,20,40,1.6,1.313,1.2,1.313 L,56100,1 V,2,0,338,1.2,1.313,0.05,1.313 L,56948,17 V,2,0,20,1.2,1.313,1.6,1.313 V,2,20,40,1.6,1.313,1.2,1.313 L,57794,1 V,2,0,338,1.2,1.313,0.05,1.313 L,60677,17 V,2,0,20,1.2,1.313,1.6,1.313 V,2,20,40,1.6,1.313,1.2,1.313 L,61523,1 V,2,0,338,1.2,1.313,0.05,1.313 L,62033,17 V,2,0,20,1.2,1.313,1.6,1.313 V,2,20,40,1.6,1.313,1.2,1.313 L,62879,1 V,2,0,338,1.2,1.313,0.05,1.313 L,63389,17 V,2,0,20,1.2,1.313,1.6,1.313 V,2,20,40,1.6,1.313,1.2,1.313 L,64235,1 V,2,0,338,1.2,1.313,0.05,1.313 L,66101,17 V,2,0,20,1.2,1.313,1.6,1.313 V,2,20,40,1.6,1.313,1.2,1.313 L,66947,1 V,2,0,338,1.2,1.313,0.05,1.313 L,67796,17 V,2,0,20,1.2,1.313,1.6,1.313 V,2,20,40,1.6,1.313,1.2,1.313 L,68642,1 V,2,0,338,1.2,1.313,0.05,1.313 L,93220,17 V,2,0,20,1.2,1.313,1.6,1.313 V,2,20,40,1.6,1.313,1.2,1.313 L,94066,1 V,2,0,338,1.2,1.313,0.05,1.313 L,94576,17 V,2,0,20,1.2,1.313,1.6,1.313 V,2,20,40,1.6,1.313,1.2,1.313 L,95422,1 V,2,0,338,1.2,1.313,0.05,1.313 L,95932,17 V,2,0,20,1.2,1.313,1.6,1.313 V,2,20,40,1.6,1.313,1.2,1.313 L,96778,1 V,2,0,338,1.2,1.313,0.05,1.313 L,98643,17 V,2,0,20,1.2,1.313,1.6,1.313 V,2,20,40,1.6,1.313,1.2,1.313 L,99489,1 V,2,0,338,1.2,1.313,0.05,1.313 L,100338,17 V,2,0,20,1.2,1.313,1.6,1.313 V,2,20,40,1.6,1.313,1.2,1.313 L,101184,1 V,2,0,338,1.2,1.313,0.05,1.313 L,102372,17 V,2,0,20,1.2,1.313,1.6,1.313 V,2,20,40,1.6,1.313,1.2,1.313 L,103218,1 V,2,0,338,1.2,1.313,0.05,1.313 L,104067,17 V,2,0,20,1.2,1.313,1.6,1.313 V,2,20,40,1.6,1.313,1.2,1.313 L,104913,1 V,2,0,338,1.2,1.313,0.05,1.313 L,105423,17 V,2,0,20,1.2,1.313,1.6,1.313 V,2,20,40,1.6,1.313,1.2,1.313 L,106269,1 V,2,0,338,1.2,1.313,0.05,1.313 L,106779,17 V,2,0,20,1.2,1.313,1.6,1.313 V,2,20,40,1.6,1.313,1.2,1.313 L,107625,1 V,2,0,338,1.2,1.313,0.05,1.313 L,109491,17 V,2,0,20,1.2,1.313,1.6,1.313 V,2,20,40,1.6,1.313,1.2,1.313 L,110337,1 V,2,0,338,1.2,1.313,0.05,1.313 MX,0,49829,,282 P,0,49829,50939,A F,0,49830,50940,0.7,0 C,21,49830,50940,255,0,0,255,255,255 MX,0,51185,,386 P,0,51185,52295,A F,0,51186,52296,0.7,0 C,21,51186,52296,255,0,0,255,255,255 MX,0,52541,,419 P,0,52541,53651,A F,0,52542,53652,0.7,0 C,21,52542,53652,255,0,0,255,255,255 MX,0,55253,,321 P,0,55253,56363,A F,0,55254,56364,0.7,0 C,21,55254,56364,255,0,0,255,255,255 MX,0,56947,,453 P,0,56947,58057,A F,0,56948,58058,0.7,0 C,21,56948,58058,255,0,0,255,255,255 MX,0,60676,,222 P,0,60676,61786,A F,0,60677,61787,0.7,0 C,21,60677,61787,255,0,0,255,255,255 MX,0,62032,,142 P,0,62032,63142,A F,0,62033,63143,0.7,0 C,21,62033,63143,255,0,0,255,255,255 MX,0,63388,,367 P,0,63388,64498,A F,0,63389,64499,0.7,0 C,21,63389,64499,255,0,0,255,255,255 MX,0,66100,,355 P,0,66100,67210,A F,0,66101,67211,0.7,0 C,21,66101,67211,255,0,0,255,255,255 MX,0,67795,,301 P,0,67795,68905,A F,0,67796,68906,0.7,0 C,21,67796,68906,255,0,0,255,255,255 MX,0,93219,,333 P,0,93219,94329,A F,0,93220,94330,0.7,0 C,21,93220,94330,255,0,0,255,255,255 MX,0,94575,,294 P,0,94575,95685,A F,0,94576,95686,0.7,0 C,21,94576,95686,255,0,0,255,255,255 MX,0,95931,,238 P,0,95931,97041,A F,0,95932,97042,0.7,0 C,21,95932,97042,255,0,0,255,255,255 MX,0,98642,,361 P,0,98642,99752,A F,0,98643,99753,0.7,0 C,21,98643,99753,255,0,0,255,255,255 MX,0,100337,,193 P,0,100337,101447,A F,0,100338,101448,0.7,0 C,21,100338,101448,255,0,0,255,255,255 MX,0,102371,,558 P,0,102371,103481,A F,0,102372,103482,0.7,0 C,21,102372,103482,255,0,0,255,255,255 MX,0,104066,,263 P,0,104066,105176,A F,0,104067,105177,0.7,0 C,21,104067,105177,255,0,0,255,255,255 MX,0,105422,,115 P,0,105422,106532,A F,0,105423,106533,0.7,0 C,21,105423,106533,255,0,0,255,255,255 MX,0,106778,,239 P,0,106778,107888,A F,0,106779,107889,0.7,0 C,21,106779,107889,255,0,0,255,255,255 MX,0,109490,,228 P,0,109490,110600,A F,0,109491,110601,0.7,0 C,21,109491,110601,255,0,0,255,255,255
Sprite,Foreground,Centre,"sb\sprites\hb.png",0,240 L,56270,17 V,2,0,20,1.2,1.313,1.6,1.313 V,2,20,40,1.6,1.313,1.2,1.313 L,57116,1 V,2,0,338,1.2,1.313,0.05,1.313 L,57965,17 V,2,0,20,1.2,1.313,1.6,1.313 V,2,20,40,1.6,1.313,1.2,1.313 L,58811,1 V,2,0,338,1.2,1.313,0.05,1.313 L,67118,17 V,2,0,20,1.2,1.313,1.6,1.313 V,2,20,40,1.6,1.313,1.2,1.313 L,67964,1 V,2,0,338,1.2,1.313,0.05,1.313 L,68813,17 V,2,0,20,1.2,1.313,1.6,1.313 V,2,20,40,1.6,1.313,1.2,1.313 L,69659,1 V,2,0,338,1.2,1.313,0.05,1.313 L,99660,17 V,2,0,20,1.2,1.313,1.6,1.313 V,2,20,40,1.6,1.313,1.2,1.313 L,100506,1 V,2,0,338,1.2,1.313,0.05,1.313 L,101355,17 V,2,0,20,1.2,1.313,1.6,1.313 V,2,20,40,1.6,1.313,1.2,1.313 L,102201,1 V,2,0,338,1.2,1.313,0.05,1.313 L,110508,17 V,2,0,20,1.2,1.313,1.6,1.313 V,2,20,40,1.6,1.313,1.2,1.313 L,111354,1 V,2,0,338,1.2,1.313,0.05,1.313 L,112203,17 V,2,0,20,1.2,1.313,1.6,1.313 V,2,20,40,1.6,1.313,1.2,1.313 L,113049,1 V,2,0,338,1.2,1.313,0.05,1.313 MX,0,56269,,263 P,0,56269,57379,A F,0,56270,57380,0.7,0 C,21,56270,57380,255,0,0,255,255,255 MX,0,57964,,156 P,0,57964,59074,A F,0,57965,59075,0.7,0 C,21,57965,59075,255,0,0,255,255,255 MX,0,67117,,314 P,0,67117,68227,A F,0,67118,68228,0.7,0 C,21,67118,68228,255,0,0,255,255,255 MX,0,68812,,244 P,0,68812,69922,A F,0,68813,69923,0.7,0 C,21,68813,69923,255,0,0,255,255,255 MX,0,99659,,275 P,0,99659,100769,A F,0,99660,100770,0.7,0 C,21,99660,100770,255,0,0,255,255,255 MX,0,101354,,326 P,0,101354,102464,A F,0,101355,102465,0.7,0 C,21,101355,102465,255,0,0,255,255,255 MX,0,110507,,180 P,0,110507,111617,A F,0,110508,111618,0.7,0 C,21,110508,111618,255,0,0,255,255,255 MX,0,112202,,176 P,0,112202,113312,A F,0,112203,113313,0.7,0 C,21,112203,113313,255,0,0,255,255,255
Sprite,Foreground,Centre,"sb\sprites\hb.png",0,240 L,111186,17 V,2,0,20,1.2,1.313,1.6,1.313 V,2,20,40,1.6,1.313,1.2,1.313 L,112032,1 V,2,0,338,1.2,1.313,0.05,1.313 L,125762,17 V,2,0,20,1.2,1.313,1.6,1.313 V,2,20,40,1.6,1.313,1.2,1.313 L,126608,1 V,2,0,338,1.2,1.313,0.05,1.313 L,127118,17 V,2,0,20,1.2,1.313,1.6,1.313 V,2,20,40,1.6,1.313,1.2,1.313 L,127964,1 V,2,0,338,1.2,1.313,0.05,1.313 L,128474,17 V,2,0,20,1.2,1.313,1.6,1.313 V,2,20,40,1.6,1.313,1.2,1.313 L,129320,1 V,2,0,338,1.2,1.313,0.05,1.313 L,131186,17 V,2,0,20,1.2,1.313,1.6,1.313 V,2,20,40,1.6,1.313,1.2,1.313 L,132032,1 V,2,0,338,1.2,1.313,0.05,1.313 L,132881,17 V,2,0,20,1.2,1.313,1.6,1.313 V,2,20,40,1.6,1.313,1.2,1.313 L,133727,1 V,2,0,338,1.2,1.313,0.05,1.313 L,134915,17 V,2,0,20,1.2,1.313,1.6,1.313 V,2,20,40,1.6,1.313,1.2,1.313 L,135761,1 V,2,0,338,1.2,1.313,0.05,1.313 MX,0,111185,,436 P,0,111185,112295,A F,0,111186,112296,0.7,0 C,21,111186,112296,255,0,0,255,255,255 MX,0,125761,,346 P,0,125761,126871,A F,0,125762,126872,0.7,0 C,21,125762,126872,255,0,0,255,255,255 MX,0,127117,,494 P,0,127117,128227,A F,0,127118,128228,0.7,0 C,21,127118,128228,255,0,0,255,255,255 MX,0,128473,,423 P,0,128473,129583,A F,0,128474,129584,0.7,0 C,21,128474,129584,255,0,0,255,255,255 MX,0,131185,,533 P,0,131185,132295,A F,0,131186,132296,0.7,0 C,21,131186,132296,255,0,0,255,255,255 MX,0,132880,,149 P,0,132880,133990,A F,0,132881,133991,0.7,0 C,21,132881,133991,255,0,0,255,255,255 MX,0,134914,,539 P,0,134914,136024,A F,0,134915,136025,0.7,0 C,21,134915,136025,255,0,0,255,255,255
Sprite,Foreground,Centre,"sb\sprites\hb.png",0,240 L,132203,17 V,2,0,20,1.2,1.313,1.6,1.313 V,2,20,40,1.6,1.313,1.2,1.313 L,133049,1 V,2,0,338,1.2,1.313,0.05,1.313 L,133898,17 V,2,0,20,1.2,1.313,1.6,1.313 V,2,20,40,1.6,1.313,1.2,1.313 L,134744,1 V,2,0,338,1.2,1.313,0.05,1.313 MX,0,132202,,496 P,0,132202,133312,A F,0,132203,133313,0.7,0 C,21,132203,133313,255,0,0,255,255,255 MX,0,133897,,513 P,0,133897,135007,A F,0,133898,135008,0.7,0 C,21,133898,135008,255,0,0,255,255,255
//Storyboard Sound Samples

[TimingPoints]
15931,338.983050847458,4,2,1,10,1,0
17286,-303.030303030303,4,2,1,40,0,0
28134,-200,4,2,1,50,0,0
34236,-454.545454545455,4,2,1,50,0,0
34914,-200,4,2,1,50,0,0
37626,-200,4,2,1,60,0,0
38982,-200,4,2,1,40,0,0
47117,-200,4,2,1,50,0,0
47795,-200,4,2,1,60,0,0
48473,-133.333333333333,4,2,1,60,0,0
48812,-133.333333333333,4,2,1,55,0,0
49151,-133.333333333333,4,2,1,60,0,0
49490,-133.333333333333,4,2,1,65,0,0
49829,-80,4,2,1,80,0,1
53219,-66.6666666666667,4,2,1,80,0,1
53897,-80,4,2,1,80,0,1
54914,-133.333333333333,4,2,1,80,0,1
55253,-80,4,2,1,80,0,1
55931,-80,4,2,1,80,0,1
60337,-133.333333333333,4,2,1,80,0,1
61354,-80,4,2,1,80,0,1
64066,-66.6666666666667,4,2,1,80,0,1
64744,-80,4,2,1,80,0,1
65761,-133.333333333333,4,2,1,80,0,1
66100,-80,4,2,1,80,0,1
66778,-80,4,2,1,80,0,1
70507,-100,4,2,1,80,0,0
71015,-200,4,2,1,80,0,0
71524,-200,4,2,1,50,0,0
81016,-133.333333333333,4,2,1,60,0,0
82371,-200,4,2,1,40,0,0
90168,-133.333333333333,4,2,1,40,0,0
90507,-200,4,2,1,50,0,0
91185,-200,4,2,1,60,0,0
91863,-133.333333333333,4,2,1,60,0,0
93219,-80,4,2,1,80,0,1
96608,-66.6666666666667,4,2,1,80,0,1
97286,-80,4,2,1,80,0,1
98303,-133.333333333333,4,2,1,80,0,1
98642,-80,4,2,1,80,0,1
103727,-133.333333333333,4,2,1,80,0,1
104744,-80,4,2,1,80,0,1
107456,-66.6666666666667,4,2,1,80,0,1
108134,-80,4,2,1,80,0,1
109151,-133.333333333333,4,2,1,80,0,1
109490,-80,4,2,1,80,0,1
112202,-80,4,2,1,80,0,1
114914,-200,4,2,1,60,0,0
117625,-357.142857142857,4,2,1,60,0,0
120338,-133.333333333333,4,2,1,70,0,0
123049,-100,4,2,1,70,0,0
124405,-100,4,2,1,70,0,1
125762,-80,4,2,1,80,0,1
133897,-80,4,2,1,80,0,1
136608,-200,4,2,1,80,0,0
140338,-200,4,2,1,60,0,0
140676,-200,4,2,1,20,0,0
141015,-200,4,2,1,5,0,0

[Colours]
Combo1 : 148,20,20
Combo2 : 56,114,141
Combo3 : 216,184,73
Combo4 : 192,192,192

[HitObjects]
511,317,17286,6,0,P|469:306|380:329,1,131.999999597168,2|10,3:2|0:2,0:0:0:0:
384,326,19320,1,10,0:2:0:0:
311,384,19829,1,2,3:2:0:0:
100,338,19998,6,0,B|143:322|143:322|229:328,1,131.999999597168,2|8,3:2|0:2,0:0:0:0:
228,327,21693,1,2,3:2:0:0:
153,282,22032,1,10,0:2:0:0:
230,242,22371,5,2,0:3:0:0:
153,282,22541,1,0,3:0:0:0:
69,105,22710,6,0,L|77:237,1,131.999999597168,2|10,3:2|0:2,0:0:0:0:
76,236,24405,1,0,3:0:0:0:
43,150,24744,1,10,0:2:0:0:
76,236,25253,1,0,3:0:0:0:
246,167,25422,6,0,P|183:151|121:170,1,131.999999597168,0|10,3:0|0:2,0:0:0:0:
120,170,26778,5,8,0:1:0:0:
376,131,27004,5,8,0:1:0:0:
135,54,27230,5,8,0:1:0:0:
262,272,27456,5,8,0:1:0:0:
230,49,27795,5,8,0:1:0:0:
118,289,27964,1,8,1:3:0:0:
281,120,28134,6,0,P|335:115|387:139,1,100,6|0,3:2|0:0,0:0:0:0:
376,131,28812,1,10,0:2:0:0:
433,205,29151,2,0,P|432:230|424:254,1,50,0|2,0:0|0:2,0:0:0:0:
355,290,29490,2,0,L|306:292,1,50,2|0,0:2|0:0,0:0:0:0:
468,114,29829,5,2,3:2:0:0:
468,114,30168,2,0,L|462:13,1,100,10|2,0:2|0:2,0:0:0:0:
374,134,30676,1,2,0:2:0:0:
199,59,30846,6,0,L|299:65,1,100,2|0,3:2|0:0,0:0:0:0:
299,65,31524,1,8,0:2:0:0:
142,139,31863,2,0,P|117:139|92:133,1,50,0|0,0:0|0:0,0:0:0:0:
207,206,32202,2,0,P|207:230|201:255,1,50,2|2,0:2|0:2,0:0:0:0:
129,370,32541,5,0,3:0:0:0:
129,370,32880,2,0,P|88:385|62:380,1,50,10|0,0:2|0:0,0:0:0:0:
207,206,33219,1,6,0:3:0:0:
32,223,33388,1,8,0:3:0:0:
152,296,33558,6,0,L|263:299,1,100,2|0,3:2|0:0,0:0:0:0:
251,298,34236,2,0,L|299:293,1,44.0000013427735,8|0,0:2|0:0,0:0:0:0:
383,335,34744,1,2,0:2:0:0:
443,271,34914,2,0,P|473:266|513:268,1,50,2|0,0:2|0:0,0:0:0:0:
365,224,35253,6,0,L|363:124,1,100,2|8,3:2|0:2,0:0:0:0:
363,124,35931,2,0,P|338:118|314:120,1,50,2|0,0:2|0:0,0:0:0:0:
178,220,36269,6,0,L|177:121,1,100,2|0,3:2|0:0,0:0:0:0:
364,232,36778,1,0,0:0:0:0:
269,329,36947,2,0,L|170:330,1,100,10|0,0:2|0:0,0:0:0:0:
364,232,37456,1,0,0:0:0:0:
153,309,37625,5,2,3:2:0:0:
352,324,37795,1,0,1:0:0:0:
146,194,37964,5,2,3:2:0:0:
364,232,38134,1,0,1:0:0:0:
134,78,38303,5,10,0:2:0:0:
379,143,38473,1,0,1:0:0:0:
148,219,38642,1,2,1:2:0:0:
146,194,38727,1,0,1:0:0:0:
143,169,38812,1,2,1:2:0:0:
392,55,38981,6,0,P|340:63|303:98,1,100,6|4,3:2|1:3,0:0:0:0:
280,182,39490,1,4,1:3:0:0:
371,192,39659,2,0,L|380:132,1,50,4|0,1:3|0:0,0:0:0:0:
325,266,39998,2,0,L|332:315,1,50,4|0,1:3|0:0,0:0:0:0:
256,384,40337,1,4,1:3:0:0:
344,360,40507,1,4,1:3:0:0:
443,362,40676,2,0,L|450:312,1,50,4|0,1:3|0:0,0:0:0:0:
351,204,41015,2,0,P|314:205|288:215,1,50,4|0,1:3|0:0,0:0:0:0:
442,224,41354,1,4,1:3:0:0:
434,134,41524,1,4,1:3:0:0:
434,134,41608,1,0,0:0:0:0:
434,134,41693,6,0,L|427:35,1,100,6|4,3:2|1:3,0:0:0:0:
351,204,42202,1,4,1:3:0:0:
274,148,42371,2,0,P|271:110|273:89,1,50,4|0,1:3|0:0,0:0:0:0:
370,243,42710,2,0,P|370:267|367:292,1,50,4|0,1:3|0:0,0:0:0:0:
293,346,43049,1,4,1:3:0:0:
205,335,43219,1,4,1:3:0:0:
117,324,43388,2,0,L|109:274,1,50,4|0,1:3|0:0,0:0:0:0:
67,118,43727,2,0,L|17:110,1,50,4|0,1:3|0:0,0:0:0:0:
126,190,44066,2,0,L|193:182,1,50,4|4,1:3|1:3,0:0:0:0:
265,179,44320,1,4,1:3:0:0:
265,179,44405,6,0,P|260:144|262:110,1,50,6|0,3:2|0:0,0:0:0:0:
312,53,44744,1,4,1:3:0:0:
234,0,44914,1,4,1:3:0:0:
343,57,45083,2,0,P|381:58|411:54,1,50,4|0,1:3|0:0,0:0:0:0:
202,0,45422,2,0,P|164:-1|134:3,1,50,4|0,1:3|0:0,0:0:0:0:
84,68,45761,1,4,1:3:0:0:
95,156,45931,1,4,1:3:0:0:
106,243,46100,2,0,P|132:244|155:250,1,50,4|0,1:3|0:0,0:0:0:0:
19,349,46439,2,0,L|26:299,1,50,4|0,1:3|0:0,0:0:0:0:
235,233,46778,2,0,L|226:282,1,50,4|4,1:3|1:3,0:0:0:0:
211,359,47032,1,4,1:3:0:0:
211,359,47117,5,6,3:2:0:0:
290,174,47286,1,4,1:3:0:0:
290,335,47456,1,4,1:3:0:0:
212,152,47625,1,4,1:3:0:0:
133,326,47795,5,4,1:3:0:0:
270,90,47964,1,4,1:3:0:0:
373,345,48134,1,4,1:3:0:0:
190,74,48303,1,4,1:3:0:0:
218,269,48473,6,0,P|165:259|134:230,1,75.0000028610231,2|0,0:2|0:0,0:0:0:0:
313,204,48812,2,0,L|308:292,1,75.0000028610231,2|0,0:2|0:0,0:0:0:0:
70,196,49151,2,0,L|65:121,1,75.0000028610231,2|0,0:2|0:0,0:0:0:0:
218,269,49490,1,2,0:2:0:0:
218,269,49829,5,6,3:2:0:0:
221,22,49998,1,0,0:0:0:0:
131,272,50168,1,0,0:0:0:0:
99,21,50337,1,0,0:0:0:0:
303,261,50507,6,0,L|324:-4,1,250,10|0,0:2|0:0,0:0:0:0:
322,11,51185,5,6,3:2:0:0:
441,292,51354,1,0,0:0:0:0:
238,106,51524,1,0,0:0:0:0:
512,231,51693,1,0,0:0:0:0:
336,344,51863,6,0,L|356:94,1,250,10|0,0:2|0:0,0:0:0:0:
355,94,52541,5,6,3:2:0:0:
421,358,52710,1,0,0:0:0:0:
154,246,52880,1,0,0:0:0:0:
431,159,53049,1,0,0:0:0:0:
117,347,53219,6,0,B|60:301|60:301|78:102,1,225.000008583069,10|0,0:2|0:0,0:0:0:0:
85,72,53558,1,0,3:0:0:0:
204,316,53727,1,0,0:0:0:0:
215,46,53897,6,0,P|167:115|164:176,1,125,0|0,0:0|0:0,0:0:0:0:
273,367,54236,1,0,3:2:0:0:
61,300,54405,1,0,0:0:0:0:
283,281,54575,2,0,L|406:297,1,125,10|0,0:2|0:0,0:0:0:0:
415,123,54914,6,0,B|377:120|377:120|346:136|346:136|298:132,1,112.500004291535,0|0,0:0|0:0,0:0:0:0:
257,202,55253,6,0,B|358:214|358:214|393:197|393:197|532:215,1,250,6|0,3:2|0:0,0:0:0:0:
286,110,55761,1,0,0:0:0:0:
489,20,55931,6,0,L|364:30,1,125,10|0,0:2|0:0,0:0:0:0:
199,138,56269,1,0,3:0:0:0:
501,211,56439,2,0,L|376:201,1,125
229,56,56778,1,0,0:0:0:0:
389,321,56947,6,0,P|395:259|376:200,1,125,0|0,3:0|0:0,0:0:0:0:
146,59,57286,1,10,0:2:0:0:
43,300,57456,1,0,0:0:0:0:
321,158,57625,2,0,B|183:145|183:145|144:175,1,187.5
92,232,57964,5,6,3:2:0:0:
332,146,58134,1,0,0:0:0:0:
429,259,58303,1,0,0:0:0:0:
208,233,58473,1,0,0:0:0:0:
369,51,58642,5,10,0:2:0:0:
274,294,58812,1,0,0:0:0:0:
124,80,58981,1,0,3:0:0:0:
332,146,59151,1,0,0:0:0:0:
79,152,59320,6,0,P|43:83|73:17,1,125,0|0,1:0|0:0,0:0:0:0:
329,63,59659,5,0,3:0:0:0:
72,306,59829,1,0,1:0:0:0:
203,29,59998,5,10,0:2:0:0:
382,344,60168,1,0,3:0:0:0:
272,196,60337,6,0,L|260:288,1,75.0000028610231
158,108,60676,5,6,3:2:0:0:
263,355,60846,1,0,0:0:0:0:
82,149,61015,1,0,0:0:0:0:
68,384,61185,1,0,0:0:0:0:
243,121,61354,6,0,P|201:30|72:87,1,250,10|0,0:2|0:0,0:0:0:0:
78,67,62032,5,6,3:2:0:0:
328,197,62202,1,0,0:0:0:0:
94,247,62371,1,0,0:0:0:0:
268,26,62541,1,0,0:0:0:0:
65,159,62710,6,0,B|134:157|134:157|226:107|226:107|314:101,1,250,10|0,0:2|0:0,0:0:0:0:
303,102,63388,5,6,3:2:0:0:
170,345,63558,1,0,0:0:0:0:
425,351,63727,1,0,0:0:0:0:
181,214,63897,1,0,0:0:0:0:
435,58,64066,6,0,B|483:15|483:15|461:181,1,225.000008583069,10|0,0:2|0:0,0:0:0:0:
447,254,64405,1,0,3:0:0:0:
312,27,64575,1,0,0:0:0:0:
238,277,64744,6,0,P|263:199|204:133,1,125
0,59,65083,1,0,3:0:0:0:
181,214,65253,1,0,0:0:0:0:
0,350,65422,2,0,L|19:188,1,125,10|0,0:2|0:0,0:0:0:0:
155,94,65761,6,0,P|211:95|261:121,1,112.500004291535,0|0,0:0|0:0,0:0:0:0:
291,189,66100,6,0,P|209:104|94:139,1,250,6|0,3:2|0:0,0:0:0:0:
181,214,66608,1,0,0:0:0:0:
373,103,66778,6,0,L|505:102,1,125,10|0,0:2|0:0,0:0:0:0:
250,271,67117,1,0,3:0:0:0:
30,93,67286,2,0,L|154:93,1,125,0|0,0:0|0:0,0:0:0:0:
340,292,67625,1,0,0:0:0:0:
237,122,67795,6,0,P|225:57|238:-10,1,125,0|0,3:0|0:0,0:0:0:0:
424,241,68134,1,10,0:2:0:0:
174,297,68303,1,0,0:0:0:0:
335,60,68473,2,0,B|397:48|397:48|481:60,1,125,0|0,0:0|0:0,0:0:0:0:
180,267,68812,5,6,3:2:0:0:
128,14,68981,1,0,0:0:0:0:
43,284,69151,1,0,0:0:0:0:
228,82,69320,1,0,0:0:0:0:
270,353,69490,5,10,0:2:0:0:
104,206,69659,1,0,0:0:0:0:
357,141,69829,1,0,3:0:0:0:
159,287,69998,6,0,P|101:306|37:278,1,125,0|0,1:0|0:0,0:0:0:0:
77,121,70337,1,0,1:0:0:0:
233,160,70507,2,0,P|247:197|202:280,1,100,0|4,3:0|0:3,0:0:0:0:
20,185,70846,1,12,0:2:0:0:
135,19,71015,2,0,P|159:62|156:124,1,100,0|0,3:0|0:0,0:0:0:0:
104,206,71524,5,2,3:2:0:0:
464,287,72202,2,0,L|401:271,1,50,10|0,0:2|0:0,0:0:0:0:
371,203,72541,1,0,0:0:0:0:
333,279,72710,1,0,0:0:0:0:
259,234,72880,2,0,P|219:234|196:244,1,50,0|0,0:0|0:0,0:0:0:0:
129,367,73219,6,0,L|135:262,1,100,0|10,3:2|0:2,0:0:0:0:
134,267,74066,1,0,3:2:0:0:
62,219,74236,6,0,P|45:177|51:121,1,100,2|0,3:2|0:0,0:0:0:0:
116,64,74744,1,0,0:0:0:0:
183,117,74914,2,0,L|241:112,1,50,8|0,0:2|0:0,0:0:0:0:
347,57,75253,2,0,L|289:52,2,50,0|0|0,0:0|0:0|0:0,0:0:0:0:
417,114,75761,1,0,0:0:0:0:
360,292,75931,6,0,L|359:193,1,100,2|10,3:2|0:2,0:0:0:0:
359,193,76608,1,2,0:3:0:0:
272,237,76778,1,0,3:0:0:0:
272,237,76863,1,0,3:0:0:0:
272,237,76947,6,0,L|166:244,1,100,2|0,3:2|0:0,0:0:0:0:
94,292,77456,1,0,0:0:0:0:
207,360,77625,2,0,L|158:359,1,50,10|0,0:2|0:0,0:0:0:0:
296,339,77964,1,0,0:0:0:0:
384,374,78134,1,0,0:0:0:0:
494,310,78303,2,0,L|445:309,1,50
360,259,78642,6,0,P|348:202|356:145,1,100,0|10,3:0|0:2,0:0:0:0:
351,160,79659,1,0,3:0:0:0:
512,126,79829,6,0,L|507:25,1,100,0|0,0:0|3:0,0:0:0:0:
413,2,80253,1,0,3:0:0:0:
413,2,80337,2,0,L|345:10,1,50,10|0,0:2|0:0,0:0:0:0:
257,78,80676,1,0,0:0:0:0:
434,80,80846,1,0,1:0:0:0:
338,247,81015,5,0,0:0:0:0:
223,62,81185,1,0,1:0:0:0:
177,298,81354,2,0,P|193:244|171:143,1,150.000005722046,0|8,3:0|0:2,0:0:0:0:
177,154,82032,1,0,1:0:0:0:
54,85,82202,1,0,1:0:0:0:
246,39,82371,6,0,L|130:67,1,100,6|4,3:2|1:3,0:0:0:0:
359,94,82880,1,4,1:3:0:0:
287,164,83049,2,0,L|283:213,1,50,4|0,1:3|0:0,0:0:0:0:
354,330,83388,2,0,L|350:280,1,50,4|0,1:3|0:0,0:0:0:0:
222,281,83727,1,4,1:3:0:0:
359,248,83897,1,4,1:3:0:0:
202,206,84066,2,0,P|175:217|148:240,1,50,4|0,1:3|0:0,0:0:0:0:
60,311,84405,2,0,P|72:272|70:241,1,50,4|0,1:3|0:0,0:0:0:0:
15,184,84744,2,0,P|9:143|16:113,1,50,4|4,1:3|1:3,0:0:0:0:
64,53,84998,1,4,1:3:0:0:
64,53,85083,6,0,L|172:59,1,100,6|4,3:2|1:3,0:0:0:0:
252,15,85592,1,4,1:3:0:0:
328,79,85761,2,0,L|395:76,1,50,4|0,1:3|0:0,0:0:0:0:
214,131,86100,2,0,L|263:133,1,50,4|0,1:3|0:0,0:0:0:0:
349,187,86439,1,4,1:3:0:0:
442,151,86608,1,4,1:3:0:0:
505,265,86778,2,0,P|508:291|501:327,1,50,4|0,1:3|0:0,0:0:0:0:
428,238,87117,2,0,P|424:213|428:188,1,50,4|0,1:3|0:0,0:0:0:0:
489,87,87456,1,4,1:3:0:0:
395,34,87625,1,4,1:3:0:0:
395,34,87710,1,4,1:3:0:0:
395,34,87795,6,0,L|284:40,1,100,6|4,3:2|1:3,0:0:0:0:
227,115,88303,1,4,1:3:0:0:
143,73,88473,2,0,P|133:90|130:130,1,50,4|0,1:3|0:0,0:0:0:0:
137,275,88812,2,0,P|134:250|122:228,1,50,4|0,1:3|0:0,0:0:0:0:
41,166,89151,1,4,1:3:0:0:
149,143,89320,1,4,1:3:0:0:
43,305,89490,2,0,L|43:255,1,50,4|0,1:3|0:0,0:0:0:0:
214,251,89829,2,0,L|214:201,1,50,4|0,1:3|0:0,0:0:0:0:
154,339,90168,2,0,P|193:330|277:352,1,112.500004291535,4|4,1:3|1:3,0:0:0:0:
324,379,90507,5,6,3:2:0:0:
438,174,90676,1,4,1:3:0:0:
214,201,90846,1,4,1:3:0:0:
426,328,91015,1,4,1:3:0:0:
353,99,91185,5,4,1:3:0:0:
182,352,91354,1,4,1:3:0:0:
97,68,91524,1,4,1:3:0:0:
264,320,91693,1,4,1:3:0:0:
238,130,91863,6,0,P|218:174|213:216,1,75.0000028610231,2|0,0:2|0:0,0:0:0:0:
182,352,92202,2,0,P|174:315|157:281,1,75.0000028610231,2|0,0:2|0:0,0:0:0:0:
56,186,92541,2,0,P|91:198|128:201,1,75.0000028610231,2|0,0:2|0:0,0:0:0:0:
269,195,92880,1,2,0:2:0:0:
269,195,93219,5,6,3:2:0:0:
31,160,93388,1,0,0:0:0:0:
268,304,93558,1,0,0:0:0:0:
24,333,93727,1,0,0:0:0:0:
334,255,93897,6,0,P|343:141|221:116,1,250,10|0,0:2|0:0,0:0:0:0:
230,110,94575,5,6,3:2:0:0:
185,356,94744,1,0,0:0:0:0:
324,111,94914,1,0,0:0:0:0:
375,362,95083,1,0,0:0:0:0:
408,107,95253,6,0,B|362:96|323:111|323:111|300:140|274:150|274:150|223:136|145:157,1,250,10|0,0:2|0:0,0:0:0:0:
174,150,95931,5,6,3:2:0:0:
375,13,96100,1,0,0:0:0:0:
385,271,96269,1,0,0:0:0:0:
243,67,96439,1,0,0:0:0:0:
146,315,96608,6,0,B|142:348|169:378|169:378|236:303|187:196,1,225.000008583069,10|0,0:2|0:0,0:0:0:0:
174,150,96947,1,0,3:0:0:0:
65,351,97117,1,0,0:0:0:0:
122,89,97286,6,0,P|165:71|250:139,1,125
272,341,97625,1,0,3:0:0:0:
46,257,97795,1,0,0:0:0:0:
297,225,97964,2,0,L|456:246,1,125,10|0,0:2|0:0,0:0:0:0:
445,131,98303,6,0,P|392:129|340:163,1,112.500004291535,0|0,0:0|0:0,0:0:0:0:
297,225,98642,6,0,P|349:115|285:7,1,250,6|0,3:2|0:0,0:0:0:0:
95,49,99151,1,0,0:0:0:0:
349,123,99320,6,0,L|500:111,1,125,10|0,0:2|0:0,0:0:0:0:
211,194,99659,1,0,3:0:0:0:
386,307,99829,2,0,L|510:316,1,125,0|0,0:0|0:0,0:0:0:0:
349,123,100168,1,0,0:0:0:0:
129,257,100337,6,0,P|63:261|5:196,1,125,0|0,3:0|0:0,0:0:0:0:
254,105,100676,1,10,0:2:0:0:
95,180,100846,1,0,0:0:0:0:
0,22,101015,2,0,L|216:6,1,187.5
262,0,101354,5,6,3:2:0:0:
193,218,101524,1,0,0:0:0:0:
373,75,101693,1,0,0:0:0:0:
130,110,101863,1,0,0:0:0:0:
384,243,102032,5,10,0:2:0:0:
341,0,102202,1,0,0:0:0:0:
494,155,102371,1,0,3:0:0:0:
283,89,102541,1,0,0:0:0:0:
173,260,102710,6,0,L|182:403,1,125,0|0,1:0|0:0,0:0:0:0:
442,383,103049,5,0,3:0:0:0:
203,104,103219,1,0,1:0:0:0:
180,384,103388,5,10,0:2:0:0:
479,151,103558,1,0,3:0:0:0:
323,254,103727,6,0,L|329:328,1,75.0000028610231
199,56,104066,5,6,3:2:0:0:
240,299,104236,1,0,0:0:0:0:
367,87,104405,1,0,0:0:0:0:
413,333,104575,1,0,0:0:0:0:
179,131,104744,6,0,B|-7:153|-7:153|51:176,1,250,10|0,0:2|0:0,0:0:0:0:
51,176,105422,5,6,3:2:0:0:
285,11,105592,1,0,0:0:0:0:
27,46,105761,1,0,0:0:0:0:
299,149,105931,1,0,0:0:0:0:
143,280,106100,6,0,L|178:10,1,250,10|0,0:2|0:0,0:0:0:0:
175,32,106778,5,6,3:2:0:0:
23,253,106947,1,0,0:0:0:0:
299,149,107117,1,0,0:0:0:0:
12,39,107286,1,0,0:0:0:0:
221,316,107456,6,0,B|288:345|342:308|342:308|406:264|491:315,1,225.000008583069,10|0,0:2|0:0,0:0:0:0:
510,330,107795,1,0,3:0:0:0:
277,232,107964,1,0,0:0:0:0:
430,61,108134,6,0,L|422:185,1,125,0|0,0:0|0:0,0:0:0:0:
409,367,108473,1,0,3:0:0:0:
191,224,108642,1,0,0:0:0:0:
305,10,108812,2,0,L|313:134,1,125,10|0,0:2|0:0,0:0:0:0:
258,384,109151,6,0,L|252:243,1,112.500004291535,0|0,0:0|0:0,0:0:0:0:
164,199,109490,6,0,B|172:373|172:373|108:280,1,250,6|0,3:2|0:0,0:0:0:0:
41,176,109998,1,0,0:0:0:0:
248,107,110168,6,0,L|411:119,1,125,10|0,0:2|0:0,0:0:0:0:
116,0,110507,1,0,3:0:0:0:
183,227,110676,2,0,L|307:217,1,125,0|0,0:0|0:0,0:0:0:0:
110,94,111015,1,0,0:0:0:0:
372,116,111185,6,0,P|406:60|381:-4,1,125,0|0,3:0|0:0,0:0:0:0:
118,181,111524,1,10,0:2:0:0:
322,49,111693,1,0,0:0:0:0:
68,28,111863,2,0,L|48:158,1,125,0|0,0:0|0:0,0:0:0:0:
112,347,112202,6,0,B|94:312|94:312|106:227,1,125,6|0,3:2|0:0,0:0:0:0:
211,88,112541,5,0,0:0:0:0:
297,303,112710,1,0,0:0:0:0:
390,6,112880,5,10,2:0:0:0:
145,32,113049,1,0,0:0:0:0:
191,357,113219,5,0,3:0:0:0:
211,88,113388,1,0,1:0:0:0:
10,372,113558,5,0,0:0:0:0:
289,126,113727,1,0,1:0:0:0:
322,384,113897,5,0,3:0:0:0:
25,192,114066,1,4,0:3:0:0:
413,195,114236,6,0,L|342:184,1,62.5,12|0,0:2|0:0,0:0:0:0:
120,267,114405,2,0,B|176:278|176:278|268:254|268:254|396:273,1,250,0|0,3:0|0:0,0:0:0:0:
442,281,114829,1,0,0:0:0:0:
442,281,114914,6,0,P|496:230|446:113,1,200,6|0,0:2|0:0,0:0:0:0:
461,121,116269,6,0,L|263:153,1,200,0|0,0:0|0:0,0:0:0:0:
263,153,117625,6,0,B|317:161|317:161|363:191|363:191|421:196,1,168.000002050781,6|0,3:2|0:0,0:0:0:0:
497,201,118981,1,0,0:0:0:0:
497,201,120337,5,6,3:2:0:0:
128,256,121015,2,0,P|108:200|110:149,1,75.0000028610231,0|0,0:0|0:0,0:0:0:0:
141,105,121354,1,0,3:0:0:0:
19,177,121524,2,0,P|34:142|40:105,2,75.0000028610231,0|0|0,0:0|0:0|0:0,0:0:0:0:
111,31,122032,2,0,P|165:26|205:49,1,75.0000028610231,0|0,3:0|0:0,0:0:0:0:
136,179,122371,2,0,L|141:86,1,75.0000028610231,10|0,0:2|0:0,0:0:0:0:
203,236,122710,2,0,L|207:310,1,75.0000028610231,0|0,0:0|0:0,0:0:0:0:
121,367,123049,6,0,P|65:353|6:354,1,100,6|0,3:2|0:0,0:0:0:0:
327,330,123388,2,0,P|277:330|229:343,1,100,0|0,0:0|0:0,0:0:0:0:
438,363,123727,2,0,L|451:244,1,100,14|0,0:2|0:0,0:0:0:0:
371,162,124066,1,0,3:0:0:0:
483,257,124236,1,0,0:0:0:0:
279,98,124405,5,0,1:0:0:0:
229,342,124575,1,0,0:0:0:0:
363,70,124744,5,0,3:0:0:0:
438,363,124914,1,0,1:0:0:0:
141,136,125083,5,10,0:2:0:0:
473,161,125253,1,0,3:0:0:0:
142,331,125422,5,0,0:0:0:0:
274,16,125592,1,0,1:0:0:0:
282,260,125761,5,6,3:2:0:0:
148,19,125931,1,0,0:0:0:0:
197,268,126100,1,0,0:0:0:0:
274,16,126269,1,0,0:0:0:0:
400,254,126439,6,0,B|449:211|449:211|429:22,1,250,10|0,0:2|0:0,0:0:0:0:
430,28,127117,5,6,3:2:0:0:
282,260,127286,1,0,0:0:0:0:
274,16,127456,1,0,0:0:0:0:
448,209,127625,1,0,0:0:0:0:
187,276,127795,6,0,P|203:212|375:243,1,250,10|0,0:2|0:0,0:0:0:0:
359,209,128473,5,6,3:2:0:0:
155,357,128642,1,0,0:0:0:0:
112,109,128812,1,0,0:0:0:0:
282,260,128981,1,0,0:0:0:0:
32,77,129151,6,0,P|73:32|134:29,1,125,10|0,0:2|0:0,0:0:0:0:
251,106,129490,1,0,3:0:0:0:
43,165,129659,1,0,0:0:0:0:
387,212,129829,1,0,0:0:0:0:
181,153,129998,1,0,0:0:0:0:
461,130,130168,1,0,3:0:0:0:
255,189,130337,1,0,0:0:0:0:
459,340,130507,2,0,L|470:213,1,125,10|0,0:2|0:0,0:0:0:0:
348,110,130846,1,0,0:0:0:0:
469,215,131185,5,6,3:2:0:0:
368,0,131354,1,0,0:0:0:0:
387,212,131524,1,0,0:0:0:0:
488,0,131693,1,0,0:0:0:0:
291,213,131863,6,0,P|295:293|303:379,1,125,10|0,0:2|0:0,0:0:0:0:
432,144,132202,1,0,3:0:0:0:
184,135,132371,2,0,P|181:197|175:259,1,125,0|0,0:0|0:0,0:0:0:0:
288,95,132710,1,0,0:0:0:0:
85,345,132880,6,0,P|79:282|76:220,1,125,0|0,3:0|0:0,0:0:0:0:
216,18,133219,1,10,0:2:0:0:
273,254,133388,1,0,0:0:0:0:
51,133,133558,2,0,L|174:115,1,125,0|0,0:0|0:0,0:0:0:0:
449,108,133897,5,6,3:2:0:0:
204,209,134066,1,0,0:0:0:0:
388,40,134236,1,0,0:0:0:0:
273,254,134405,1,0,0:0:0:0:
107,25,134575,5,10,0:2:0:0:
273,254,134744,1,0,1:0:0:0:
475,27,134914,1,0,3:0:0:0:
204,209,135083,1,0,1:0:0:0:
512,192,135253,5,0,0:0:0:0:
175,100,135422,1,0,1:0:0:0:
470,280,135592,5,0,3:0:0:0:
126,315,135761,1,4,0:3:0:0:
388,40,135931,5,12,0:2:0:0:
309,372,136100,1,0,3:0:0:0:
107,25,136269,6,0,P|93:78|90:110,1,62.5
225,360,136439,2,0,P|219:329|209:299,1,62.5
0,172,136608,6,0,L|116:167,1,100,6|0,3:2|0:0,0:0:0:0:
99,167,137286,1,0,0:0:0:0:
512,172,137964,6,0,L|396:167,1,100,6|0,3:2|0:0,0:0:0:0:
413,167,138642,1,0,0:0:0:0:
256,192,140394,5,12,0:3:0:0:
256,192,140450,12,0,141806,0:0:0:0:
