osu file format v14

[General]
AudioFilename: audio.mp3
AudioLeadIn: 0
PreviewTime: 91863
Countdown: 0
SampleSet: Soft
StackLeniency: 0.7
Mode: 0
LetterboxInBreaks: 0
EpilepsyWarning: 1
WidescreenStoryboard: 1

[Editor]
DistanceSpacing: 1.1
BeatDivisor: 4
GridSize: 32
TimelineZoom: 2.1

[Metadata]
Title:RISE (ft. The Glitch Mob, Mako, and The Word Alive)
TitleUnicode:RISE (ft. The Glitch Mob, Mako, and The Word Alive)
Artist:League of Legends
ArtistUnicode:League of Legends
Creator:SquareTude
Version:Red's Extra
Source:League of Legends
Tags:Worlds 2018 Riot Games Megapcmx Celektus RVMathew Nelliel Apo11o MinorSonek ChaoticRed Zelq [[Pika]]
BeatmapID:1795723
BeatmapSetID:858938

[Difficulty]
HPDrainRate:6
CircleSize:3.7
OverallDifficulty:8.6
ApproachRate:9.2
SliderMultiplier:1.8
SliderTickRate:1

[Events]
//Background and Video events
0,0,"best bg ever.png",0,0
//Break Periods
2,115114,117055
2,117825,119767
//Storyboard Layer 0 (Background)
//Storyboard Layer 1 (Fail)
//Storyboard Layer 2 (Pass)
//Storyboard Layer 3 (Foreground)
Sprite,Foreground,Centre,"sb/sprites/c2.png",351,276 S,2,49829,50495,0.2,0.4 F,2,49829,50495,0.5,0 P,0,49829,50495,A
Sprite,Foreground,Centre,"sb/sprites/c2.png",555,231 S,2,49998,50664,0.2,0.4 F,2,49998,50664,0.5,0 P,0,49998,50664,A
Sprite,Foreground,Centre,"sb/sprites/c2.png",258,137 S,2,50168,50834,0.2,0.4 F,2,50168,50834,0.5,0 P,0,50168,50834,A
Sprite,Foreground,Centre,"sb/sprites/c2.png",462,182 S,2,50337,51003,0.2,0.4 F,2,50337,51003,0.5,0 P,0,50337,51003,A
Sprite,Foreground,Centre,"sb/sprites/c2.png",223,339 S,2,50507,51173,0.2,0.4 F,2,50507,51173,0.5,0 P,0,50507,51511,A
Sprite,Foreground,Centre,"sb/sprites/c2.png",237,114 S,2,51185,51851,0.2,0.4 F,2,51185,51851,0.5,0 P,0,51185,51851,A
Sprite,Foreground,Centre,"sb/sprites/c2.png",333,299 S,2,51354,52020,0.2,0.4 F,2,51354,52020,0.5,0 P,0,51354,52020,A
Sprite,Foreground,Centre,"sb/sprites/c2.png",391,70 S,2,51524,52190,0.2,0.4 F,2,51524,52190,0.5,0 P,0,51524,52190,A
Sprite,Foreground,Centre,"sb/sprites/c2.png",150,194 S,2,51693,52359,0.2,0.4 F,2,51693,52359,0.5,0 P,0,51693,52359,A
Sprite,Foreground,Centre,"sb/sprites/c2.png",430,314 S,2,51863,52529,0.2,0.4 F,2,51863,52529,0.5,0 P,0,51863,52867,A
Sprite,Foreground,Centre,"sb/sprites/c2.png",416,89 S,2,52541,53207,0.2,0.4 F,2,52541,53207,0.5,0 P,0,52541,53207,A
Sprite,Foreground,Centre,"sb/sprites/c2.png",471,213 S,2,52710,53376,0.2,0.4 F,2,52710,53376,0.5,0 P,0,52710,53376,A
Sprite,Foreground,Centre,"sb/sprites/c2.png",297,319 S,2,52880,53546,0.2,0.4 F,2,52880,53546,0.5,0 P,0,52880,53546,A
Sprite,Foreground,Centre,"sb/sprites/c2.png",352,195 S,2,53049,53715,0.2,0.4 F,2,53049,53715,0.5,0 P,0,53049,53715,A
Sprite,Foreground,Centre,"sb/sprites/c2.png",527,354 S,2,53219,53885,0.2,0.4 F,2,53219,53885,0.5,0 P,0,53219,54054,A
Sprite,Foreground,Centre,"sb/sprites/c2.png",181,305 S,2,53558,54224,0.2,0.4 F,2,53558,54224,0.5,0 P,0,53558,54393,A
Sprite,Foreground,Centre,"sb/sprites/c2.png",82,406 S,2,53897,54563,0.2,0.4 F,2,53897,54563,0.5,0 P,0,53897,54901,A
Sprite,Foreground,Centre,"sb/sprites/c2.png",114,73 S,2,54405,55071,0.2,0.4 F,2,54405,55071,0.5,0 P,0,54405,55071,A
Sprite,Foreground,Centre,"sb/sprites/c2.png",187,276 S,2,54575,55241,0.2,0.4 F,2,54575,55241,0.5,0 P,0,54575,55410,A
Sprite,Foreground,Centre,"sb/sprites/c2.png",291,89 S,2,54914,55580,0.2,0.4 F,2,54914,55580,0.5,0 P,0,54914,55749,A
Sprite,Foreground,Centre,"sb/sprites/c2.png",555,218 S,2,55253,55919,0.2,0.4 F,2,55253,55919,0.5,0 P,0,55253,56257,A
Sprite,Foreground,Centre,"sb/sprites/c2.png",438,123 S,2,55761,56427,0.2,0.4 F,2,55761,56427,0.5,0 P,0,55761,56427,A
Sprite,Foreground,Centre,"sb/sprites/c2.png",490,440 S,2,55931,56597,0.2,0.4 F,2,55931,56597,0.5,0 P,0,55931,56766,A
Sprite,Foreground,Centre,"sb/sprites/c2.png",456,109 S,2,56269,56935,0.2,0.4 F,2,56269,56935,0.5,0 P,0,56269,56935,A
Sprite,Foreground,Centre,"sb/sprites/c2.png",303,410 S,2,56439,57105,0.2,0.4 F,2,56439,57105,0.5,0 P,0,56439,57274,A
Sprite,Foreground,Centre,"sb/sprites/c2.png",337,79 S,2,56778,57444,0.2,0.4 F,2,56778,57444,0.5,0 P,0,56778,57444,A
Sprite,Foreground,Centre,"sb/sprites/c2.png",154,228 S,2,56947,57613,0.2,0.4 F,2,56947,57613,0.5,0 P,0,56947,57782,A
Sprite,Foreground,Centre,"sb/sprites/c2.png",216,380 S,2,57286,57952,0.2,0.4 F,2,57286,57952,0.5,0 P,0,57286,58121,A
Sprite,Foreground,Centre,"sb/sprites/c2.png",423,198 S,2,57625,58291,0.2,0.4 F,2,57625,58291,0.5,0 P,0,57625,58291,A
Sprite,Foreground,Centre,"sb/sprites/c2.png",235,122 S,2,57795,58461,0.2,0.4 F,2,57795,58461,0.5,0 P,0,57795,58461,A
Sprite,Foreground,Centre,"sb/sprites/c2.png",308,276 S,2,57964,58630,0.2,0.4 F,2,57964,58630,0.5,0 P,0,57964,58630,A
Sprite,Foreground,Centre,"sb/sprites/c2.png",365,101 S,2,58134,58800,0.2,0.4 F,2,58134,58800,0.5,0 P,0,58134,58800,A
Sprite,Foreground,Centre,"sb/sprites/c2.png",503,362 S,2,58303,58969,0.2,0.4 F,2,58303,58969,0.5,0 P,0,58303,58969,A
Sprite,Foreground,Centre,"sb/sprites/c2.png",444,175 S,2,58473,59139,0.2,0.4 F,2,58473,59139,0.5,0 P,0,58473,59139,A
Sprite,Foreground,Centre,"sb/sprites/c2.png",353,412 S,2,58642,59308,0.2,0.4 F,2,58642,59308,0.5,0 P,0,58642,59308,A
Sprite,Foreground,Centre,"sb/sprites/c2.png",353,412 S,2,58812,59478,0.2,0.4 F,2,58812,59478,0.5,0 P,0,58812,59478,A
Sprite,Foreground,Centre,"sb/sprites/c2.png",422,197 S,2,58981,59647,0.2,0.4 F,2,58981,59647,0.5,0 P,0,58981,59816,A
Sprite,Foreground,Centre,"sb/sprites/c2.png",337,90 S,2,59320,59986,0.2,0.4 F,2,59320,59986,0.5,0 P,0,59320,59986,A
Sprite,Foreground,Centre,"sb/sprites/c2.png",246,248 S,2,59490,60156,0.2,0.4 F,2,59490,60156,0.5,0 P,0,59490,60156,A
Sprite,Foreground,Centre,"sb/sprites/c2.png",416,176 S,2,59659,60325,0.2,0.4 F,2,59659,60325,0.5,0 P,0,59659,60325,A
Sprite,Foreground,Centre,"sb/sprites/c2.png",325,334 S,2,59829,60495,0.2,0.4 F,2,59829,60495,0.5,0 P,0,59829,60495,A
Sprite,Foreground,Centre,"sb/sprites/c2.png",343,111 S,2,59998,60664,0.2,0.4 F,2,59998,60664,0.5,0 P,0,59998,60664,A
Sprite,Foreground,Centre,"sb/sprites/c2.png",252,269 S,2,60168,60834,0.2,0.4 F,2,60168,60834,0.5,0 P,0,60168,60834,A
Sprite,Foreground,Centre,"sb/sprites/c2.png",422,197 S,2,60337,61003,0.2,0.4 F,2,60337,61003,0.5,0 P,0,60337,61003,A
Sprite,Foreground,Centre,"sb/sprites/c2.png",331,355 S,2,60507,61173,0.2,0.4 F,2,60507,61173,0.5,0 P,0,60507,61173,A
Sprite,Foreground,Centre,"sb/sprites/c2.png",203,115 S,2,60676,61342,0.2,0.4 F,2,60676,61342,0.5,0 P,0,60676,61342,A
Sprite,Foreground,Centre,"sb/sprites/c2.png",98,317 S,2,60846,61512,0.2,0.4 F,2,60846,61512,0.5,0 P,0,60846,61512,A
Sprite,Foreground,Centre,"sb/sprites/c2.png",329,440 S,2,61015,61681,0.2,0.4 F,2,61015,61681,0.5,0 P,0,61015,61681,A
Sprite,Foreground,Centre,"sb/sprites/c2.png",234,226 S,2,61185,61851,0.2,0.4 F,2,61185,61851,0.5,0 P,0,61185,61851,A
Sprite,Foreground,Centre,"sb/sprites/c2.png",64,440 S,2,61354,62020,0.2,0.4 F,2,61354,62020,0.5,0 P,0,61354,62358,A
Sprite,Foreground,Centre,"sb/sprites/c2.png",287,417 S,2,62032,62698,0.2,0.4 F,2,62032,62698,0.5,0 P,0,62032,62698,A
Sprite,Foreground,Centre,"sb/sprites/c2.png",364,206 S,2,62202,62868,0.2,0.4 F,2,62202,62868,0.5,0 P,0,62202,62868,A
Sprite,Foreground,Centre,"sb/sprites/c2.png",438,370 S,2,62371,63037,0.2,0.4 F,2,62371,63037,0.5,0 P,0,62371,63037,A
Sprite,Foreground,Centre,"sb/sprites/c2.png",226,304 S,2,62541,63207,0.2,0.4 F,2,62541,63207,0.5,0 P,0,62541,63207,A
Sprite,Foreground,Centre,"sb/sprites/c2.png",470,123 S,2,62710,63376,0.2,0.4 F,2,62710,63376,0.5,0 P,0,62710,63714,A
Sprite,Foreground,Centre,"sb/sprites/c2.png",465,347 S,2,63388,64054,0.2,0.4 F,2,63388,64054,0.5,0 P,0,63388,64054,A
Sprite,Foreground,Centre,"sb/sprites/c2.png",287,440 S,2,63558,64224,0.2,0.4 F,2,63558,64224,0.5,0 P,0,63558,64224,A
Sprite,Foreground,Centre,"sb/sprites/c2.png",174,262 S,2,63727,64393,0.2,0.4 F,2,63727,64393,0.5,0 P,0,63727,64393,A
Sprite,Foreground,Centre,"sb/sprites/c2.png",352,355 S,2,63897,64563,0.2,0.4 F,2,63897,64563,0.5,0 P,0,63897,64563,A
Sprite,Foreground,Centre,"sb/sprites/c2.png",148,407 S,2,64066,64732,0.2,0.4 F,2,64066,64732,0.5,0 P,0,64066,64901,A
Sprite,Foreground,Centre,"sb/sprites/c2.png",234,79 S,2,64405,65071,0.2,0.4 F,2,64405,65071,0.5,0 P,0,64405,65240,A
Sprite,Foreground,Centre,"sb/sprites/c2.png",541,100 S,2,64744,65410,0.2,0.4 F,2,64744,65410,0.5,0 P,0,64744,65748,A
Sprite,Foreground,Centre,"sb/sprites/c2.png",365,64 S,2,65253,65919,0.2,0.4 F,2,65253,65919,0.5,0 P,0,65253,65919,A
Sprite,Foreground,Centre,"sb/sprites/c2.png",494,310 S,2,65422,66088,0.2,0.4 F,2,65422,66088,0.5,0 P,0,65422,66257,A
Sprite,Foreground,Centre,"sb/sprites/c2.png",396,280 S,2,65761,66427,0.2,0.4 F,2,65761,66427,0.5,0 P,0,65761,66596,A
Sprite,Foreground,Centre,"sb/sprites/c2.png",310,214 S,2,66100,66766,0.2,0.4 F,2,66100,66766,0.5,0 P,0,66100,67104,A
Sprite,Foreground,Centre,"sb/sprites/c2.png",232,319 S,2,66608,67274,0.2,0.4 F,2,66608,67274,0.5,0 P,0,66608,67274,A
Sprite,Foreground,Centre,"sb/sprites/c2.png",311,69 S,2,66778,67444,0.2,0.4 F,2,66778,67444,0.5,0 P,0,66778,67613,A
Sprite,Foreground,Centre,"sb/sprites/c2.png",288,402 S,2,67117,67783,0.2,0.4 F,2,67117,67783,0.5,0 P,0,67117,67783,A
Sprite,Foreground,Centre,"sb/sprites/c2.png",146,107 S,2,67286,67952,0.2,0.4 F,2,67286,67952,0.5,0 P,0,67286,68121,A
Sprite,Foreground,Centre,"sb/sprites/c2.png",169,440 S,2,67625,68291,0.2,0.4 F,2,67625,68291,0.5,0 P,0,67625,68291,A
Sprite,Foreground,Centre,"sb/sprites/c2.png",498,192 S,2,67795,68461,0.2,0.4 F,2,67795,68461,0.5,0 P,0,67795,68630,A
Sprite,Foreground,Centre,"sb/sprites/c2.png",210,298 S,2,68134,68800,0.2,0.4 F,2,68134,68800,0.5,0 P,0,68134,68969,A
Sprite,Foreground,Centre,"sb/sprites/c2.png",512,291 S,2,68473,69139,0.2,0.4 F,2,68473,69139,0.5,0 P,0,68473,69139,A
Sprite,Foreground,Centre,"sb/sprites/c2.png",330,211 S,2,68642,69308,0.2,0.4 F,2,68642,69308,0.5,0 P,0,68642,69308,A
Sprite,Foreground,Centre,"sb/sprites/c2.png",454,395 S,2,68812,69478,0.2,0.4 F,2,68812,69478,0.5,0 P,0,68812,69478,A
Sprite,Foreground,Centre,"sb/sprites/c2.png",515,177 S,2,68981,69647,0.2,0.4 F,2,68981,69647,0.5,0 P,0,68981,69647,A
Sprite,Foreground,Centre,"sb/sprites/c2.png",353,334 S,2,69151,69817,0.2,0.4 F,2,69151,69817,0.5,0 P,0,69151,69817,A
Sprite,Foreground,Centre,"sb/sprites/c2.png",292,116 S,2,69320,69986,0.2,0.4 F,2,69320,69986,0.5,0 P,0,69320,69986,A
Sprite,Foreground,Centre,"sb/sprites/c2.png",195,314 S,2,69490,70156,0.2,0.4 F,2,69490,70156,0.5,0 P,0,69490,70156,A
Sprite,Foreground,Centre,"sb/sprites/c2.png",364,208 S,2,69659,70325,0.2,0.4 F,2,69659,70325,0.5,0 P,0,69659,70325,A
Sprite,Foreground,Centre,"sb/sprites/c2.png",152,149 S,2,69829,70495,0.2,0.4 F,2,69829,70495,0.5,0 P,0,69829,70495,A
Sprite,Foreground,Centre,"sb/sprites/c2.png",324,329 S,2,69998,70664,0.2,0.4 F,2,69998,70664,0.5,0 P,0,69998,70664,A
Sprite,Foreground,Centre,"sb/sprites/c2.png",519,227 S,2,93219,93885,0.2,0.4 F,2,93219,93885,0.5,0 P,0,93219,93885,A
Sprite,Foreground,Centre,"sb/sprites/c2.png",467,440 S,2,93388,94054,0.2,0.4 F,2,93388,94054,0.5,0 P,0,93388,94054,A
Sprite,Foreground,Centre,"sb/sprites/c2.png",332,134 S,2,93558,94224,0.2,0.4 F,2,93558,94224,0.5,0 P,0,93558,94224,A
Sprite,Foreground,Centre,"sb/sprites/c2.png",384,347 S,2,93727,94393,0.2,0.4 F,2,93727,94393,0.5,0 P,0,93727,94393,A
Sprite,Foreground,Centre,"sb/sprites/c2.png",576,133 S,2,93897,94563,0.2,0.4 F,2,93897,94563,0.5,0 P,0,93897,94901,A
Sprite,Foreground,Centre,"sb/sprites/c2.png",353,121 S,2,94575,95241,0.2,0.4 F,2,94575,95241,0.5,0 P,0,94575,95241,A
Sprite,Foreground,Centre,"sb/sprites/c2.png",561,216 S,2,94744,95410,0.2,0.4 F,2,94744,95410,0.5,0 P,0,94744,95410,A
Sprite,Foreground,Centre,"sb/sprites/c2.png",238,314 S,2,94914,95580,0.2,0.4 F,2,94914,95580,0.5,0 P,0,94914,95580,A
Sprite,Foreground,Centre,"sb/sprites/c2.png",446,219 S,2,95083,95749,0.2,0.4 F,2,95083,95749,0.5,0 P,0,95083,95749,A
Sprite,Foreground,Centre,"sb/sprites/c2.png",234,65 S,2,95253,95919,0.2,0.4 F,2,95253,95919,0.5,0 P,0,95253,96257,A
Sprite,Foreground,Centre,"sb/sprites/c2.png",222,287 S,2,95931,96597,0.2,0.4 F,2,95931,96597,0.5,0 P,0,95931,96597,A
Sprite,Foreground,Centre,"sb/sprites/c2.png",359,202 S,2,96100,96766,0.2,0.4 F,2,96100,96766,0.5,0 P,0,96100,96766,A
Sprite,Foreground,Centre,"sb/sprites/c2.png",465,385 S,2,96269,96935,0.2,0.4 F,2,96269,96935,0.5,0 P,0,96269,96935,A
Sprite,Foreground,Centre,"sb/sprites/c2.png",328,300 S,2,96439,97105,0.2,0.4 F,2,96439,97105,0.5,0 P,0,96439,97105,A
Sprite,Foreground,Centre,"sb/sprites/c2.png",492,175 S,2,96608,97274,0.2,0.4 F,2,96608,97274,0.5,0 P,0,96608,97443,A
Sprite,Foreground,Centre,"sb/sprites/c2.png",394,70 S,2,96947,97613,0.2,0.4 F,2,96947,97613,0.5,0 P,0,96947,97782,A
Sprite,Foreground,Centre,"sb/sprites/c2.png",64,166 S,2,97286,97952,0.2,0.4 F,2,97286,97952,0.5,0 P,0,97286,98290,A
Sprite,Foreground,Centre,"sb/sprites/c2.png",409,218 S,2,97795,98461,0.2,0.4 F,2,97795,98461,0.5,0 P,0,97795,98461,A
Sprite,Foreground,Centre,"sb/sprites/c2.png",292,339 S,2,97964,98630,0.2,0.4 F,2,97964,98630,0.5,0 P,0,97964,98799,A
Sprite,Foreground,Centre,"sb/sprites/c2.png",128,262 S,2,98303,98969,0.2,0.4 F,2,98303,98969,0.5,0 P,0,98303,99138,A
Sprite,Foreground,Centre,"sb/sprites/c2.png",383,242 S,2,98642,99308,0.2,0.4 F,2,98642,99308,0.5,0 P,0,98642,99646,A
Sprite,Foreground,Centre,"sb/sprites/c2.png",264,151 S,2,99151,99817,0.2,0.4 F,2,99151,99817,0.5,0 P,0,99151,99817,A
Sprite,Foreground,Centre,"sb/sprites/c2.png",440,440 S,2,99320,99986,0.2,0.4 F,2,99320,99986,0.5,0 P,0,99320,100155,A
Sprite,Foreground,Centre,"sb/sprites/c2.png",472,94 S,2,99659,100325,0.2,0.4 F,2,99659,100325,0.5,0 P,0,99659,100325,A
Sprite,Foreground,Centre,"sb/sprites/c2.png",305,407 S,2,99829,100495,0.2,0.4 F,2,99829,100495,0.5,0 P,0,99829,100664,A
Sprite,Foreground,Centre,"sb/sprites/c2.png",273,61 S,2,100168,100834,0.2,0.4 F,2,100168,100834,0.5,0 P,0,100168,100834,A
Sprite,Foreground,Centre,"sb/sprites/c2.png",140,245 S,2,100337,101003,0.2,0.4 F,2,100337,101003,0.5,0 P,0,100337,101172,A
Sprite,Foreground,Centre,"sb/sprites/c2.png",205,384 S,2,100676,101342,0.2,0.4 F,2,100676,101342,0.5,0 P,0,100676,101511,A
Sprite,Foreground,Centre,"sb/sprites/c2.png",393,186 S,2,101015,101681,0.2,0.4 F,2,101015,101681,0.5,0 P,0,101015,101681,A
Sprite,Foreground,Centre,"sb/sprites/c2.png",316,370 S,2,101185,101851,0.2,0.4 F,2,101185,101851,0.5,0 P,0,101185,101851,A
Sprite,Foreground,Centre,"sb/sprites/c2.png",244,160 S,2,101354,102020,0.2,0.4 F,2,101354,102020,0.5,0 P,0,101354,102020,A
Sprite,Foreground,Centre,"sb/sprites/c2.png",405,306 S,2,101524,102190,0.2,0.4 F,2,101524,102190,0.5,0 P,0,101524,102190,A
Sprite,Foreground,Centre,"sb/sprites/c2.png",458,86 S,2,101693,102359,0.2,0.4 F,2,101693,102359,0.5,0 P,0,101693,102359,A
Sprite,Foreground,Centre,"sb/sprites/c2.png",274,172 S,2,101863,102529,0.2,0.4 F,2,101863,102529,0.5,0 P,0,101863,102529,A
Sprite,Foreground,Centre,"sb/sprites/c2.png",512,232 S,2,102032,102698,0.2,0.4 F,2,102032,102698,0.5,0 P,0,102032,102698,A
Sprite,Foreground,Centre,"sb/sprites/c2.png",348,85 S,2,102202,102868,0.2,0.4 F,2,102202,102868,0.5,0 P,0,102202,102868,A
Sprite,Foreground,Centre,"sb/sprites/c2.png",387,329 S,2,102371,103037,0.2,0.4 F,2,102371,103037,0.5,0 P,0,102371,103206,A
Sprite,Foreground,Centre,"sb/sprites/c2.png",308,406 S,2,102710,103376,0.2,0.4 F,2,102710,103376,0.5,0 P,0,102710,103376,A
Sprite,Foreground,Centre,"sb/sprites/c2.png",245,233 S,2,102880,103546,0.2,0.4 F,2,102880,103546,0.5,0 P,0,102880,103546,A
Sprite,Foreground,Centre,"sb/sprites/c2.png",171,411 S,2,103049,103715,0.2,0.4 F,2,103049,103715,0.5,0 P,0,103049,103715,A
Sprite,Foreground,Centre,"sb/sprites/c2.png",108,239 S,2,103219,103885,0.2,0.4 F,2,103219,103885,0.5,0 P,0,103219,103885,A
Sprite,Foreground,Centre,"sb/sprites/c2.png",283,393 S,2,103388,104054,0.2,0.4 F,2,103388,104054,0.5,0 P,0,103388,104054,A
Sprite,Foreground,Centre,"sb/sprites/c2.png",221,221 S,2,103558,104224,0.2,0.4 F,2,103558,104224,0.5,0 P,0,103558,104224,A
Sprite,Foreground,Centre,"sb/sprites/c2.png",147,398 S,2,103727,104393,0.2,0.4 F,2,103727,104393,0.5,0 P,0,103727,104393,A
Sprite,Foreground,Centre,"sb/sprites/c2.png",84,226 S,2,103897,104563,0.2,0.4 F,2,103897,104563,0.5,0 P,0,103897,104563,A
Sprite,Foreground,Centre,"sb/sprites/c2.png",357,293 S,2,104066,104732,0.2,0.4 F,2,104066,104732,0.5,0 P,0,104066,104732,A
Sprite,Foreground,Centre,"sb/sprites/c2.png",258,93 S,2,104236,104902,0.2,0.4 F,2,104236,104902,0.5,0 P,0,104236,104902,A
Sprite,Foreground,Centre,"sb/sprites/c2.png",202,264 S,2,104405,105071,0.2,0.4 F,2,104405,105071,0.5,0 P,0,104405,105071,A
Sprite,Foreground,Centre,"sb/sprites/c2.png",384,152 S,2,104575,105241,0.2,0.4 F,2,104575,105241,0.5,0 P,0,104575,105241,A
Sprite,Foreground,Centre,"sb/sprites/c2.png",121,56 S,2,104744,105410,0.2,0.4 F,2,104744,105410,0.5,0 P,0,104744,105748,A
Sprite,Foreground,Centre,"sb/sprites/c2.png",112,279 S,2,105422,106088,0.2,0.4 F,2,105422,106088,0.5,0 P,0,105422,106088,A
Sprite,Foreground,Centre,"sb/sprites/c2.png",344,174 S,2,105592,106258,0.2,0.4 F,2,105592,106258,0.5,0 P,0,105592,106258,A
Sprite,Foreground,Centre,"sb/sprites/c2.png",209,368 S,2,105761,106427,0.2,0.4 F,2,105761,106427,0.5,0 P,0,105761,106427,A
Sprite,Foreground,Centre,"sb/sprites/c2.png",157,145 S,2,105931,106597,0.2,0.4 F,2,105931,106597,0.5,0 P,0,105931,106597,A
Sprite,Foreground,Centre,"sb/sprites/c2.png",354,419 S,2,106100,106766,0.2,0.4 F,2,106100,106766,0.5,0 P,0,106100,107104,A
Sprite,Foreground,Centre,"sb/sprites/c2.png",362,195 S,2,106778,107444,0.2,0.4 F,2,106778,107444,0.5,0 P,0,106778,107444,A
Sprite,Foreground,Centre,"sb/sprites/c2.png",211,282 S,2,106947,107613,0.2,0.4 F,2,106947,107613,0.5,0 P,0,106947,107613,A
Sprite,Foreground,Centre,"sb/sprites/c2.png",111,104 S,2,107117,107783,0.2,0.4 F,2,107117,107783,0.5,0 P,0,107117,107783,A
Sprite,Foreground,Centre,"sb/sprites/c2.png",262,191 S,2,107286,107952,0.2,0.4 F,2,107286,107952,0.5,0 P,0,107286,107952,A
Sprite,Foreground,Centre,"sb/sprites/c2.png",96,302 S,2,107456,108122,0.2,0.4 F,2,107456,108122,0.5,0 P,0,107456,108291,A
Sprite,Foreground,Centre,"sb/sprites/c2.png",225,421 S,2,107795,108461,0.2,0.4 F,2,107795,108461,0.5,0 P,0,107795,108630,A
Sprite,Foreground,Centre,"sb/sprites/c2.png",376,108 S,2,108134,108800,0.2,0.4 F,2,108134,108800,0.5,0 P,0,108134,109138,A
Sprite,Foreground,Centre,"sb/sprites/c2.png",435,440 S,2,108642,109308,0.2,0.4 F,2,108642,109308,0.5,0 P,0,108642,109308,A
Sprite,Foreground,Centre,"sb/sprites/c2.png",573,321 S,2,108812,109478,0.2,0.4 F,2,108812,109478,0.5,0 P,0,108812,109647,A
Sprite,Foreground,Centre,"sb/sprites/c2.png",421,242 S,2,109151,109817,0.2,0.4 F,2,109151,109817,0.5,0 P,0,109151,109986,A
Sprite,Foreground,Centre,"sb/sprites/c2.png",171,230 S,2,109490,110156,0.2,0.4 F,2,109490,110156,0.5,0 P,0,109490,110494,A
Sprite,Foreground,Centre,"sb/sprites/c2.png",281,311 S,2,109998,110664,0.2,0.4 F,2,109998,110664,0.5,0 P,0,109998,110664,A
Sprite,Foreground,Centre,"sb/sprites/c2.png",156,71 S,2,110168,110834,0.2,0.4 F,2,110168,110834,0.5,0 P,0,110168,111003,A
Sprite,Foreground,Centre,"sb/sprites/c2.png",195,371 S,2,110507,111173,0.2,0.4 F,2,110507,111173,0.5,0 P,0,110507,111173,A
Sprite,Foreground,Centre,"sb/sprites/c2.png",331,59 S,2,110676,111342,0.2,0.4 F,2,110676,111342,0.5,0 P,0,110676,111511,A
Sprite,Foreground,Centre,"sb/sprites/c2.png",294,338 S,2,111015,111681,0.2,0.4 F,2,111015,111681,0.5,0 P,0,111015,111681,A
Sprite,Foreground,Centre,"sb/sprites/c2.png",576,201 S,2,111185,111851,0.2,0.4 F,2,111185,111851,0.5,0 P,0,111185,112020,A
Sprite,Foreground,Centre,"sb/sprites/c2.png",322,361 S,2,111524,112190,0.2,0.4 F,2,111524,112190,0.5,0 P,0,111524,112359,A
Sprite,Foreground,Centre,"sb/sprites/c2.png",247,255 S,2,111863,112529,0.2,0.4 F,2,111863,112529,0.5,0 P,0,111863,112529,A
Sprite,Foreground,Centre,"sb/sprites/c2.png",224,433 S,2,112032,112698,0.2,0.4 F,2,112032,112698,0.5,0 P,0,112032,112698,A
Sprite,Foreground,Centre,"sb/sprites/c2.png",86,196 S,2,112202,112868,0.2,0.4 F,2,112202,112868,0.5,0 P,0,112202,112868,A
Sprite,Foreground,Centre,"sb/sprites/c2.png",188,340 S,2,112371,113037,0.2,0.4 F,2,112371,113037,0.5,0 P,0,112371,113037,A
Sprite,Foreground,Centre,"sb/sprites/c2.png",231,114 S,2,112541,113207,0.2,0.4 F,2,112541,113207,0.5,0 P,0,112541,113207,A
Sprite,Foreground,Centre,"sb/sprites/c2.png",89,290 S,2,112710,113376,0.2,0.4 F,2,112710,113376,0.5,0 P,0,112710,113376,A
Sprite,Foreground,Centre,"sb/sprites/c2.png",341,222 S,2,112880,113546,0.2,0.4 F,2,112880,113546,0.5,0 P,0,112880,113546,A
Sprite,Foreground,Centre,"sb/sprites/c2.png",177,193 S,2,113049,113715,0.2,0.4 F,2,113049,113715,0.5,0 P,0,113049,113715,A
Sprite,Foreground,Centre,"sb/sprites/c2.png",366,335 S,2,113219,113885,0.2,0.4 F,2,113219,113885,0.5,0 P,0,113219,113885,A
Sprite,Foreground,Centre,"sb/sprites/c2.png",202,364 S,2,113388,114054,0.2,0.4 F,2,113388,114054,0.5,0 P,0,113388,114054,A
Sprite,Foreground,Centre,"sb/sprites/c2.png",383,108 S,2,113558,114224,0.2,0.4 F,2,113558,114224,0.5,0 P,0,113558,114224,A
Sprite,Foreground,Centre,"sb/sprites/c2.png",457,281 S,2,113727,114393,0.2,0.4 F,2,113727,114393,0.5,0 P,0,113727,114393,A
Sprite,Foreground,Centre,"sb/sprites/c2.png",502,94 S,2,113897,114563,0.2,0.4 F,2,113897,114563,0.5,0 P,0,113897,114563,A
Sprite,Foreground,Centre,"sb/sprites/c2.png",576,267 S,2,114066,114732,0.2,0.4 F,2,114066,114732,0.5,0 P,0,114066,114732,A
Sprite,Foreground,Centre,"sb/sprites/c2.png",359,97 S,2,114236,114902,0.2,0.4 F,2,114236,114902,0.5,0 P,0,114236,114902,A
Sprite,Foreground,Centre,"sb/sprites/c2.png",433,270 S,2,114405,115071,0.2,0.4 F,2,114405,115071,0.5,0 P,0,114405,115071,A
Sprite,Foreground,Centre,"sb/sprites/c2.png",478,83 S,2,114575,115241,0.2,0.4 F,2,114575,115241,0.5,0 P,0,114575,115241,A
Sprite,Foreground,Centre,"sb/sprites/c2.png",552,256 S,2,114744,115410,0.2,0.4 F,2,114744,115410,0.5,0 P,0,114744,115410,A
Sprite,Foreground,Centre,"sb/sprites/c2.png",65,316 S,2,125761,126427,0.2,0.4 F,2,125761,126427,0.5,0 P,0,125761,126427,A
Sprite,Foreground,Centre,"sb/sprites/c2.png",196,112 S,2,125931,126597,0.2,0.4 F,2,125931,126597,0.5,0 P,0,125931,126597,A
Sprite,Foreground,Centre,"sb/sprites/c2.png",281,338 S,2,126100,126766,0.2,0.4 F,2,126100,126766,0.5,0 P,0,126100,126766,A
Sprite,Foreground,Centre,"sb/sprites/c2.png",109,212 S,2,126269,126935,0.2,0.4 F,2,126269,126935,0.5,0 P,0,126269,126935,A
Sprite,Foreground,Centre,"sb/sprites/c2.png",378,130 S,2,126439,127105,0.2,0.4 F,2,126439,127105,0.5,0 P,0,126439,127443,A
Sprite,Foreground,Centre,"sb/sprites/c2.png",378,354 S,2,127117,127783,0.2,0.4 F,2,127117,127783,0.5,0 P,0,127117,127783,A
Sprite,Foreground,Centre,"sb/sprites/c2.png",271,156 S,2,127286,127952,0.2,0.4 F,2,127286,127952,0.5,0 P,0,127286,127952,A
Sprite,Foreground,Centre,"sb/sprites/c2.png",264,403 S,2,127456,128122,0.2,0.4 F,2,127456,128122,0.5,0 P,0,127456,128122,A
Sprite,Foreground,Centre,"sb/sprites/c2.png",402,226 S,2,127625,128291,0.2,0.4 F,2,127625,128291,0.5,0 P,0,127625,128291,A
Sprite,Foreground,Centre,"sb/sprites/c2.png",150,141 S,2,127795,128461,0.2,0.4 F,2,127795,128461,0.5,0 P,0,127795,128799,A
Sprite,Foreground,Centre,"sb/sprites/c2.png",149,365 S,2,128473,129139,0.2,0.4 F,2,128473,129139,0.5,0 P,0,128473,129139,A
Sprite,Foreground,Centre,"sb/sprites/c2.png",257,181 S,2,128642,129308,0.2,0.4 F,2,128642,129308,0.5,0 P,0,128642,129308,A
Sprite,Foreground,Centre,"sb/sprites/c2.png",150,141 S,2,128812,129478,0.2,0.4 F,2,128812,129478,0.5,0 P,0,128812,129478,A
Sprite,Foreground,Centre,"sb/sprites/c2.png",258,325 S,2,128981,129647,0.2,0.4 F,2,128981,129647,0.5,0 P,0,128981,129647,A
Sprite,Foreground,Centre,"sb/sprites/c2.png",345,100 S,2,129151,129817,0.2,0.4 F,2,129151,129817,0.5,0 P,0,129151,129986,A
Sprite,Foreground,Centre,"sb/sprites/c2.png",521,56 S,2,129490,130156,0.2,0.4 F,2,129490,130156,0.5,0 P,0,129490,130325,A
Sprite,Foreground,Centre,"sb/sprites/c2.png",507,410 S,2,129829,130495,0.2,0.4 F,2,129829,130495,0.5,0 P,0,129829,130833,A
Sprite,Foreground,Centre,"sb/sprites/c2.png",419,56 S,2,130337,131003,0.2,0.4 F,2,130337,131003,0.5,0 P,0,130337,131003,A
Sprite,Foreground,Centre,"sb/sprites/c2.png",329,308 S,2,130507,131173,0.2,0.4 F,2,130507,131173,0.5,0 P,0,130507,131342,A
Sprite,Foreground,Centre,"sb/sprites/c2.png",283,206 S,2,130846,131512,0.2,0.4 F,2,130846,131512,0.5,0 P,0,130846,131681,A
Sprite,Foreground,Centre,"sb/sprites/c2.png",255,395 S,2,131185,131851,0.2,0.4 F,2,131185,131851,0.5,0 P,0,131185,131851,A
Sprite,Foreground,Centre,"sb/sprites/c2.png",373,218 S,2,131354,132020,0.2,0.4 F,2,131354,132020,0.5,0 P,0,131354,132020,A
Sprite,Foreground,Centre,"sb/sprites/c2.png",142,214 S,2,131524,132190,0.2,0.4 F,2,131524,132190,0.5,0 P,0,131524,132190,A
Sprite,Foreground,Centre,"sb/sprites/c2.png",329,308 S,2,131693,132359,0.2,0.4 F,2,131693,132359,0.5,0 P,0,131693,132359,A
Sprite,Foreground,Centre,"sb/sprites/c2.png",262,56 S,2,131863,132529,0.2,0.4 F,2,131863,132529,0.5,0 P,0,131863,132698,A
Sprite,Foreground,Centre,"sb/sprites/c2.png",286,407 S,2,132202,132868,0.2,0.4 F,2,132202,132868,0.5,0 P,0,132202,132868,A
Sprite,Foreground,Centre,"sb/sprites/c2.png",468,76 S,2,132371,133037,0.2,0.4 F,2,132371,133037,0.5,0 P,0,132371,133206,A
Sprite,Foreground,Centre,"sb/sprites/c2.png",444,427 S,2,132710,133376,0.2,0.4 F,2,132710,133376,0.5,0 P,0,132710,133376,A
Sprite,Foreground,Centre,"sb/sprites/c2.png",107,212 S,2,132880,133546,0.2,0.4 F,2,132880,133546,0.5,0 P,0,132880,133715,A
Sprite,Foreground,Centre,"sb/sprites/c2.png",444,115 S,2,133219,133885,0.2,0.4 F,2,133219,133885,0.5,0 P,0,133219,134054,A
Sprite,Foreground,Centre,"sb/sprites/c2.png",576,56 S,2,133558,134224,0.2,0.4 F,2,133558,134224,0.5,0 P,0,133558,134224,A
Sprite,Foreground,Centre,"sb/sprites/c2.png",530,239 S,2,133727,134393,0.2,0.4 F,2,133727,134393,0.5,0 P,0,133727,134393,A
Sprite,Foreground,Centre,"sb/sprites/c2.png",300,81 S,2,133897,134563,0.2,0.4 F,2,133897,134563,0.5,0 P,0,133897,134563,A
Sprite,Foreground,Centre,"sb/sprites/c2.png",529,133 S,2,134066,134732,0.2,0.4 F,2,134066,134732,0.5,0 P,0,134066,134732,A
Sprite,Foreground,Centre,"sb/sprites/c2.png",291,212 S,2,134236,134902,0.2,0.4 F,2,134236,134902,0.5,0 P,0,134236,134902,A
Sprite,Foreground,Centre,"sb/sprites/c2.png",498,259 S,2,134405,135071,0.2,0.4 F,2,134405,135071,0.5,0 P,0,134405,135071,A
Sprite,Foreground,Centre,"sb/sprites/c2.png",186,369 S,2,134575,135241,0.2,0.4 F,2,134575,135241,0.5,0 P,0,134575,135241,A
Sprite,Foreground,Centre,"sb/sprites/c2.png",282,182 S,2,134744,135410,0.2,0.4 F,2,134744,135410,0.5,0 P,0,134744,135410,A
Sprite,Foreground,Centre,"sb/sprites/c2.png",373,386 S,2,134914,135580,0.2,0.4 F,2,134914,135580,0.5,0 P,0,134914,135580,A
Sprite,Foreground,Centre,"sb/sprites/c2.png",163,252 S,2,135083,135749,0.2,0.4 F,2,135083,135749,0.5,0 P,0,135083,135749,A
Sprite,Foreground,Centre,"sb/sprites/c2.png",407,213 S,2,135253,135919,0.2,0.4 F,2,135253,135919,0.5,0 P,0,135253,135919,A
Sprite,Foreground,Centre,"sb/sprites/c2.png",346,402 S,2,135422,136088,0.2,0.4 F,2,135422,136088,0.5,0 P,0,135422,136088,A
Sprite,Foreground,Centre,"sb/sprites/c2.png",158,163 S,2,135592,136258,0.2,0.4 F,2,135592,136258,0.5,0 P,0,135592,136258,A
Sprite,Foreground,Centre,"sb/sprites/c2.png",219,352 S,2,135761,136427,0.2,0.4 F,2,135761,136427,0.5,0 P,0,135761,136427,A
Sprite,Foreground,Centre,"sb/sprites/c2.png",317,60 S,2,135931,136597,0.2,0.4 F,2,135931,136597,0.5,0 P,0,135931,136597,A
Sprite,Foreground,Centre,"sb/sprites/c2.png",412,319 S,2,136100,136766,0.2,0.4 F,2,136100,136766,0.5,0 P,0,136100,136766,A
Sprite,Foreground,Centre,"sb/sprites/c2.png",177,182 S,2,136269,136935,0.2,0.4 F,2,136269,136935,0.5,0 P,0,136269,136935,A
Sprite,Foreground,Centre,"sb/sprites/c2.png",148,184 S,2,136354,137020,0.2,0.4 F,2,136354,137020,0.5,0 P,0,136354,137020,A
Sprite,Foreground,Centre,"sb/sprites/c2.png",120,187 S,2,136439,137105,0.2,0.4 F,2,136439,137105,0.5,0 P,0,136439,137105,A
Sprite,Foreground,Centre,"sb/sprites/c2.png",92,189 S,2,136524,137190,0.2,0.4 F,2,136524,137190,0.5,0 P,0,136524,137190,A
Sprite,Foreground,Centre,"sb/sprites/c.png",0,0 C,0,17286,,255,255,255 F,0,17286,,0.9 S,7,17286,18396,0.2,0.6 F,0,17287,18397,0.9,0 M,0,17286,,332,138 R,22,17287,18397,0,2 P,0,17286,18396,A C,0,19998,,255,255,255 F,0,19998,,0.9 S,7,19998,21108,0.2,0.6 F,0,19999,21109,0.9,0 M,0,19998,,218,244 R,22,19999,21109,0,-1 P,0,19998,21108,A C,0,22710,,255,255,255 F,0,22710,,0.9 S,7,22710,23820,0.2,0.6 F,0,22711,23821,0.9,0 M,0,22710,,326,258 R,22,22711,23821,0,-3 P,0,22710,23820,A C,0,25422,,255,255,255 F,0,25422,,0.9 S,7,25422,26532,0.2,0.6 F,0,25423,26533,0.9,0 M,0,25422,,309,246 R,22,25423,26533,0,3 P,0,25422,26532,A C,0,28134,,255,255,255 F,0,28134,,0.9 S,7,28134,29244,0.2,0.6 F,0,28135,29245,0.9,0 M,0,28134,,238,98 R,22,28135,29245,0,-4 P,0,28134,29244,A C,0,30846,,255,255,255 F,0,30846,,0.9 S,7,30846,31956,0.2,0.6 F,0,30847,31957,0.9,0 M,0,30846,,399,149 R,22,30847,31957,0,-2 P,0,30846,31956,A C,0,33558,,255,255,255 F,0,33558,,0.9 S,7,33558,34668,0.2,0.6 F,0,33559,34669,0.9,0 M,0,33558,,392,257 R,22,33559,34669,0,2 P,0,33558,34668,A C,0,36269,,255,255,255 F,0,36269,,0.9 S,7,36269,37379,0.2,0.6 F,0,36270,37380,0.9,0 M,0,36269,,108,412 R,22,36270,37380,0,-1 P,0,36269,37379,A C,0,38981,,255,255,255 F,0,38981,,0.9 S,7,38981,40091,0.2,0.6 F,0,38982,40092,0.9,0 M,0,38981,,429,142 R,22,38982,40092,0,-3 P,0,38981,40091,A C,0,41693,,255,255,255 F,0,41693,,0.9 S,7,41693,42803,0.2,0.6 F,0,41694,42804,0.9,0 M,0,41693,,281,300 R,22,41694,42804,0,-4 P,0,41693,42803,A C,0,44405,,255,255,255 F,0,44405,,0.9 S,7,44405,45515,0.2,0.6 F,0,44406,45516,0.9,0 M,0,44405,,184,147 R,22,44406,45516,0,2 P,0,44405,45515,A C,0,47117,,255,255,255 F,0,47117,,0.9 S,7,47117,48227,0.2,0.6 F,0,47118,48228,0.9,0 M,0,47117,,305,123 R,22,47118,48228,0,-4 P,0,47117,48227,A C,0,71524,,255,255,255 F,0,71524,,0.9 S,7,71524,72634,0.2,0.6 F,0,71525,72635,0.9,0 M,0,71524,,190,312 R,22,71525,72635,0,-4 P,0,71524,72634,A C,0,74236,,255,255,255 F,0,74236,,0.9 S,7,74236,75346,0.2,0.6 F,0,74237,75347,0.9,0 M,0,74236,,222,252 R,22,74237,75347,0 P,0,74236,75346,A C,0,76947,,255,255,255 F,0,76947,,0.9 S,7,76947,78057,0.2,0.6 F,0,76948,78058,0.9,0 M,0,76947,,334,263 R,22,76948,78058,0,-1 P,0,76947,78057,A
Sprite,Foreground,Centre,"sb/sprites/c.png",0,0 C,0,79659,,255,255,255 F,0,79659,,0.9 S,7,79659,80769,0.2,0.6 F,0,79660,80770,0.9,0 M,0,79659,,329,124 R,22,79660,80770,0,-2 P,0,79659,80769,A C,0,82371,,255,255,255 F,0,82371,,0.9 S,7,82371,83481,0.2,0.6 F,0,82372,83482,0.9,0 M,0,82371,,305,229 R,22,82372,83482,0,1 P,0,82371,83481,A C,0,85083,,255,255,255 F,0,85083,,0.9 S,7,85083,86193,0.2,0.6 F,0,85084,86194,0.9,0 M,0,85083,,230,200 R,22,85084,86194,0,-3 P,0,85083,86193,A C,0,87795,,255,255,255 F,0,87795,,0.9 S,7,87795,88905,0.2,0.6 F,0,87796,88906,0.9,0 M,0,87795,,395,79 R,22,87796,88906,0,1 P,0,87795,88905,A C,0,90507,,255,255,255 F,0,90507,,0.9 S,7,90507,91617,0.2,0.6 F,0,90508,91618,0.9,0 M,0,90507,,373,142 R,22,90508,91618,0,-4 P,0,90507,91617,A C,0,124405,,255,255,255 F,0,124405,,0.9 S,7,124405,125515,0.2,0.6 F,0,124406,125516,0.9,0 M,0,124405,,158,215 R,22,124406,125516,0,-4 P,0,124405,125515,A C,0,125592,,255,255,255 F,0,125592,,0.9 S,7,125592,126702,0.2,0.6 F,0,125593,126703,0.9,0 M,0,125592,,277,184 R,22,125593,126703,0,3 P,0,125592,126702,A
Sprite,Foreground,Centre,"sb/sprites/c.png",0,0 C,0,124575,,255,255,255 F,0,124575,,0.9 S,7,124575,125685,0.2,0.6 F,0,124576,125686,0.9,0 M,0,124575,,114,361 R,22,124576,125686,0,-2 P,0,124575,125685,A
Sprite,Foreground,Centre,"sb/sprites/c.png",0,0 C,0,124744,,255,255,255 F,0,124744,,0.9 S,7,124744,125854,0.2,0.6 F,0,124745,125855,0.9,0 M,0,124744,,249,195 R,22,124745,125855,0,-2 P,0,124744,125854,A
Sprite,Foreground,Centre,"sb/sprites/c.png",0,0 C,0,124914,,255,255,255 F,0,124914,,0.9 S,7,124914,126024,0.2,0.6 F,0,124915,126025,0.9,0 M,0,124914,,293,341 R,22,124915,126025,0,1 P,0,124914,126024,A
Sprite,Foreground,Centre,"sb/sprites/c.png",0,0 C,0,125083,,255,255,255 F,0,125083,,0.9 S,7,125083,126193,0.2,0.6 F,0,125084,126194,0.9,0 M,0,125083,,133,193 R,22,125084,126194,0,3 P,0,125083,126193,A
Sprite,Foreground,Centre,"sb/sprites/c.png",0,0 C,0,125253,,255,255,255 F,0,125253,,0.9 S,7,125253,126363,0.2,0.6 F,0,125254,126364,0.9,0 M,0,125253,,346,125 R,22,125254,126364,0,2 P,0,125253,126363,A
Sprite,Foreground,Centre,"sb/sprites/c.png",0,0 C,0,125422,,255,255,255 F,0,125422,,0.9 S,7,125422,126532,0.2,0.6 F,0,125423,126533,0.9,0 M,0,125422,,64,116 R,22,125423,126533,0,1 P,0,125422,126532,A
Sprite,Foreground,Centre,"sb/sprites/hb.png",0,240 C,21,49830,50940,255,0,0,255,255,255 F,0,49830,50940,0.7,0 MX,0,49829,,351 L,49830,17 V,2,0,20,1.2,1.313,1.6,1.313 V,2,20,40,1.6,1.313,1.2,1.313 L,50676,1 V,2,0,338,1.2,1.313,0.05,1.313 P,0,49829,50939,A C,21,51186,52296,255,0,0,255,255,255 F,0,51186,52296,0.7,0 MX,0,51185,,237 L,51186,17 V,2,0,20,1.2,1.313,1.6,1.313 V,2,20,40,1.6,1.313,1.2,1.313 L,52032,1 V,2,0,338,1.2,1.313,0.05,1.313 P,0,51185,52295,A C,21,52542,53652,255,0,0,255,255,255 F,0,52542,53652,0.7,0 MX,0,52541,,416 L,52542,17 V,2,0,20,1.2,1.313,1.6,1.313 V,2,20,40,1.6,1.313,1.2,1.313 L,53388,1 V,2,0,338,1.2,1.313,0.05,1.313 P,0,52541,53651,A C,21,55254,56364,255,0,0,255,255,255 F,0,55254,56364,0.7,0 MX,0,55253,,555 L,55254,17 V,2,0,20,1.2,1.313,1.6,1.313 V,2,20,40,1.6,1.313,1.2,1.313 L,56100,1 V,2,0,338,1.2,1.313,0.05,1.313 P,0,55253,56363,A C,21,56948,58058,255,0,0,255,255,255 F,0,56948,58058,0.7,0 MX,0,56947,,154 L,56948,17 V,2,0,20,1.2,1.313,1.6,1.313 V,2,20,40,1.6,1.313,1.2,1.313 L,57794,1 V,2,0,338,1.2,1.313,0.05,1.313 P,0,56947,58057,A C,21,60677,61787,255,0,0,255,255,255 F,0,60677,61787,0.7,0 MX,0,60676,,203 L,60677,17 V,2,0,20,1.2,1.313,1.6,1.313 V,2,20,40,1.6,1.313,1.2,1.313 L,61523,1 V,2,0,338,1.2,1.313,0.05,1.313 P,0,60676,61786,A C,21,62033,63143,255,0,0,255,255,255 F,0,62033,63143,0.7,0 MX,0,62032,,287 L,62033,17 V,2,0,20,1.2,1.313,1.6,1.313 V,2,20,40,1.6,1.313,1.2,1.313 L,62879,1 V,2,0,338,1.2,1.313,0.05,1.313 P,0,62032,63142,A C,21,63389,64499,255,0,0,255,255,255 F,0,63389,64499,0.7,0 MX,0,63388,,465 L,63389,17 V,2,0,20,1.2,1.313,1.6,1.313 V,2,20,40,1.6,1.313,1.2,1.313 L,64235,1 V,2,0,338,1.2,1.313,0.05,1.313 P,0,63388,64498,A C,21,66101,67211,255,0,0,255,255,255 F,0,66101,67211,0.7,0 MX,0,66100,,310 L,66101,17 V,2,0,20,1.2,1.313,1.6,1.313 V,2,20,40,1.6,1.313,1.2,1.313 L,66947,1 V,2,0,338,1.2,1.313,0.05,1.313 P,0,66100,67210,A C,21,67796,68906,255,0,0,255,255,255 F,0,67796,68906,0.7,0 MX,0,67795,,498 L,67796,17 V,2,0,20,1.2,1.313,1.6,1.313 V,2,20,40,1.6,1.313,1.2,1.313 L,68642,1 V,2,0,338,1.2,1.313,0.05,1.313 P,0,67795,68905,A C,21,93220,94330,255,0,0,255,255,255 F,0,93220,94330,0.7,0 MX,0,93219,,519 L,93220,17 V,2,0,20,1.2,1.313,1.6,1.313 V,2,20,40,1.6,1.313,1.2,1.313 L,94066,1 V,2,0,338,1.2,1.313,0.05,1.313 P,0,93219,94329,A C,21,94576,95686,255,0,0,255,255,255 F,0,94576,95686,0.7,0 MX,0,94575,,353 L,94576,17 V,2,0,20,1.2,1.313,1.6,1.313 V,2,20,40,1.6,1.313,1.2,1.313 L,95422,1 V,2,0,338,1.2,1.313,0.05,1.313 P,0,94575,95685,A C,21,95932,97042,255,0,0,255,255,255 F,0,95932,97042,0.7,0 MX,0,95931,,222 L,95932,17 V,2,0,20,1.2,1.313,1.6,1.313 V,2,20,40,1.6,1.313,1.2,1.313 L,96778,1 V,2,0,338,1.2,1.313,0.05,1.313 P,0,95931,97041,A C,21,98643,99753,255,0,0,255,255,255 F,0,98643,99753,0.7,0 MX,0,98642,,383 L,98643,17 V,2,0,20,1.2,1.313,1.6,1.313 V,2,20,40,1.6,1.313,1.2,1.313 L,99489,1 V,2,0,338,1.2,1.313,0.05,1.313 P,0,98642,99752,A C,21,100338,101448,255,0,0,255,255,255 F,0,100338,101448,0.7,0 MX,0,100337,,140 L,100338,17 V,2,0,20,1.2,1.313,1.6,1.313 V,2,20,40,1.6,1.313,1.2,1.313 L,101184,1 V,2,0,338,1.2,1.313,0.05,1.313 P,0,100337,101447,A C,21,102372,103482,255,0,0,255,255,255 F,0,102372,103482,0.7,0 MX,0,102371,,387 L,102372,17 V,2,0,20,1.2,1.313,1.6,1.313 V,2,20,40,1.6,1.313,1.2,1.313 L,103218,1 V,2,0,338,1.2,1.313,0.05,1.313 P,0,102371,103481,A C,21,104067,105177,255,0,0,255,255,255 F,0,104067,105177,0.7,0 MX,0,104066,,357 L,104067,17 V,2,0,20,1.2,1.313,1.6,1.313 V,2,20,40,1.6,1.313,1.2,1.313 L,104913,1 V,2,0,338,1.2,1.313,0.05,1.313 P,0,104066,105176,A C,21,105423,106533,255,0,0,255,255,255 F,0,105423,106533,0.7,0 MX,0,105422,,112 L,105423,17 V,2,0,20,1.2,1.313,1.6,1.313 V,2,20,40,1.6,1.313,1.2,1.313 L,106269,1 V,2,0,338,1.2,1.313,0.05,1.313 P,0,105422,106532,A C,21,106779,107889,255,0,0,255,255,255 F,0,106779,107889,0.7,0 MX,0,106778,,362 L,106779,17 V,2,0,20,1.2,1.313,1.6,1.313 V,2,20,40,1.6,1.313,1.2,1.313 L,107625,1 V,2,0,338,1.2,1.313,0.05,1.313 P,0,106778,107888,A C,21,109491,110601,255,0,0,255,255,255 F,0,109491,110601,0.7,0 MX,0,109490,,171 L,109491,17 V,2,0,20,1.2,1.313,1.6,1.313 V,2,20,40,1.6,1.313,1.2,1.313 L,110337,1 V,2,0,338,1.2,1.313,0.05,1.313 P,0,109490,110600,A
Sprite,Foreground,Centre,"sb/sprites/hb.png",0,240 C,21,56270,57380,255,0,0,255,255,255 F,0,56270,57380,0.7,0 MX,0,56269,,456 L,56270,17 V,2,0,20,1.2,1.313,1.6,1.313 V,2,20,40,1.6,1.313,1.2,1.313 L,57116,1 V,2,0,338,1.2,1.313,0.05,1.313 P,0,56269,57379,A C,21,57965,59075,255,0,0,255,255,255 F,0,57965,59075,0.7,0 MX,0,57964,,308 L,57965,17 V,2,0,20,1.2,1.313,1.6,1.313 V,2,20,40,1.6,1.313,1.2,1.313 L,58811,1 V,2,0,338,1.2,1.313,0.05,1.313 P,0,57964,59074,A C,21,67118,68228,255,0,0,255,255,255 F,0,67118,68228,0.7,0 MX,0,67117,,288 L,67118,17 V,2,0,20,1.2,1.313,1.6,1.313 V,2,20,40,1.6,1.313,1.2,1.313 L,67964,1 V,2,0,338,1.2,1.313,0.05,1.313 P,0,67117,68227,A C,21,68813,69923,255,0,0,255,255,255 F,0,68813,69923,0.7,0 MX,0,68812,,454 L,68813,17 V,2,0,20,1.2,1.313,1.6,1.313 V,2,20,40,1.6,1.313,1.2,1.313 L,69659,1 V,2,0,338,1.2,1.313,0.05,1.313 P,0,68812,69922,A C,21,99660,100770,255,0,0,255,255,255 F,0,99660,100770,0.7,0 MX,0,99659,,472 L,99660,17 V,2,0,20,1.2,1.313,1.6,1.313 V,2,20,40,1.6,1.313,1.2,1.313 L,100506,1 V,2,0,338,1.2,1.313,0.05,1.313 P,0,99659,100769,A C,21,101355,102465,255,0,0,255,255,255 F,0,101355,102465,0.7,0 MX,0,101354,,244 L,101355,17 V,2,0,20,1.2,1.313,1.6,1.313 V,2,20,40,1.6,1.313,1.2,1.313 L,102201,1 V,2,0,338,1.2,1.313,0.05,1.313 P,0,101354,102464,A C,21,110508,111618,255,0,0,255,255,255 F,0,110508,111618,0.7,0 MX,0,110507,,195 L,110508,17 V,2,0,20,1.2,1.313,1.6,1.313 V,2,20,40,1.6,1.313,1.2,1.313 L,111354,1 V,2,0,338,1.2,1.313,0.05,1.313 P,0,110507,111617,A C,21,112203,113313,255,0,0,255,255,255 F,0,112203,113313,0.7,0 MX,0,112202,,86 L,112203,17 V,2,0,20,1.2,1.313,1.6,1.313 V,2,20,40,1.6,1.313,1.2,1.313 L,113049,1 V,2,0,338,1.2,1.313,0.05,1.313 P,0,112202,113312,A
Sprite,Foreground,Centre,"sb/sprites/hb.png",0,240 C,21,111186,112296,255,0,0,255,255,255 F,0,111186,112296,0.7,0 MX,0,111185,,576 L,111186,17 V,2,0,20,1.2,1.313,1.6,1.313 V,2,20,40,1.6,1.313,1.2,1.313 L,112032,1 V,2,0,338,1.2,1.313,0.05,1.313 P,0,111185,112295,A C,21,125762,126872,255,0,0,255,255,255 F,0,125762,126872,0.7,0 MX,0,125761,,65 L,125762,17 V,2,0,20,1.2,1.313,1.6,1.313 V,2,20,40,1.6,1.313,1.2,1.313 L,126608,1 V,2,0,338,1.2,1.313,0.05,1.313 P,0,125761,126871,A C,21,127118,128228,255,0,0,255,255,255 F,0,127118,128228,0.7,0 MX,0,127117,,378 L,127118,17 V,2,0,20,1.2,1.313,1.6,1.313 V,2,20,40,1.6,1.313,1.2,1.313 L,127964,1 V,2,0,338,1.2,1.313,0.05,1.313 P,0,127117,128227,A C,21,128474,129584,255,0,0,255,255,255 F,0,128474,129584,0.7,0 MX,0,128473,,149 L,128474,17 V,2,0,20,1.2,1.313,1.6,1.313 V,2,20,40,1.6,1.313,1.2,1.313 L,129320,1 V,2,0,338,1.2,1.313,0.05,1.313 P,0,128473,129583,A C,21,131186,132296,255,0,0,255,255,255 F,0,131186,132296,0.7,0 MX,0,131185,,255 L,131186,17 V,2,0,20,1.2,1.313,1.6,1.313 V,2,20,40,1.6,1.313,1.2,1.313 L,132032,1 V,2,0,338,1.2,1.313,0.05,1.313 P,0,131185,132295,A C,21,132881,133991,255,0,0,255,255,255 F,0,132881,133991,0.7,0 MX,0,132880,,107 L,132881,17 V,2,0,20,1.2,1.313,1.6,1.313 V,2,20,40,1.6,1.313,1.2,1.313 L,133727,1 V,2,0,338,1.2,1.313,0.05,1.313 P,0,132880,133990,A C,21,134915,136025,255,0,0,255,255,255 F,0,134915,136025,0.7,0 MX,0,134914,,373 L,134915,17 V,2,0,20,1.2,1.313,1.6,1.313 V,2,20,40,1.6,1.313,1.2,1.313 L,135761,1 V,2,0,338,1.2,1.313,0.05,1.313 P,0,134914,136024,A
Sprite,Foreground,Centre,"sb/sprites/hb.png",0,240 C,21,132203,133313,255,0,0,255,255,255 F,0,132203,133313,0.7,0 MX,0,132202,,286 L,132203,17 V,2,0,20,1.2,1.313,1.6,1.313 V,2,20,40,1.6,1.313,1.2,1.313 L,133049,1 V,2,0,338,1.2,1.313,0.05,1.313 P,0,132202,133312,A C,21,133898,135008,255,0,0,255,255,255 F,0,133898,135008,0.7,0 MX,0,133897,,300 L,133898,17 V,2,0,20,1.2,1.313,1.6,1.313 V,2,20,40,1.6,1.313,1.2,1.313 L,134744,1 V,2,0,338,1.2,1.313,0.05,1.313 P,0,133897,135007,A
//Storyboard Sound Samples

[TimingPoints]
15931,338.983050847458,4,2,1,10,1,0
17286,-166.666666666667,4,2,1,40,0,0
28134,-133.333333333333,4,2,1,50,0,0
37625,-133.333333333333,4,2,1,60,0,0
38981,-133.333333333333,4,2,1,40,0,0
40337,-111.111111111111,4,2,1,40,0,0
47117,-111.111111111111,4,2,1,50,0,0
47795,-111.111111111111,4,2,1,60,0,0
48473,-200,4,2,1,60,0,0
48812,-200,4,2,1,55,0,0
49151,-200,4,2,1,60,0,0
49490,-200,4,2,1,65,0,0
49829,-80,4,2,1,80,0,0
50507,-80,4,2,1,80,0,1
50846,-80,4,2,1,80,0,0
51863,-80,4,2,1,80,0,1
52202,-80,4,2,1,80,0,0
55931,-66.6666666666667,4,2,1,80,0,1
58642,-80,4,2,1,80,0,0
61354,-80,4,2,1,80,0,1
61693,-80,4,2,1,80,0,0
62710,-80,4,2,1,80,0,1
63049,-80,4,2,1,80,0,0
66778,-66.6666666666667,4,2,1,80,0,1
69490,-80,4,2,1,80,0,0
70168,-100,4,2,1,80,0,0
71524,-166.666666666667,4,2,1,50,0,0
81015,-166.666666666667,4,2,1,60,0,0
82371,-133.333333333333,4,2,1,40,0,0
86439,-111.111111111111,4,2,1,40,0,0
90507,-111.111111111111,4,2,1,50,0,0
91185,-111.111111111111,4,2,1,60,0,0
91863,-200,4,2,1,60,0,0
93219,-80,4,2,1,80,0,0
93897,-80,4,2,1,80,0,1
94236,-80,4,2,1,80,0,0
95253,-80,4,2,1,80,0,1
95592,-80,4,2,1,80,0,0
99320,-66.6666666666667,4,2,1,80,0,1
102032,-80,4,2,1,80,0,0
104744,-80,4,2,1,80,0,1
105083,-80,4,2,1,80,0,0
106100,-80,4,2,1,80,0,1
106439,-80,4,2,1,80,0,0
110168,-66.6666666666667,4,2,1,80,0,1
112880,-80,4,2,1,80,0,0
114914,-80,4,2,1,60,0,0
120337,-80,4,2,1,70,0,0
122710,-181.818181818181,4,2,1,70,0,0
123049,-133.333333333333,4,2,1,70,0,0
125761,-80,4,2,1,80,0,0
126439,-80,4,2,1,80,0,1
126778,-80,4,2,1,80,0,0
127795,-80,4,2,1,80,0,1
128134,-80,4,2,1,80,0,0
131863,-66.6666666666667,4,2,1,80,0,1
134575,-80,4,2,1,80,0,0
137286,-175.438596491228,4,2,1,80,0,0
140337,-175.438596491228,4,2,1,60,0,0

[Colours]
Combo1 : 216,184,73
Combo2 : 56,114,141
Combo3 : 148,20,20
Combo4 : 192,192,192

[HitObjects]
268,82,17286,6,0,L|32:79,1,215.999993408203,2|10,3:2|0:2,0:0:0:0:
52,79,19320,2,0,P|60:137|57:211,1,107.999996704102,10|0,0:2|0:0,0:0:0:0:
42,279,19829,1,2,3:2:0:0:
154,188,19998,6,0,B|234:189|234:189|281:209|281:209|382:208,1,215.999993408203,2|8,3:2|0:2,0:0:0:0:
366,209,21693,1,2,3:2:0:0:
456,112,22032,2,0,P|457:187|463:237,1,107.999996704102,10|2,0:2|0:3,0:0:0:0:
427,311,22541,1,0,3:0:0:0:
262,202,22710,6,0,B|284:255|284:313|253:368|253:368|220:322,1,215.999993408203,2|10,3:2|0:2,0:0:0:0:
227,332,24405,1,0,3:0:0:0:
148,281,24744,2,0,P|152:221|152:154,1,107.999996704102,10|2,0:2|0:2,0:0:0:0:
135,78,25253,1,0,3:0:0:0:
245,190,25422,6,0,P|349:178|474:173,1,215.999993408203,0|10,3:0|0:2,0:0:0:0:
460,173,26778,5,8,0:1:0:0:
355,292,27004,1,8,0:1:0:0:
269,130,27230,1,8,0:1:0:0:
411,77,27456,1,8,0:1:0:0:
411,77,27795,5,8,0:1:0:0:
341,197,27964,1,8,1:3:0:0:
174,42,28134,6,0,L|165:327,1,270.000010299683,6|10,3:2|0:2,0:0:0:0:
165,311,29320,1,2,0:2:0:0:
258,275,29490,2,0,P|308:270|355:271,1,67.5000025749208,2|0,0:2|0:0,0:0:0:0:
427,299,29829,1,2,3:2:0:0:
341,252,29998,1,2,0:2:0:0:
416,164,30168,2,0,L|429:328,1,135.000005149842,10|2,0:2|0:2,0:0:0:0:
512,123,30676,1,2,0:2:0:0:
335,93,30846,6,0,B|161:67|246:168|61:141,1,270.000010299683,2|8,3:2|0:2,0:0:0:0:
79,143,32202,2,0,P|81:225|79:236,1,67.5000025749208,2|2,0:2|0:2,0:0:0:0:
48,316,32541,2,0,P|86:303|174:301,1,101.250003862381,0|0,3:0|0:0,0:0:0:0:
146,297,32880,2,0,P|144:379|146:390,1,67.5000025749208,10|0,0:2|0:0,0:0:0:0:
219,238,33219,1,6,0:3:0:0:
251,351,33388,1,8,0:3:0:0:
328,201,33558,6,0,B|382:78|382:78|435:207,1,270.000010299683,2|8,3:2|0:2,0:0:0:0:
434,204,34744,1,2,0:2:0:0:
378,285,34914,2,0,P|411:290|443:299,1,67.5000025749208,2|0,0:2|0:0,0:0:0:0:
317,366,35253,1,2,3:2:0:0:
277,258,35422,1,2,0:2:0:0:
159,356,35592,2,0,L|304:348,1,135.000005149842,8|2,0:2|0:2,0:0:0:0:
176,259,36100,1,0,0:0:0:0:
44,356,36269,6,0,B|80:308|80:308|81:78,1,270.000010299683,2|10,3:2|0:2,0:0:0:0:
80,98,37625,5,2,3:2:0:0:
124,248,37795,1,0,1:0:0:0:
212,41,37964,1,2,3:2:0:0:
256,191,38134,1,0,1:0:0:0:
57,79,38303,1,10,0:2:0:0:
114,274,38473,1,0,1:0:0:0:
298,98,38642,1,2,1:2:0:0:
315,95,38727,1,0,1:0:0:0:
332,92,38812,1,2,1:2:0:0:
349,89,38897,1,0,1:0:0:0:
365,86,38981,6,0,L|362:243,1,135.000005149842,6|4,3:2|1:3,0:0:0:0:
405,317,39490,1,4,1:3:0:0:
405,317,39659,2,0,P|349:309|262:367,1,135.000005149842,4|4,1:3|1:3,0:0:0:0:
194,268,40168,1,0,0:0:0:0:
104,375,40337,6,0,P|104:328|84:272,1,80.9999975280763,4|4,1:3|1:3,0:0:0:0:
86,274,40592,1,4,1:3:0:0:
86,274,40676,1,4,1:3:0:0:
2,343,40846,1,0,0:0:0:0:
40,188,41015,2,0,P|89:178|140:188,1,80.9999975280763,4|0,1:3|0:0,0:0:0:0:
0,104,41354,1,4,1:3:0:0:
149,49,41524,1,4,1:3:0:0:
217,244,41693,6,0,P|224:147|254:71,1,161.999995056153,6|4,3:2|1:3,0:0:0:0:
329,177,42202,1,4,1:3:0:0:
445,97,42371,2,0,P|443:169|448:216,1,80.9999975280763,4|0,1:3|0:0,0:0:0:0:
475,277,42710,1,4,1:3:0:0:
446,271,43049,5,4,1:3:0:0:
356,306,43219,1,4,1:3:0:0:
266,341,43388,1,4,1:3:0:0:
259,228,43558,2,0,P|267:281|269:340,1,80.9999975280763,0|4,0:0|1:3,0:0:0:0:
170,172,43897,2,0,P|162:225|160:284,1,80.9999975280763,0|4,0:0|1:3,0:0:0:0:
120,91,44236,1,4,1:3:0:0:
120,91,44320,1,4,1:3:0:0:
120,91,44405,6,0,B|219:59|191:117|290:87,1,161.999995056153,6|4,3:2|1:3,0:0:0:0:
372,42,44914,1,4,1:3:0:0:
427,141,45083,2,0,P|419:199|415:325,1,161.999995056153,4|4,1:3|1:3,0:0:0:0:
425,324,45761,5,4,1:3:0:0:
335,289,45931,1,4,1:3:0:0:
245,254,46100,1,4,1:3:0:0:
243,366,46269,2,0,P|251:281|258:258,1,80.9999975280763,0|4,0:0|1:3,0:0:0:0:
145,130,46608,2,0,P|151:169|151:210,1,80.9999975280763,0|4,0:0|1:3,0:0:0:0:
241,67,46947,1,4,1:3:0:0:
241,67,47032,1,4,1:3:0:0:
241,67,47117,6,0,L|342:64,1,80.9999975280763,6|4,3:2|1:3,0:0:0:0:
143,2,47456,2,0,L|42:-1,1,80.9999975280763,4|4,1:3|1:3,0:0:0:0:
161,115,47795,1,4,1:3:0:0:
12,175,47964,1,4,1:3:0:0:
186,263,48134,1,4,1:3:0:0:
128,128,48303,1,4,1:3:0:0:
21,361,48473,6,0,L|78:356,1,45,2|0,0:2|0:0,0:0:0:0:
137,294,48812,2,0,L|194:299,1,45,2|0,0:2|0:0,0:0:0:0:
253,361,49151,2,0,L|310:356,1,45,2|0,0:2|0:0,0:0:0:0:
369,294,49490,2,0,L|426:299,1,45,2|0,0:2|0:0,0:0:0:0:
287,220,49829,5,6,3:2:0:0:
491,175,49998,1,0,0:0:0:0:
194,81,50168,1,0,0:0:0:0:
398,126,50337,1,0,0:0:0:0:
159,283,50507,2,0,L|174:47,1,225,10|0,0:2|0:0,0:0:0:0:
173,58,51185,5,6,3:2:0:0:
269,243,51354,1,0,0:0:0:0:
327,14,51524,1,0,0:0:0:0:
86,138,51693,1,0,0:0:0:0:
366,258,51863,2,0,L|351:22,1,225,10|0,0:2|0:0,0:0:0:0:
352,33,52541,5,6,3:2:0:0:
407,157,52710,1,0,0:0:0:0:
233,263,52880,1,0,0:0:0:0:
288,139,53049,1,0,0:0:0:0:
463,298,53219,2,0,P|370:287|329:289,1,112.5,10|0,0:2|0:0,0:0:0:0:
117,249,53558,2,0,P|173:247|228:238,1,112.5,0|0,3:0|0:0,0:0:0:0:
18,350,53897,6,0,P|15:237|5:126,1,225,0|0,0:0|3:2,0:0:0:0:
50,17,54405,1,0,0:0:0:0:
123,220,54575,2,0,P|138:159|179:117,1,112.5,10|0,0:2|0:0,0:0:0:0:
227,33,54914,2,0,P|262:75|274:130,1,112.5,0|0,0:0|0:0,0:0:0:0:
491,162,55253,6,0,L|262:154,1,225,6|0,3:2|0:0,0:0:0:0:
374,67,55761,1,0,0:0:0:0:
426,384,55931,6,0,L|435:237,1,135.000005149842,10|0,0:2|0:0,0:0:0:0:
392,53,56269,1,0,3:0:0:0:
239,354,56439,2,0,L|230:207,1,135.000005149842,0|0,0:0|0:0,0:0:0:0:
273,23,56778,1,0,0:0:0:0:
90,172,56947,2,0,P|61:89|17:50,1,135.000005149842,0|0,3:0|0:0,0:0:0:0:
152,324,57286,2,0,P|181:241|225:202,1,135.000005149842,10|0,0:2|0:0,0:0:0:0:
359,142,57625,1,0,0:0:0:0:
171,66,57795,1,0,0:0:0:0:
244,220,57964,5,6,3:2:0:0:
301,45,58134,1,0,0:0:0:0:
439,306,58303,1,0,0:0:0:0:
380,119,58473,1,0,0:0:0:0:
289,356,58642,5,10,0:2:0:0:
289,356,58812,1,0,0:0:0:0:
358,141,58981,2,0,L|370:253,1,112.5,0|0,3:0|0:0,0:0:0:0:
273,34,59320,5,0,1:0:0:0:
182,192,59490,1,0,0:0:0:0:
352,120,59659,1,0,3:0:0:0:
261,278,59829,1,0,1:0:0:0:
279,55,59998,1,10,0:2:0:0:
188,213,60168,1,0,3:0:0:0:
358,141,60337,1,0,0:0:0:0:
267,299,60507,1,0,0:0:0:0:
139,59,60676,5,6,3:2:0:0:
34,261,60846,1,0,0:0:0:0:
265,384,61015,1,0,0:0:0:0:
170,170,61185,1,0,0:0:0:0:
0,384,61354,2,0,L|255:358,1,225,10|0,0:2|0:0,0:0:0:0:
223,361,62032,5,6,3:2:0:0:
300,150,62202,1,0,0:0:0:0:
374,314,62371,1,0,0:0:0:0:
162,248,62541,1,0,0:0:0:0:
406,67,62710,2,0,L|401:311,1,225,10|0,0:2|0:0,0:0:0:0:
401,291,63388,5,6,3:2:0:0:
223,384,63558,1,0,0:0:0:0:
110,206,63727,1,0,0:0:0:0:
288,299,63897,1,0,0:0:0:0:
84,351,64066,2,0,P|86:260|93:206,1,112.5,10|0,0:2|0:0,0:0:0:0:
170,23,64405,2,0,P|172:114|179:168,1,112.5,0|0,3:0|0:0,0:0:0:0:
477,44,64744,6,0,B|341:29|403:121|263:98,1,225,0|0,0:0|3:0,0:0:0:0:
301,8,65253,1,0,0:0:0:0:
430,254,65422,2,0,L|448:124,1,112.5,10|0,0:2|0:0,0:0:0:0:
332,224,65761,2,0,L|347:335,1,112.5,0|0,0:0|0:0,0:0:0:0:
246,158,66100,6,0,L|17:166,1,225,6|0,3:2|0:0,0:0:0:0:
168,263,66608,1,0,0:0:0:0:
247,13,66778,6,0,P|274:89|275:147,1,135.000005149842,10|0,0:2|0:0,0:0:0:0:
224,346,67117,1,0,3:0:0:0:
82,51,67286,2,0,P|54:127|53:185,1,135.000005149842,0|0,0:0|0:0,0:0:0:0:
105,384,67625,1,0,0:0:0:0:
434,136,67795,2,0,L|300:152,1,135.000005149842,0|0,3:0|0:0,0:0:0:0:
146,242,68134,2,0,L|280:257,1,135.000005149842,10|0,0:2|0:0,0:0:0:0:
448,235,68473,1,0,0:0:0:0:
266,155,68642,1,0,0:0:0:0:
390,339,68812,5,6,3:2:0:0:
451,121,68981,1,0,0:0:0:0:
289,278,69151,1,0,0:0:0:0:
228,60,69320,1,0,0:0:0:0:
131,258,69490,5,10,0:2:0:0:
300,152,69659,1,0,0:0:0:0:
88,93,69829,1,0,3:0:0:0:
260,273,69998,1,0,1:0:0:0:
423,84,70168,6,0,L|408:205,1,90,0|0,0:0|1:0,0:0:0:0:
356,252,70507,2,0,L|367:341,1,90,0|4,3:0|0:3,0:0:0:0:
372,363,70761,1,4,0:3:0:0:
372,363,70846,1,12,0:2:0:0:
434,195,71015,1,0,3:0:0:0:
260,273,71185,2,0,P|189:259|116:257,1,135,0|0,0:0|0:0,0:0:0:0:
126,256,71524,6,0,L|130:25,1,215.999993408203,2|10,3:2|0:2,0:0:0:0:
129,40,73219,2,0,P|193:32|202:33,1,53.9999983520508,0|2,3:2|0:2,0:0:0:0:
253,90,73558,2,0,L|253:223,1,107.999996704102,10|2,0:2|0:2,0:0:0:0:
302,278,74066,1,0,3:2:0:0:
158,196,74236,6,0,P|97:184|-1:294,1,215.999993408203,2|8,3:2|0:2,0:0:0:0:
0,285,75931,2,0,P|42:285|77:291,1,53.9999983520508,2|0,3:2|0:0,0:0:0:0:
131,340,76269,2,0,P|157:280|191:245,1,107.999996704102,10|2,0:2|0:3,0:0:0:0:
270,207,76778,1,0,3:0:0:0:
270,207,76863,1,0,3:0:0:0:
270,207,76947,6,0,B|350:201|350:201|396:216|396:216|502:208,1,215.999993408203,2|10,3:2|0:2,0:0:0:0:
482,210,78642,2,0,P|472:162|471:137,1,53.9999983520508,0|2,3:0|0:2,0:0:0:0:
474,63,78981,1,10,0:2:0:0:
451,52,79320,1,2,0:2:0:0:
358,60,79490,1,0,3:0:0:0:
265,68,79659,6,0,B|261:132|261:132|272:156|272:156|270:240,1,161.999995056153,0|0,3:0|3:0,0:0:0:0:
274,256,80253,1,0,3:0:0:0:
274,256,80337,2,0,P|220:247|164:255,1,107.999996704102,10|0,0:2|0:0,0:0:0:0:
83,285,80846,1,0,1:0:0:0:
125,109,81015,1,0,0:0:0:0:
58,267,81185,5,0,1:0:0:0:
100,91,81354,1,0,3:0:0:0:
117,69,81693,2,0,P|172:80|239:78,1,107.999996704102,8|0,0:2|1:0,0:0:0:0:
315,48,82202,1,0,1:0:0:0:
241,173,82371,6,0,P|306:159|379:162,1,135.000005149842,6|4,3:2|1:3,0:0:0:0:
462,208,82880,1,4,1:3:0:0:
462,208,83049,2,0,L|460:361,1,135.000005149842,4|4,1:3|1:3,0:0:0:0:
435,360,83727,6,0,P|384:346|347:344,1,67.5000025749208,4|4,1:3|1:3,0:0:0:0:
274,354,84066,1,4,1:3:0:0:
357,317,84236,1,0,0:0:0:0:
253,197,84405,2,0,L|246:338,1,135.000005149842,4|4,1:3|1:3,0:0:0:0:
166,144,84914,1,4,1:3:0:0:
166,144,84998,1,4,1:3:0:0:
166,144,85083,6,0,B|82:136|123:184|15:175,1,135.000005149842,6|4,3:2|1:3,0:0:0:0:
43,87,85592,1,4,1:3:0:0:
157,232,85761,1,4,1:3:0:0:
146,260,86100,1,4,1:3:0:0:
135,288,86439,5,4,1:3:0:0:
235,313,86608,1,4,1:3:0:0:
335,338,86778,1,4,1:3:0:0:
368,227,86947,2,0,P|358:271|356:325,1,80.9999975280763,0|4,0:0|1:3,0:0:0:0:
259,128,87286,2,0,P|268:167|271:207,1,80.9999975280763,0|4,0:0|1:3,0:0:0:0:
331,23,87625,1,4,1:3:0:0:
331,23,87710,1,4,1:3:0:0:
331,23,87795,6,0,P|231:33|140:24,1,161.999995056153,6|4,3:2|1:3,0:0:0:0:
76,67,88303,1,4,1:3:0:0:
131,182,88473,2,0,P|138:262|140:343,1,161.999995056153,4|4,1:3|1:3,0:0:0:0:
135,371,89151,5,4,1:3:0:0:
235,346,89320,1,4,1:3:0:0:
335,321,89490,1,4,1:3:0:0:
231,236,89659,1,0,0:0:0:0:
231,236,89829,2,0,P|225:299|231:330,1,80.9999975280763,4|0,1:3|0:0,0:0:0:0:
326,206,90168,2,0,P|317:119|306:75,1,121.499996292114,4|4,1:3|1:3,0:0:0:0:
309,86,90507,6,0,L|213:91,1,80.9999975280763,6|4,3:2|1:3,0:0:0:0:
61,11,90846,2,0,L|156:16,1,80.9999975280763,4|4,1:3|1:3,0:0:0:0:
218,111,91185,1,4,1:3:0:0:
80,184,91354,1,4,1:3:0:0:
145,38,91524,1,4,1:3:0:0:
200,211,91693,1,4,1:3:0:0:
6,81,91863,6,0,L|5:146,1,45,2|0,0:2|0:0,0:0:0:0:
66,201,92202,2,0,L|67:266,1,45,2|0,0:2|0:0,0:0:0:0:
136,320,92541,2,0,L|201:321,1,45,2|0,0:2|0:0,0:0:0:0:
256,260,92880,2,0,L|321:259,1,45,2|0,0:2|0:0,0:0:0:0:
455,171,93219,5,6,3:2:0:0:
403,384,93388,1,0,0:0:0:0:
268,78,93558,1,0,0:0:0:0:
320,291,93727,1,0,0:0:0:0:
512,77,93897,2,0,B|416:67|416:67|396:75|396:75|279:64,1,225,10|0,0:2|0:0,0:0:0:0:
289,65,94575,5,6,3:2:0:0:
497,160,94744,1,0,0:0:0:0:
174,258,94914,1,0,0:0:0:0:
382,163,95083,1,0,0:0:0:0:
170,9,95253,2,0,B|160:105|160:105|168:124|168:124|157:242,1,225,10|0,0:2|0:0,0:0:0:0:
158,231,95931,5,6,3:2:0:0:
295,146,96100,1,0,0:0:0:0:
401,329,96269,1,0,0:0:0:0:
264,244,96439,1,0,0:0:0:0:
428,119,96608,2,0,L|440:269,1,112.5,10|0,0:2|0:0,0:0:0:0:
330,14,96947,2,0,L|318:164,1,112.5,0|0,3:0|0:0,0:0:0:0:
0,110,97286,6,0,P|110:97|234:97,1,225,0|0,0:0|3:0,0:0:0:0:
345,162,97795,1,0,0:0:0:0:
228,283,97964,2,0,P|161:276|91:315,1,112.5,10|0,0:2|0:0,0:0:0:0:
64,206,98303,2,0,P|24:260|23:340,1,112.5,0|0,0:0|0:0,0:0:0:0:
319,186,98642,6,0,L|82:183,1,225,6|0,3:2|0:0,0:0:0:0:
200,95,99151,1,0,0:0:0:0:
376,384,99320,6,0,L|390:237,1,135.000005149842,10|0,0:2|0:0,0:0:0:0:
408,38,99659,1,0,3:0:0:0:
241,351,99829,2,0,L|227:204,1,135.000005149842,0|0,0:0|0:0,0:0:0:0:
209,5,100168,1,0,0:0:0:0:
76,189,100337,2,0,P|54:109|1:67,1,135.000005149842,0|0,3:0|0:0,0:0:0:0:
141,328,100676,2,0,P|163:248|216:206,1,135.000005149842,10|0,0:2|0:0,0:0:0:0:
329,130,101015,1,0,0:0:0:0:
252,314,101185,1,0,0:0:0:0:
180,104,101354,5,6,3:2:0:0:
341,250,101524,1,0,0:0:0:0:
394,30,101693,1,0,0:0:0:0:
210,116,101863,1,0,0:0:0:0:
448,176,102032,1,10,0:2:0:0:
284,29,102202,1,0,0:0:0:0:
323,273,102371,2,0,L|335:141,1,112.5,0|0,3:0|0:0,0:0:0:0:
244,350,102710,5,0,1:0:0:0:
181,177,102880,1,0,0:0:0:0:
107,355,103049,1,0,3:0:0:0:
44,183,103219,1,0,1:0:0:0:
219,337,103388,1,10,0:2:0:0:
157,165,103558,1,0,3:0:0:0:
83,342,103727,1,0,0:0:0:0:
20,170,103897,1,0,1:0:0:0:
293,237,104066,5,6,3:2:0:0:
194,37,104236,1,0,0:0:0:0:
138,208,104405,1,0,0:0:0:0:
320,96,104575,1,0,0:0:0:0:
57,0,104744,2,0,B|50:95|50:95|57:124|57:124|48:228,1,225,10|0,0:2|0:0,0:0:0:0:
48,223,105422,5,6,3:2:0:0:
280,118,105592,1,0,0:0:0:0:
145,312,105761,1,0,0:0:0:0:
93,89,105931,1,0,0:0:0:0:
290,363,106100,2,0,B|297:268|297:268|290:239|290:239|299:135,1,225,10|0,0:2|0:0,0:0:0:0:
298,139,106778,5,6,3:2:0:0:
147,226,106947,1,0,0:0:0:0:
47,48,107117,1,0,0:0:0:0:
198,135,107286,1,0,0:0:0:0:
32,246,107456,2,0,P|26:177|31:125,1,112.5,10|0,0:2|0:0,0:0:0:0:
161,365,107795,2,0,P|167:296|162:244,1,112.5,0|0,3:0|0:0,0:0:0:0:
312,52,108134,6,0,L|300:306,1,225,0|0,0:0|3:0,0:0:0:0:
371,384,108642,1,0,0:0:0:0:
509,265,108812,2,0,P|448:251|388:281,1,112.5,10|0,0:2|0:0,0:0:0:0:
357,186,109151,2,0,P|315:222|301:276,1,112.5,0|0,0:0|0:0,0:0:0:0:
107,174,109490,6,0,P|235:167|348:168,1,225,6|0,3:2|0:0,0:0:0:0:
217,255,109998,1,0,0:0:0:0:
92,15,110168,6,0,P|79:90|82:155,1,135.000005149842,10|0,0:2|0:0,0:0:0:0:
131,315,110507,1,0,3:0:0:0:
267,3,110676,2,0,P|279:72|274:136,1,135.000005149842,0|0,0:0|0:0,0:0:0:0:
230,282,111015,1,0,0:0:0:0:
512,145,111185,2,0,L|352:136,1,135.000005149842,0|0,3:0|0:0,0:0:0:0:
258,305,111524,2,0,L|418:296,1,135.000005149842,10|0,0:2|0:0,0:0:0:0:
183,199,111863,1,0,0:0:0:0:
160,377,112032,1,0,0:0:0:0:
22,140,112202,5,6,3:2:0:0:
124,284,112371,1,0,0:0:0:0:
167,58,112541,1,0,0:0:0:0:
25,234,112710,1,0,0:0:0:0:
277,166,112880,1,10,0:2:0:0:
113,137,113049,1,0,0:0:0:0:
302,279,113219,1,0,3:0:0:0:
138,308,113388,1,0,1:0:0:0:
319,52,113558,5,0,0:0:0:0:
393,225,113727,1,0,1:0:0:0:
438,38,113897,1,0,3:0:0:0:
512,211,114066,1,4,0:3:0:0:
295,41,114236,1,12,0:2:0:0:
369,214,114405,1,0,3:0:0:0:
414,27,114575,1,0,0:0:0:0:
488,200,114744,1,0,0:0:0:0:
181,53,114914,5,6,0:2:0:0:
455,123,117625,5,6,3:2:0:0:
42,317,120337,5,6,3:2:0:0:
302,191,121354,5,0,3:0:0:0:
168,82,122032,5,0,3:0:0:0:
212,196,122371,1,10,0:2:0:0:
289,101,122710,2,0,P|330:94|349:93,1,49.5000015106202
438,126,123049,6,0,P|432:218|435:285,1,135.000005149842,6|0,3:2|0:0,0:0:0:0:
467,349,123558,1,0,0:0:0:0:
341,284,123727,2,0,P|298:284|260:295,1,67.5000025749208,14|0,0:2|0:0,0:0:0:0:
169,346,124066,1,0,3:0:0:0:
256,303,124236,1,0,0:0:0:0:
94,159,124405,5,0,1:0:0:0:
50,305,124575,1,0,0:0:0:0:
185,139,124744,1,0,3:0:0:0:
229,285,124914,1,0,1:0:0:0:
69,137,125083,1,10,0:2:0:0:
282,69,125253,1,0,3:0:0:0:
0,60,125422,1,0,0:0:0:0:
213,128,125592,1,0,1:0:0:0:
1,260,125761,5,6,3:2:0:0:
132,56,125931,1,0,0:0:0:0:
217,282,126100,1,0,0:0:0:0:
45,156,126269,1,0,0:0:0:0:
314,74,126439,2,0,L|315:328,1,225,10|0,0:2|0:0,0:0:0:0:
314,298,127117,5,6,3:2:0:0:
207,100,127286,1,0,0:0:0:0:
200,347,127456,1,0,0:0:0:0:
338,170,127625,1,0,0:0:0:0:
86,85,127795,2,0,L|85:339,1,225,10|0,0:2|0:0,0:0:0:0:
85,309,128473,5,6,3:2:0:0:
193,125,128642,1,0,0:0:0:0:
86,85,128812,1,0,0:0:0:0:
194,269,128981,1,0,0:0:0:0:
281,44,129151,2,0,P|310:110|308:159,1,112.5,10|0,0:2|0:0,0:0:0:0:
457,0,129490,2,0,P|427:66|429:115,1,112.5,0|0,3:0|0:0,0:0:0:0:
443,354,129829,6,0,L|457:114,1,225,0|0,0:0|3:0,0:0:0:0:
355,0,130337,1,0,0:0:0:0:
265,252,130507,2,0,P|331:261|378:234,1,112.5,10|0,0:2|0:0,0:0:0:0:
219,150,130846,2,0,P|172:180|152:232,1,112.5,0|0,0:0|0:0,0:0:0:0:
191,339,131185,5,6,3:2:0:0:
309,162,131354,1,0,0:0:0:0:
78,158,131524,1,0,0:0:0:0:
265,252,131693,1,0,0:0:0:0:
198,0,131863,6,0,L|188:160,1,135.000005149842,10|0,0:2|0:0,0:0:0:0:
222,351,132202,1,0,3:0:0:0:
404,20,132371,2,0,L|414:180,1,135.000005149842,0|0,0:0|0:0,0:0:0:0:
380,371,132710,1,0,0:0:0:0:
43,156,132880,2,0,P|108:140|175:152,1,135.000005149842,0|0,3:0|0:0,0:0:0:0:
380,59,133219,2,0,P|311:70|227:43,1,135.000005149842,10|0,0:2|0:0,0:0:0:0:
512,0,133558,1,0,0:0:0:0:
466,183,133727,1,0,0:0:0:0:
236,25,133897,5,6,3:2:0:0:
465,77,134066,1,0,0:0:0:0:
227,156,134236,1,0,0:0:0:0:
434,203,134405,1,0,0:0:0:0:
122,313,134575,5,10,0:2:0:0:
218,126,134744,1,0,1:0:0:0:
309,330,134914,1,0,3:0:0:0:
99,196,135083,1,0,1:0:0:0:
343,157,135253,5,0,0:0:0:0:
282,346,135422,1,0,1:0:0:0:
94,107,135592,1,0,3:0:0:0:
155,296,135761,1,4,0:3:0:0:
253,4,135931,1,12,0:2:0:0:
348,263,136100,1,0,3:0:0:0:
113,126,136269,1,0,0:0:0:0:
84,128,136354,1,0,0:0:0:0:
56,131,136439,1,0,0:0:0:0:
28,133,136524,1,0,0:0:0:0:
0,136,136608,5,6,3:2:0:0:
0,136,137286,6,0,B|5:212|5:212|22:240|22:240|31:357,1,205.199997495117,0|6,0:0|0:2,0:0:0:0:
512,136,138642,6,0,B|507:212|507:212|490:240|490:240|481:357,1,205.199997495117,0|0,0:0|0:0,0:0:0:0:
255,72,140394,5,12,0:3:0:0:
