osu file format v14

[General]
AudioFilename: audio.mp3
AudioLeadIn: 0
PreviewTime: 91863
Countdown: 0
SampleSet: Soft
StackLeniency: 0.6
Mode: 0
LetterboxInBreaks: 0
EpilepsyWarning: 1
WidescreenStoryboard: 1

[Editor]
Bookmarks: 38981,71524,91100,114914,125761
DistanceSpacing: 1.2
BeatDivisor: 4
GridSize: 32
TimelineZoom: 2.1

[Metadata]
Title:RISE (ft. The Glitch Mob, Mako, and The Word Alive)
TitleUnicode:RISE (ft. The Glitch Mob, Mako, and The Word Alive)
Artist:League of Legends
ArtistUnicode:League of Legends
Creator:SquareTude
Version:Pika's Advanced
Source:League of Legends
Tags:Worlds 2018 Riot Games Megapcmx Celektus RVMathew Nelliel Apo11o MinorSonek ChaoticRed Zelq [[Pika]]
BeatmapID:1804202
BeatmapSetID:858938

[Difficulty]
HPDrainRate:4.3
CircleSize:4
OverallDifficulty:5.5
ApproachRate:6.5
SliderMultiplier:1.25
SliderTickRate:1

[Events]
//Background and Video events
0,0,"best bg ever.png",0,0
//Break Periods
2,39181,40718
2,41893,43430
2,44605,45803
2,82571,84108
2,85283,86820
2,87995,89193
//Storyboard Layer 0 (Background)
//Storyboard Layer 1 (Fail)
//Storyboard Layer 2 (Pass)
//Storyboard Layer 3 (Foreground)
Sprite,Foreground,Centre,"sb/sprites/c2.png",224,207 S,2,49829,50495,0.2,0.4 F,2,49829,50495,0.5,0 P,0,49829,51003,A
Sprite,Foreground,Centre,"sb/sprites/c2.png",141,370 S,2,50507,51173,0.2,0.4 F,2,50507,51173,0.5,0 P,0,50507,51681,A
Sprite,Foreground,Centre,"sb/sprites/c2.png",437,254 S,2,51185,51851,0.2,0.4 F,2,51185,51851,0.5,0 P,0,51185,52359,A
Sprite,Foreground,Centre,"sb/sprites/c2.png",540,411 S,2,51863,52529,0.2,0.4 F,2,51863,52529,0.5,0 P,0,51863,53037,A
Sprite,Foreground,Centre,"sb/sprites/c2.png",576,130 S,2,52541,53207,0.2,0.4 F,2,52541,53207,0.5,0 P,0,52541,53715,A
Sprite,Foreground,Centre,"sb/sprites/c2.png",425,136 S,2,53219,53885,0.2,0.4 F,2,53219,53885,0.5,0 P,0,53219,54393,A
Sprite,Foreground,Centre,"sb/sprites/c2.png",215,123 S,2,53897,54563,0.2,0.4 F,2,53897,54563,0.5,0 P,0,53897,54901,A
Sprite,Foreground,Centre,"sb/sprites/c2.png",114,203 S,2,54405,55071,0.2,0.4 F,2,54405,55071,0.5,0 P,0,54405,55071,A
Sprite,Foreground,Centre,"sb/sprites/c2.png",87,277 S,2,54575,55241,0.2,0.4 F,2,54575,55241,0.5,0 P,0,54575,55579,A
Sprite,Foreground,Centre,"sb/sprites/c2.png",229,439 S,2,55253,55919,0.2,0.4 F,2,55253,55919,0.5,0 P,0,55253,56427,A
Sprite,Foreground,Centre,"sb/sprites/c2.png",426,428 S,2,55931,56597,0.2,0.4 F,2,55931,56597,0.5,0 P,0,55931,57613,A
Sprite,Foreground,Centre,"sb/sprites/c2.png",572,369 S,2,57286,57952,0.2,0.4 F,2,57286,57952,0.5,0 P,0,57286,57952,A
Sprite,Foreground,Centre,"sb/sprites/c2.png",508,224 S,2,57625,58291,0.2,0.4 F,2,57625,58291,0.5,0 P,0,57625,58291,A
Sprite,Foreground,Centre,"sb/sprites/c2.png",562,76 S,2,57964,58630,0.2,0.4 F,2,57964,58630,0.5,0 P,0,57964,59138,A
Sprite,Foreground,Centre,"sb/sprites/c2.png",303,118 S,2,58642,59308,0.2,0.4 F,2,58642,59308,0.5,0 P,0,58642,59477,A
Sprite,Foreground,Centre,"sb/sprites/c2.png",169,81 S,2,58981,59647,0.2,0.4 F,2,58981,59647,0.5,0 P,0,58981,59816,A
Sprite,Foreground,Centre,"sb/sprites/c2.png",69,147 S,2,59320,59986,0.2,0.4 F,2,59320,59986,0.5,0 P,0,59320,60324,A
Sprite,Foreground,Centre,"sb/sprites/c2.png",140,293 S,2,59829,60495,0.2,0.4 F,2,59829,60495,0.5,0 P,0,59829,60495,A
Sprite,Foreground,Centre,"sb/sprites/c2.png",215,314 S,2,59998,60664,0.2,0.4 F,2,59998,60664,0.5,0 P,0,59998,61002,A
Sprite,Foreground,Centre,"sb/sprites/c2.png",383,328 S,2,60676,61342,0.2,0.4 F,2,60676,61342,0.5,0 P,0,60676,61850,A
Sprite,Foreground,Centre,"sb/sprites/c2.png",361,419 S,2,61354,62020,0.2,0.4 F,2,61354,62020,0.5,0 P,0,61354,62528,A
Sprite,Foreground,Centre,"sb/sprites/c2.png",398,196 S,2,62032,62698,0.2,0.4 F,2,62032,62698,0.5,0 P,0,62032,63206,A
Sprite,Foreground,Centre,"sb/sprites/c2.png",482,88 S,2,62710,63376,0.2,0.4 F,2,62710,63376,0.5,0 P,0,62710,63884,A
Sprite,Foreground,Centre,"sb/sprites/c2.png",182,170 S,2,63388,64054,0.2,0.4 F,2,63388,64054,0.5,0 P,0,63388,64562,A
Sprite,Foreground,Centre,"sb/sprites/c2.png",141,257 S,2,64066,64732,0.2,0.4 F,2,64066,64732,0.5,0 P,0,64066,65240,A
Sprite,Foreground,Centre,"sb/sprites/c2.png",107,403 S,2,64744,65410,0.2,0.4 F,2,64744,65410,0.5,0 P,0,64744,65748,A
Sprite,Foreground,Centre,"sb/sprites/c2.png",308,375 S,2,65253,65919,0.2,0.4 F,2,65253,65919,0.5,0 P,0,65253,65919,A
Sprite,Foreground,Centre,"sb/sprites/c2.png",370,422 S,2,65422,66088,0.2,0.4 F,2,65422,66088,0.5,0 P,0,65422,66426,A
Sprite,Foreground,Centre,"sb/sprites/c2.png",571,280 S,2,66100,66766,0.2,0.4 F,2,66100,66766,0.5,0 P,0,66100,67274,A
Sprite,Foreground,Centre,"sb/sprites/c2.png",493,109 S,2,66778,67444,0.2,0.4 F,2,66778,67444,0.5,0 P,0,66778,68460,A
Sprite,Foreground,Centre,"sb/sprites/c2.png",376,215 S,2,68134,68800,0.2,0.4 F,2,68134,68800,0.5,0 P,0,68134,68800,A
Sprite,Foreground,Centre,"sb/sprites/c2.png",228,158 S,2,68473,69139,0.2,0.4 F,2,68473,69139,0.5,0 P,0,68473,69139,A
Sprite,Foreground,Centre,"sb/sprites/c2.png",100,250 S,2,68812,69478,0.2,0.4 F,2,68812,69478,0.5,0 P,0,68812,69986,A
Sprite,Foreground,Centre,"sb/sprites/c2.png",182,408 S,2,69490,70156,0.2,0.4 F,2,69490,70156,0.5,0 P,0,69490,70325,A
Sprite,Foreground,Centre,"sb/sprites/c2.png",323,434 S,2,69829,70495,0.2,0.4 F,2,69829,70495,0.5,0 P,0,69829,70664,A
Sprite,Foreground,Centre,"sb/sprites/c2.png",453,233 S,2,93219,93885,0.2,0.4 F,2,93219,93885,0.5,0 P,0,93219,94393,A
Sprite,Foreground,Centre,"sb/sprites/c2.png",418,421 S,2,93897,94563,0.2,0.4 F,2,93897,94563,0.5,0 P,0,93897,95071,A
Sprite,Foreground,Centre,"sb/sprites/c2.png",202,438 S,2,94575,95241,0.2,0.4 F,2,94575,95241,0.5,0 P,0,94575,95749,A
Sprite,Foreground,Centre,"sb/sprites/c2.png",261,280 S,2,95253,95919,0.2,0.4 F,2,95253,95919,0.5,0 P,0,95253,96427,A
Sprite,Foreground,Centre,"sb/sprites/c2.png",191,91 S,2,95931,96597,0.2,0.4 F,2,95931,96597,0.5,0 P,0,95931,97105,A
Sprite,Foreground,Centre,"sb/sprites/c2.png",377,138 S,2,96608,97274,0.2,0.4 F,2,96608,97274,0.5,0 P,0,96608,97782,A
Sprite,Foreground,Centre,"sb/sprites/c2.png",434,202 S,2,97286,97952,0.2,0.4 F,2,97286,97952,0.5,0 P,0,97286,98290,A
Sprite,Foreground,Centre,"sb/sprites/c2.png",479,402 S,2,97795,98461,0.2,0.4 F,2,97795,98461,0.5,0 P,0,97795,98461,A
Sprite,Foreground,Centre,"sb/sprites/c2.png",400,396 S,2,97964,98630,0.2,0.4 F,2,97964,98630,0.5,0 P,0,97964,98968,A
Sprite,Foreground,Centre,"sb/sprites/c2.png",105,267 S,2,98642,99308,0.2,0.4 F,2,98642,99308,0.5,0 P,0,98642,99816,A
Sprite,Foreground,Centre,"sb/sprites/c2.png",271,322 S,2,99320,99986,0.2,0.4 F,2,99320,99986,0.5,0 P,0,99320,101002,A
Sprite,Foreground,Centre,"sb/sprites/c2.png",193,184 S,2,100676,101342,0.2,0.4 F,2,100676,101342,0.5,0 P,0,100676,101342,A
Sprite,Foreground,Centre,"sb/sprites/c2.png",297,65 S,2,101015,101681,0.2,0.4 F,2,101015,101681,0.5,0 P,0,101015,101681,A
Sprite,Foreground,Centre,"sb/sprites/c2.png",443,123 S,2,101354,102020,0.2,0.4 F,2,101354,102020,0.5,0 P,0,101354,102528,A
Sprite,Foreground,Centre,"sb/sprites/c2.png",486,217 S,2,102032,102698,0.2,0.4 F,2,102032,102698,0.5,0 P,0,102032,102867,A
Sprite,Foreground,Centre,"sb/sprites/c2.png",562,332 S,2,102371,103037,0.2,0.4 F,2,102371,103037,0.5,0 P,0,102371,103206,A
Sprite,Foreground,Centre,"sb/sprites/c2.png",474,433 S,2,102710,103376,0.2,0.4 F,2,102710,103376,0.5,0 P,0,102710,103714,A
Sprite,Foreground,Centre,"sb/sprites/c2.png",287,374 S,2,103219,103885,0.2,0.4 F,2,103219,103885,0.5,0 P,0,103219,103885,A
Sprite,Foreground,Centre,"sb/sprites/c2.png",213,402 S,2,103388,104054,0.2,0.4 F,2,103388,104054,0.5,0 P,0,103388,104392,A
Sprite,Foreground,Centre,"sb/sprites/c2.png",160,259 S,2,104066,104732,0.2,0.4 F,2,104066,104732,0.5,0 P,0,104066,105240,A
Sprite,Foreground,Centre,"sb/sprites/c2.png",97,97 S,2,104744,105410,0.2,0.4 F,2,104744,105410,0.5,0 P,0,104744,105918,A
Sprite,Foreground,Centre,"sb/sprites/c2.png",380,179 S,2,105422,106088,0.2,0.4 F,2,105422,106088,0.5,0 P,0,105422,106596,A
Sprite,Foreground,Centre,"sb/sprites/c2.png",461,161 S,2,106100,106766,0.2,0.4 F,2,106100,106766,0.5,0 P,0,106100,107274,A
Sprite,Foreground,Centre,"sb/sprites/c2.png",478,399 S,2,106778,107444,0.2,0.4 F,2,106778,107444,0.5,0 P,0,106778,107952,A
Sprite,Foreground,Centre,"sb/sprites/c2.png",385,324 S,2,107456,108122,0.2,0.4 F,2,107456,108122,0.5,0 P,0,107456,108630,A
Sprite,Foreground,Centre,"sb/sprites/c2.png",149,431 S,2,108134,108800,0.2,0.4 F,2,108134,108800,0.5,0 P,0,108134,109138,A
Sprite,Foreground,Centre,"sb/sprites/c2.png",111,234 S,2,108642,109308,0.2,0.4 F,2,108642,109308,0.5,0 P,0,108642,109308,A
Sprite,Foreground,Centre,"sb/sprites/c2.png",170,182 S,2,108812,109478,0.2,0.4 F,2,108812,109478,0.5,0 P,0,108812,109816,A
Sprite,Foreground,Centre,"sb/sprites/c2.png",272,124 S,2,109490,110156,0.2,0.4 F,2,109490,110156,0.5,0 P,0,109490,110664,A
Sprite,Foreground,Centre,"sb/sprites/c2.png",444,173 S,2,110168,110834,0.2,0.4 F,2,110168,110834,0.5,0 P,0,110168,111850,A
Sprite,Foreground,Centre,"sb/sprites/c2.png",546,293 S,2,111524,112190,0.2,0.4 F,2,111524,112190,0.5,0 P,0,111524,112190,A
Sprite,Foreground,Centre,"sb/sprites/c2.png",470,431 S,2,111863,112529,0.2,0.4 F,2,111863,112529,0.5,0 P,0,111863,112529,A
Sprite,Foreground,Centre,"sb/sprites/c2.png",318,389 S,2,112202,112868,0.2,0.4 F,2,112202,112868,0.5,0 P,0,112202,113376,A
Sprite,Foreground,Centre,"sb/sprites/c2.png",83,336 S,2,112880,113546,0.2,0.4 F,2,112880,113546,0.5,0 P,0,112880,113546,A
Sprite,Foreground,Centre,"sb/sprites/c2.png",122,268 S,2,113049,113715,0.2,0.4 F,2,113049,113715,0.5,0 P,0,113049,113715,A
Sprite,Foreground,Centre,"sb/sprites/c2.png",72,206 S,2,113219,113885,0.2,0.4 F,2,113219,113885,0.5,0 P,0,113219,114054,A
Sprite,Foreground,Centre,"sb/sprites/c2.png",114,77 S,2,113558,114224,0.2,0.4 F,2,113558,114224,0.5,0 P,0,113558,114562,A
Sprite,Foreground,Centre,"sb/sprites/c2.png",378,158 S,2,114236,114902,0.2,0.4 F,2,114236,114902,0.5,0 P,0,114236,115240,A
Sprite,Foreground,Centre,"sb/sprites/c2.png",396,65 S,2,125761,126427,0.2,0.4 F,2,125761,126427,0.5,0 P,0,125761,126935,A
Sprite,Foreground,Centre,"sb/sprites/c2.png",244,134 S,2,126439,127105,0.2,0.4 F,2,126439,127105,0.5,0 P,0,126439,127613,A
Sprite,Foreground,Centre,"sb/sprites/c2.png",91,236 S,2,127117,127783,0.2,0.4 F,2,127117,127783,0.5,0 P,0,127117,128291,A
Sprite,Foreground,Centre,"sb/sprites/c2.png",200,283 S,2,127795,128461,0.2,0.4 F,2,127795,128461,0.5,0 P,0,127795,128969,A
Sprite,Foreground,Centre,"sb/sprites/c2.png",291,347 S,2,128473,129139,0.2,0.4 F,2,128473,129139,0.5,0 P,0,128473,129647,A
Sprite,Foreground,Centre,"sb/sprites/c2.png",327,417 S,2,129151,129817,0.2,0.4 F,2,129151,129817,0.5,0 P,0,129151,130155,A
Sprite,Foreground,Centre,"sb/sprites/c2.png",518,367 S,2,129659,130325,0.2,0.4 F,2,129659,130325,0.5,0 P,0,129659,130325,A
Sprite,Foreground,Centre,"sb/sprites/c2.png",497,290 S,2,129829,130495,0.2,0.4 F,2,129829,130495,0.5,0 P,0,129829,130664,A
Sprite,Foreground,Centre,"sb/sprites/c2.png",567,182 S,2,130168,130834,0.2,0.4 F,2,130168,130834,0.5,0 P,0,130168,131003,A
Sprite,Foreground,Centre,"sb/sprites/c2.png",509,59 S,2,130507,131173,0.2,0.4 F,2,130507,131173,0.5,0 P,0,130507,131511,A
Sprite,Foreground,Centre,"sb/sprites/c2.png",321,132 S,2,131015,131681,0.2,0.4 F,2,131015,131681,0.5,0 P,0,131015,131681,A
Sprite,Foreground,Centre,"sb/sprites/c2.png",249,97 S,2,131185,131851,0.2,0.4 F,2,131185,131851,0.5,0 P,0,131185,132359,A
Sprite,Foreground,Centre,"sb/sprites/c2.png",81,176 S,2,131863,132529,0.2,0.4 F,2,131863,132529,0.5,0 P,0,131863,133545,A
Sprite,Foreground,Centre,"sb/sprites/c2.png",237,202 S,2,133219,133885,0.2,0.4 F,2,133219,133885,0.5,0 P,0,133219,133885,A
Sprite,Foreground,Centre,"sb/sprites/c2.png",308,342 S,2,133558,134224,0.2,0.4 F,2,133558,134224,0.5,0 P,0,133558,134224,A
Sprite,Foreground,Centre,"sb/sprites/c2.png",464,323 S,2,133897,134563,0.2,0.4 F,2,133897,134563,0.5,0 P,0,133897,134732,A
Sprite,Foreground,Centre,"sb/sprites/c2.png",562,245 S,2,134236,134902,0.2,0.4 F,2,134236,134902,0.5,0 P,0,134236,134902,A
Sprite,Foreground,Centre,"sb/sprites/c2.png",519,179 S,2,134405,135071,0.2,0.4 F,2,134405,135071,0.5,0 P,0,134405,135071,A
Sprite,Foreground,Centre,"sb/sprites/c2.png",563,113 S,2,134575,135241,0.2,0.4 F,2,134575,135241,0.5,0 P,0,134575,135749,A
Sprite,Foreground,Centre,"sb/sprites/c2.png",348,65 S,2,135253,135919,0.2,0.4 F,2,135253,135919,0.5,0 P,0,135253,136088,A
Sprite,Foreground,Centre,"sb/sprites/c2.png",217,116 S,2,135592,136258,0.2,0.4 F,2,135592,136258,0.5,0 P,0,135592,136427,A
Sprite,Foreground,Centre,"sb/sprites/c2.png",111,175 S,2,135931,136597,0.2,0.4 F,2,135931,136597,0.5,0 P,0,135931,136597,A
Sprite,Foreground,Centre,"sb/sprites/c2.png",152,241 S,2,136100,136766,0.2,0.4 F,2,136100,136766,0.5,0 P,0,136100,136766,A
Sprite,Foreground,Centre,"sb/sprites/c2.png",119,312 S,2,136269,136935,0.2,0.4 F,2,136269,136935,0.5,0 P,0,136269,137104,A
Sprite,Foreground,Centre,"sb/sprites/c.png",0,0 C,0,17286,,255,255,255 F,0,17286,,0.9 S,7,17286,18396,0.2,0.6 F,0,17287,18397,0.9,0 M,0,17286,,122,111 R,22,17287,18397,0,2 P,0,17286,18396,A C,0,19998,,255,255,255 F,0,19998,,0.9 S,7,19998,21108,0.2,0.6 F,0,19999,21109,0.9,0 M,0,19998,,572,210 R,22,19999,21109,0,-1 P,0,19998,21108,A C,0,22710,,255,255,255 F,0,22710,,0.9 S,7,22710,23820,0.2,0.6 F,0,22711,23821,0.9,0 M,0,22710,,180,412 R,22,22711,23821,0,-3 P,0,22710,23820,A C,0,25422,,255,255,255 F,0,25422,,0.9 S,7,25422,26532,0.2,0.6 F,0,25423,26533,0.9,0 M,0,25422,,444,122 R,22,25423,26533,0,3 P,0,25422,26532,A C,0,28134,,255,255,255 F,0,28134,,0.9 S,7,28134,29244,0.2,0.6 F,0,28135,29245,0.9,0 M,0,28134,,153,334 R,22,28135,29245,0,-4 P,0,28134,29244,A C,0,30846,,255,255,255 F,0,30846,,0.9 S,7,30846,31956,0.2,0.6 F,0,30847,31957,0.9,0 M,0,30846,,559,377 R,22,30847,31957,0,-2 P,0,30846,31956,A C,0,33558,,255,255,255 F,0,33558,,0.9 S,7,33558,34668,0.2,0.6 F,0,33559,34669,0.9,0 M,0,33558,,170,140 R,22,33559,34669,0,2 P,0,33558,34668,A C,0,36269,,255,255,255 F,0,36269,,0.9 S,7,36269,37379,0.2,0.6 F,0,36270,37380,0.9,0 M,0,36269,,129,388 R,22,36270,37380,0,-1 P,0,36269,37379,A C,0,38981,,255,255,255 F,0,38981,,0.9 S,7,38981,40091,0.2,0.6 F,0,38982,40092,0.9,0 M,0,38981,,539,158 R,22,38982,40092,0,-3 P,0,38981,40091,A C,0,41693,,255,255,255 F,0,41693,,0.9 S,7,41693,42803,0.2,0.6 F,0,41694,42804,0.9,0 M,0,41693,,296,60 R,22,41694,42804,0,-4 P,0,41693,42803,A C,0,44405,,255,255,255 F,0,44405,,0.9 S,7,44405,45515,0.2,0.6 F,0,44406,45516,0.9,0 M,0,44405,,217,368 R,22,44406,45516,0,2 P,0,44405,45515,A C,0,47117,,255,255,255 F,0,47117,,0.9 S,7,47117,48227,0.2,0.6 F,0,47118,48228,0.9,0 M,0,47117,,574,318 R,22,47118,48228,0,-4 P,0,47117,48227,A C,0,71524,,255,255,255 F,0,71524,,0.9 S,7,71524,72634,0.2,0.6 F,0,71525,72635,0.9,0 M,0,71524,,403,113 R,22,71525,72635,0,-4 P,0,71524,72634,A C,0,74236,,255,255,255 F,0,74236,,0.9 S,7,74236,75346,0.2,0.6 F,0,74237,75347,0.9,0 M,0,74236,,191,377 R,22,74237,75347,0 P,0,74236,75346,A C,0,76947,,255,255,255 F,0,76947,,0.9 S,7,76947,78057,0.2,0.6 F,0,76948,78058,0.9,0 M,0,76947,,343,68 R,22,76948,78058,0,-1 P,0,76947,78057,A
Sprite,Foreground,Centre,"sb/sprites/c.png",0,0 C,0,79659,,255,255,255 F,0,79659,,0.9 S,7,79659,80769,0.2,0.6 F,0,79660,80770,0.9,0 M,0,79659,,278,378 R,22,79660,80770,0,-2 P,0,79659,80769,A C,0,82371,,255,255,255 F,0,82371,,0.9 S,7,82371,83481,0.2,0.6 F,0,82372,83482,0.9,0 M,0,82371,,392,58 R,22,82372,83482,0,1 P,0,82371,83481,A C,0,85083,,255,255,255 F,0,85083,,0.9 S,7,85083,86193,0.2,0.6 F,0,85084,86194,0.9,0 M,0,85083,,112,156 R,22,85084,86194,0,-3 P,0,85083,86193,A C,0,87795,,255,255,255 F,0,87795,,0.9 S,7,87795,88905,0.2,0.6 F,0,87796,88906,0.9,0 M,0,87795,,534,234 R,22,87796,88906,0,1 P,0,87795,88905,A C,0,90507,,255,255,255 F,0,90507,,0.9 S,7,90507,91617,0.2,0.6 F,0,90508,91618,0.9,0 M,0,90507,,214,351 R,22,90508,91618,0,-4 P,0,90507,91617,A C,0,124405,,255,255,255 F,0,124405,,0.9 S,7,124405,125515,0.2,0.6 F,0,124406,125516,0.9,0 M,0,124405,,508,368 R,22,124406,125516,0,-4 P,0,124405,125515,A
Sprite,Foreground,Centre,"sb/sprites/c.png",0,0 C,0,124575,,255,255,255 F,0,124575,,0.9 S,7,124575,125685,0.2,0.6 F,0,124576,125686,0.9,0 M,0,124575,,470,298 R,22,124576,125686,0,-2 P,0,124575,125685,A
Sprite,Foreground,Centre,"sb/sprites/c.png",0,0 C,0,124744,,255,255,255 F,0,124744,,0.9 S,7,124744,125854,0.2,0.6 F,0,124745,125855,0.9,0 M,0,124744,,515,233 R,22,124745,125855,0,-2 P,0,124744,125854,A
Sprite,Foreground,Centre,"sb/sprites/c.png",0,0 C,0,125083,,255,255,255 F,0,125083,,0.9 S,7,125083,126193,0.2,0.6 F,0,125084,126194,0.9,0 M,0,125083,,474,102 R,22,125084,126194,0,1 P,0,125083,126193,A
Sprite,Foreground,Centre,"sb/sprites/hb.png",0,240 C,21,49830,50940,255,0,0,255,255,255 F,0,49830,50940,0.7,0 MX,0,49829,,224 L,49830,17 V,2,0,20,1.2,1.313,1.6,1.313 V,2,20,40,1.6,1.313,1.2,1.313 L,50676,1 V,2,0,338,1.2,1.313,0.05,1.313 P,0,49829,50939,A C,21,51186,52296,255,0,0,255,255,255 F,0,51186,52296,0.7,0 MX,0,51185,,437 L,51186,17 V,2,0,20,1.2,1.313,1.6,1.313 V,2,20,40,1.6,1.313,1.2,1.313 L,52032,1 V,2,0,338,1.2,1.313,0.05,1.313 P,0,51185,52295,A C,21,52542,53652,255,0,0,255,255,255 F,0,52542,53652,0.7,0 MX,0,52541,,576 L,52542,17 V,2,0,20,1.2,1.313,1.6,1.313 V,2,20,40,1.6,1.313,1.2,1.313 L,53388,1 V,2,0,338,1.2,1.313,0.05,1.313 P,0,52541,53651,A C,21,55254,56364,255,0,0,255,255,255 F,0,55254,56364,0.7,0 MX,0,55253,,229 L,55254,17 V,2,0,20,1.2,1.313,1.6,1.313 V,2,20,40,1.6,1.313,1.2,1.313 L,56100,1 V,2,0,338,1.2,1.313,0.05,1.313 P,0,55253,56363,A C,21,57965,59075,255,0,0,255,255,255 F,0,57965,59075,0.7,0 MX,0,57964,,562 L,57965,17 V,2,0,20,1.2,1.313,1.6,1.313 V,2,20,40,1.6,1.313,1.2,1.313 L,58811,1 V,2,0,338,1.2,1.313,0.05,1.313 P,0,57964,59074,A C,21,60677,61787,255,0,0,255,255,255 F,0,60677,61787,0.7,0 MX,0,60676,,383 L,60677,17 V,2,0,20,1.2,1.313,1.6,1.313 V,2,20,40,1.6,1.313,1.2,1.313 L,61523,1 V,2,0,338,1.2,1.313,0.05,1.313 P,0,60676,61786,A C,21,62033,63143,255,0,0,255,255,255 F,0,62033,63143,0.7,0 MX,0,62032,,398 L,62033,17 V,2,0,20,1.2,1.313,1.6,1.313 V,2,20,40,1.6,1.313,1.2,1.313 L,62879,1 V,2,0,338,1.2,1.313,0.05,1.313 P,0,62032,63142,A C,21,63389,64499,255,0,0,255,255,255 F,0,63389,64499,0.7,0 MX,0,63388,,182 L,63389,17 V,2,0,20,1.2,1.313,1.6,1.313 V,2,20,40,1.6,1.313,1.2,1.313 L,64235,1 V,2,0,338,1.2,1.313,0.05,1.313 P,0,63388,64498,A C,21,66101,67211,255,0,0,255,255,255 F,0,66101,67211,0.7,0 MX,0,66100,,571 L,66101,17 V,2,0,20,1.2,1.313,1.6,1.313 V,2,20,40,1.6,1.313,1.2,1.313 L,66947,1 V,2,0,338,1.2,1.313,0.05,1.313 P,0,66100,67210,A C,21,68813,69923,255,0,0,255,255,255 F,0,68813,69923,0.7,0 MX,0,68812,,100 L,68813,17 V,2,0,20,1.2,1.313,1.6,1.313 V,2,20,40,1.6,1.313,1.2,1.313 L,69659,1 V,2,0,338,1.2,1.313,0.05,1.313 P,0,68812,69922,A C,21,93220,94330,255,0,0,255,255,255 F,0,93220,94330,0.7,0 MX,0,93219,,453 L,93220,17 V,2,0,20,1.2,1.313,1.6,1.313 V,2,20,40,1.6,1.313,1.2,1.313 L,94066,1 V,2,0,338,1.2,1.313,0.05,1.313 P,0,93219,94329,A C,21,94576,95686,255,0,0,255,255,255 F,0,94576,95686,0.7,0 MX,0,94575,,202 L,94576,17 V,2,0,20,1.2,1.313,1.6,1.313 V,2,20,40,1.6,1.313,1.2,1.313 L,95422,1 V,2,0,338,1.2,1.313,0.05,1.313 P,0,94575,95685,A C,21,95932,97042,255,0,0,255,255,255 F,0,95932,97042,0.7,0 MX,0,95931,,191 L,95932,17 V,2,0,20,1.2,1.313,1.6,1.313 V,2,20,40,1.6,1.313,1.2,1.313 L,96778,1 V,2,0,338,1.2,1.313,0.05,1.313 P,0,95931,97041,A C,21,98643,99753,255,0,0,255,255,255 F,0,98643,99753,0.7,0 MX,0,98642,,105 L,98643,17 V,2,0,20,1.2,1.313,1.6,1.313 V,2,20,40,1.6,1.313,1.2,1.313 L,99489,1 V,2,0,338,1.2,1.313,0.05,1.313 P,0,98642,99752,A C,21,101355,102465,255,0,0,255,255,255 F,0,101355,102465,0.7,0 MX,0,101354,,443 L,101355,17 V,2,0,20,1.2,1.313,1.6,1.313 V,2,20,40,1.6,1.313,1.2,1.313 L,102201,1 V,2,0,338,1.2,1.313,0.05,1.313 P,0,101354,102464,A C,21,104067,105177,255,0,0,255,255,255 F,0,104067,105177,0.7,0 MX,0,104066,,160 L,104067,17 V,2,0,20,1.2,1.313,1.6,1.313 V,2,20,40,1.6,1.313,1.2,1.313 L,104913,1 V,2,0,338,1.2,1.313,0.05,1.313 P,0,104066,105176,A C,21,105423,106533,255,0,0,255,255,255 F,0,105423,106533,0.7,0 MX,0,105422,,380 L,105423,17 V,2,0,20,1.2,1.313,1.6,1.313 V,2,20,40,1.6,1.313,1.2,1.313 L,106269,1 V,2,0,338,1.2,1.313,0.05,1.313 P,0,105422,106532,A C,21,106779,107889,255,0,0,255,255,255 F,0,106779,107889,0.7,0 MX,0,106778,,478 L,106779,17 V,2,0,20,1.2,1.313,1.6,1.313 V,2,20,40,1.6,1.313,1.2,1.313 L,107625,1 V,2,0,338,1.2,1.313,0.05,1.313 P,0,106778,107888,A C,21,109491,110601,255,0,0,255,255,255 F,0,109491,110601,0.7,0 MX,0,109490,,272 L,109491,17 V,2,0,20,1.2,1.313,1.6,1.313 V,2,20,40,1.6,1.313,1.2,1.313 L,110337,1 V,2,0,338,1.2,1.313,0.05,1.313 P,0,109490,110600,A
Sprite,Foreground,Centre,"sb/sprites/hb.png",0,240 C,21,102372,103482,255,0,0,255,255,255 F,0,102372,103482,0.7,0 MX,0,102371,,562 L,102372,17 V,2,0,20,1.2,1.313,1.6,1.313 V,2,20,40,1.6,1.313,1.2,1.313 L,103218,1 V,2,0,338,1.2,1.313,0.05,1.313 P,0,102371,103481,A C,21,112203,113313,255,0,0,255,255,255 F,0,112203,113313,0.7,0 MX,0,112202,,318 L,112203,17 V,2,0,20,1.2,1.313,1.6,1.313 V,2,20,40,1.6,1.313,1.2,1.313 L,113049,1 V,2,0,338,1.2,1.313,0.05,1.313 P,0,112202,113312,A C,21,125762,126872,255,0,0,255,255,255 F,0,125762,126872,0.7,0 MX,0,125761,,396 L,125762,17 V,2,0,20,1.2,1.313,1.6,1.313 V,2,20,40,1.6,1.313,1.2,1.313 L,126608,1 V,2,0,338,1.2,1.313,0.05,1.313 P,0,125761,126871,A C,21,127118,128228,255,0,0,255,255,255 F,0,127118,128228,0.7,0 MX,0,127117,,91 L,127118,17 V,2,0,20,1.2,1.313,1.6,1.313 V,2,20,40,1.6,1.313,1.2,1.313 L,127964,1 V,2,0,338,1.2,1.313,0.05,1.313 P,0,127117,128227,A C,21,128474,129584,255,0,0,255,255,255 F,0,128474,129584,0.7,0 MX,0,128473,,291 L,128474,17 V,2,0,20,1.2,1.313,1.6,1.313 V,2,20,40,1.6,1.313,1.2,1.313 L,129320,1 V,2,0,338,1.2,1.313,0.05,1.313 P,0,128473,129583,A C,21,131186,132296,255,0,0,255,255,255 F,0,131186,132296,0.7,0 MX,0,131185,,249 L,131186,17 V,2,0,20,1.2,1.313,1.6,1.313 V,2,20,40,1.6,1.313,1.2,1.313 L,132032,1 V,2,0,338,1.2,1.313,0.05,1.313 P,0,131185,132295,A C,21,133898,135008,255,0,0,255,255,255 F,0,133898,135008,0.7,0 MX,0,133897,,464 L,133898,17 V,2,0,20,1.2,1.313,1.6,1.313 V,2,20,40,1.6,1.313,1.2,1.313 L,134744,1 V,2,0,338,1.2,1.313,0.05,1.313 P,0,133897,135007,A
//Storyboard Sound Samples

[TimingPoints]
15931,338.983050847458,4,2,1,10,1,0
15931,-100,4,2,1,10,0,0
17286,-100,4,2,1,40,0,0
28134,-100,4,2,1,50,0,0
37625,-100,4,2,1,60,0,0
38981,-142.857142857143,4,2,1,40,0,0
44405,-117.647058823529,4,2,1,40,0,0
47117,-100,4,2,1,50,0,0
47795,-100,4,2,1,60,0,0
48473,-133.333333333333,4,2,1,60,0,0
48812,-133.333333333333,4,2,1,55,0,0
49151,-133.333333333333,4,2,1,60,0,0
49490,-133.333333333333,4,2,1,65,0,0
49829,-153.846153846154,4,2,1,80,0,0
50507,-74.0740740740741,4,2,1,80,0,1
51185,-153.846153846154,4,2,1,80,0,0
51863,-74.0740740740741,4,2,1,80,0,1
52541,-153.846153846154,4,2,1,80,0,0
53219,-74.0740740740741,4,2,1,80,0,1
53897,-95.2380952380952,4,2,1,80,0,1
55253,-153.846153846154,4,2,1,80,0,0
55931,-74.0740740740741,4,2,1,80,0,1
56947,-95.2380952380952,4,2,1,80,0,1
60676,-153.846153846154,4,2,1,80,0,0
61354,-74.0740740740741,4,2,1,80,0,1
62032,-153.846153846154,4,2,1,80,0,0
62710,-74.0740740740741,4,2,1,80,0,1
63388,-153.846153846154,4,2,1,80,0,0
64066,-74.0740740740741,4,2,1,80,0,1
64744,-95.2380952380952,4,2,1,80,0,1
66100,-153.846153846154,4,2,1,80,0,0
66778,-74.0740740740741,4,2,1,80,0,1
67795,-95.2380952380952,4,2,1,80,0,1
71524,-100,4,2,1,50,0,0
81015,-100,4,2,1,60,0,0
82371,-100,4,2,1,40,0,0
90507,-100,4,2,1,50,0,0
91185,-100,4,2,1,60,0,0
91863,-133.333333333333,4,2,1,60,0,0
93219,-153.846153846154,4,2,1,80,0,0
93897,-74.0740740740741,4,2,1,80,0,1
94575,-153.846153846154,4,2,1,80,0,0
95253,-74.0740740740741,4,2,1,80,0,1
95931,-153.846153846154,4,2,1,80,0,0
96608,-74.0740740740741,4,2,1,80,0,1
97286,-95.2380952380952,4,2,1,80,0,1
98642,-153.846153846154,4,2,1,80,0,0
99320,-74.0740740740741,4,2,1,80,0,1
100337,-95.2380952380952,4,2,1,80,0,1
104066,-153.846153846154,4,2,1,80,0,0
104744,-74.0740740740741,4,2,1,80,0,1
105422,-153.846153846154,4,2,1,80,0,0
106100,-74.0740740740741,4,2,1,80,0,1
106778,-153.846153846154,4,2,1,80,0,0
107456,-74.0740740740741,4,2,1,80,0,1
108134,-95.2380952380952,4,2,1,80,0,1
109490,-153.846153846154,4,2,1,80,0,0
110168,-74.0740740740741,4,2,1,80,0,1
111185,-95.2380952380952,4,2,1,80,0,1
114914,-95.2380952380952,4,2,1,60,0,0
120337,-95.2380952380952,4,2,1,70,0,0
125761,-153.846153846154,4,2,1,80,0,0
126439,-74.0740740740741,4,2,1,80,0,1
127117,-153.846153846154,4,2,1,80,0,0
127795,-74.0740740740741,4,2,1,80,0,1
128473,-95.2380952380952,4,2,1,80,0,1
131185,-153.846153846154,4,2,1,80,0,0
131863,-74.0740740740741,4,2,1,80,0,1
132880,-95.2380952380952,4,2,1,80,0,1
136608,-95.2380952380952,4,2,1,80,0,0
137286,-95.2380952380952,4,2,1,80,0,1
137964,-95.2380952380952,4,2,1,80,0,0
138642,-95.2380952380952,4,2,1,80,0,1
139320,-95.2380952380952,4,2,1,80,0,0
140337,-95.2380952380952,4,2,1,60,0,0

[Colours]
Combo1 : 216,184,73
Combo2 : 56,114,141
Combo3 : 148,20,20
Combo4 : 192,192,192

[HitObjects]
58,55,17286,6,0,B|142:52|142:52|170:65|170:65|246:63,1,187.5,2|0,3:2|0:0,0:0:0:0:
314,41,17964,1,10,0:2:0:0:
314,41,19320,1,10,0:2:0:0:
508,154,19829,1,2,3:2:0:0:
508,154,19998,2,0,B|533:268|457:291|457:291|411:262|432:209,1,250,2|8,3:2|0:2,0:0:0:0:
429,216,21693,1,2,3:2:0:0:
357,347,22032,2,0,B|299:368|299:368|233:352,1,125,10|2,0:2|0:3,0:0:0:0:
175,309,22541,1,0,3:0:0:0:
116,356,22710,6,0,B|86:308|113:265|113:265|109:212|53:186,1,187.5,2|0,3:2|0:0,0:0:0:0:
100,126,23388,1,10,0:2:0:0:
100,126,24405,1,0,3:0:0:0:
191,7,24744,2,0,L|322:17,1,125,10|2,0:2|0:2,0:0:0:0:
380,66,25253,1,0,3:0:0:0:
380,66,25422,6,0,B|373:113|396:146|396:146|385:171|385:171|410:212|396:257,1,187.5,0|0,3:0|0:0,0:0:0:0:
338,288,26100,2,0,P|406:277|414:332,1,125,10|0,0:2|0:0,0:0:0:0:
269,330,26778,6,0,B|267:308|267:308|262:284|262:284|266:269|266:269|274:241,2,83.3333333333333,8|8|8,0:1|0:1|0:1,0:0:0:0:
180,378,27456,2,0,B|94:384|94:384|115:346,1,125,8|8,0:1|0:1,0:0:0:0:
89,278,27964,1,8,1:3:0:0:
89,278,28134,6,0,P|102:170|78:74,1,187.5,6|0,3:2|0:0,0:0:0:0:
51,26,28812,1,10,0:2:0:0:
272,65,29320,1,2,0:2:0:0:
335,24,29490,6,0,B|371:41|371:41|466:26,1,125,2|2,0:2|3:2,0:0:0:0:
507,89,29998,1,2,0:2:0:0:
507,89,30168,2,0,P|495:139|497:174,1,62.5,10|0,0:2|0:0,0:0:0:0:
439,200,30507,2,0,P|451:250|449:285,1,62.5,2|2,0:2|0:2,0:0:0:0:
495,321,30846,6,0,B|456:351|406:323|406:323|364:303|320:336,1,187.5,2|0,3:2|0:0,0:0:0:0:
253,372,31524,1,8,0:2:0:0:
253,372,32541,1,0,3:0:0:0:
146,265,32880,2,0,B|164:205|164:205|151:144,1,125,10|6,0:2|0:3,0:0:0:0:
106,84,33388,1,8,0:3:0:0:
106,84,33558,6,0,B|149:55|196:80|196:80|228:121|288:102,1,187.5,2|0,3:2|0:0,0:0:0:0:
350,81,34236,1,8,0:2:0:0:
484,261,34744,1,2,0:2:0:0:
484,261,34914,6,0,L|358:273,1,125,2|2,0:2|3:2,0:0:0:0:
255,381,35592,2,0,L|129:369,1,125,8|2,0:2|0:2,0:0:0:0:
65,332,36100,1,0,0:0:0:0:
65,332,36269,6,0,B|71:284|71:284|47:255|47:255|68:211|55:141,1,187.5,2|0,3:2|0:0,0:0:0:0:
42,81,36947,2,0,P|79:136|123:108,1,125,10|0,0:2|0:0,0:0:0:0:
225,7,37625,6,0,L|149:0,2,62.5,2|0|2,3:2|1:0|3:2,0:0:0:0:
289,57,38134,1,0,1:0:0:0:
289,57,38303,2,0,L|429:48,1,125,10|2,0:2|1:2,0:0:0:0:
475,102,38812,1,2,1:2:0:0:
475,102,38981,5,6,3:2:0:0:
232,4,41693,5,6,3:2:0:0:
153,312,44405,5,6,3:2:0:0:
462,325,46778,6,0,L|415:334,2,26.5625005066395,4|0|4,1:3|0:0|1:3,0:0:0:0:
510,262,47117,6,0,L|505:194,1,62.5,6|4,3:2|1:3,0:0:0:0:
443,157,47456,2,0,L|448:89,1,62.5,4|4,1:3|1:3,0:0:0:0:
494,35,47795,2,0,B|453:9|408:31|408:31|365:56|318:21,1,187.5,4|4,1:3|1:3,0:0:0:0:
252,66,48473,6,0,B|225:66|206:84|206:84|184:68|155:71,1,93.7500035762788,2|2,0:2|0:2,0:0:0:0:
16,13,49151,2,0,B|35:16|57:0|57:0|76:18|103:18,1,93.7500035762788,2|2,0:2|0:2,0:0:0:0:
160,151,49829,6,0,B|160:202|160:202|149:228|149:228|150:281,1,121.874994421006,6|0,3:2|0:0,0:0:0:0:
77,314,50507,2,0,B|151:290|190:344|190:344|261:380|309:317,1,253.125000965595,10|0,0:2|0:0,0:0:0:0:
373,198,51185,6,0,B|363:239|346:251|346:251|374:266|384:301,1,121.874994421006,6|0,3:2|0:0,0:0:0:0:
476,355,51863,2,0,B|449:289|499:237|499:237|434:188|458:102,1,253.125000965595,10|0,0:2|0:0,0:0:0:0:
512,74,52541,6,0,P|452:93|440:49,1,121.874994421006,6|0,3:2|0:0,0:0:0:0:
361,80,53219,2,0,B|306:70|297:5|297:5|302:103|212:112,1,253.125000965595,10|0,0:2|0:0,0:0:0:0:
151,67,53897,6,0,L|6:76,1,131.249995994568,0|0,0:0|3:2,0:0:0:0:
50,147,54405,1,0,0:0:0:0:
23,221,54575,2,0,B|6:286|6:286|26:353,1,131.249995994568,10|0,0:2|0:0,0:0:0:0:
165,383,55253,6,0,B|191:376|202:377|202:377|215:373|215:373|243:380|254:368|254:368|287:371,1,121.874994421006,6|0,3:2|0:0,0:0:0:0:
362,372,55931,2,0,B|291:379|234:329|265:241|265:241|291:259|293:287,2,253.125000965595,10|0|0,0:2|0:0|3:0,0:0:0:0:
508,313,57286,1,10,0:2:0:0:
444,168,57625,1,0,0:0:0:0:
498,20,57964,6,0,B|447:37|447:37|298:18,1,196.874993991852,6|0,3:2|0:0,0:0:0:0:
239,62,58642,2,0,P|205:62|164:68,1,65.624997997284,10|0,0:2|0:0,0:0:0:0:
105,25,58981,2,0,P|71:25|30:19,1,65.624997997284,0|0,3:0|0:0,0:0:0:0:
5,91,59320,6,0,B|15:187|15:187|0:204|-4:236,1,131.249995994568,0|0,1:0|3:0,0:0:0:0:
76,237,59829,1,0,1:0:0:0:
151,258,59998,2,0,B|150:271|135:288|135:288|145:384,1,131.249995994568,10|0,0:2|0:0,0:0:0:0:
319,272,60676,6,0,B|293:267|293:267|278:275|278:275|244:264|212:293|230:327,1,121.874994421006,6|0,3:2|0:0,0:0:0:0:
297,363,61354,2,0,P|412:303|350:186,1,253.125000965595,10|0,0:2|0:0,0:0:0:0:
334,140,62032,6,0,B|332:103|353:86|353:86|332:69|337:29,1,121.874994421006,6|0,3:2|0:0,0:0:0:0:
418,32,62710,2,0,B|291:101|312:-27|158:37,1,253.125000965595,10|0,0:2|0:0,0:0:0:0:
118,114,63388,6,0,B|208:108|208:108|179:141,1,121.874994421006,6|0,3:2|0:0,0:0:0:0:
77,201,64066,2,0,B|122:166|101:128|101:128|78:158|104:213|104:213|137:275|92:305,1,253.125000965595,10|0,0:2|0:0,0:0:0:0:
43,347,64744,6,0,B|109:331|109:331|173:348,1,131.249995994568,0|0,0:0|3:0,0:0:0:0:
244,319,65253,1,0,0:0:0:0:
306,366,65422,2,0,L|443:358,1,131.249995994568,10|0,0:2|0:0,0:0:0:0:
507,224,66100,6,0,B|507:197|496:179|496:179|512:166|512:166|502:142|502:113,1,121.874994421006,6|0,3:2|0:0,0:0:0:0:
429,53,66778,2,0,B|258:80|258:80|316:15,2,253.125000965595,10|0|0,0:2|0:0|3:0,0:0:0:0:
312,159,68134,1,10,0:2:0:0:
164,102,68473,1,0,0:0:0:0:
36,194,68812,6,0,B|48:270|48:270|31:304|31:304|47:389,1,196.874993991852,6|0,3:2|0:0,0:0:0:0:
118,352,69490,2,0,L|200:360,1,65.624997997284,10|0,0:2|0:0,0:0:0:0:
259,378,69829,2,0,L|341:370,1,65.624997997284,0|0,3:0|1:0,0:0:0:0:
388,325,70168,6,0,B|490:327|490:327|470:322|446:298,1,131.249995994568,0|0,0:0|3:0,0:0:0:0:
511,251,70676,1,4,0:3:0:0:
477,179,70846,2,0,L|482:113,2,65.624997997284,12|0|0,0:2|3:0|0:0,0:0:0:0:
339,57,71524,6,0,B|289:73|242:58|242:58|210:67|210:67|150:56,1,187.5,2|0,3:2|0:0,0:0:0:0:
81,42,72202,1,10,0:2:0:0:
81,42,73219,1,0,3:2:0:0:
8,173,73558,2,0,B|24:210|24:210|20:306,1,125,10|2,0:2|0:2,0:0:0:0:
61,357,74066,1,0,3:2:0:0:
127,321,74236,6,0,B|171:298|221:315|221:315|254:362|321:348,1,187.5,2|0,3:2|0:0,0:0:0:0:
370,326,74914,1,8,0:2:0:0:
370,326,75931,1,2,3:2:0:0:
294,197,76269,2,0,L|287:130,1,62.5,10|0,0:2|0:0,0:0:0:0:
328,71,76608,1,2,0:3:0:0:
279,12,76778,1,0,3:0:0:0:
279,12,76947,6,0,B|222:20|222:20|159:-6|159:-6|83:1,1,187.5,2|0,3:2|0:0,0:0:0:0:
34,40,77625,1,10,0:2:0:0:
34,40,78642,1,0,3:0:0:0:
96,176,78981,2,0,B|80:236|80:236|101:301,1,125,10|2,0:2|0:2,0:0:0:0:
145,355,79490,1,0,3:0:0:0:
214,322,79659,5,0,3:0:0:0:
214,322,79829,2,0,B|290:312|266:371|338:357,1,125,0|0,0:0|3:0,0:0:0:0:
394,323,80337,2,0,P|427:359|506:355,1,125,10|0,0:2|0:0,0:0:0:0:
464,292,80846,1,0,1:0:0:0:
508,231,81015,6,0,L|512:164,2,62.5,0|0|0,0:0|1:0|3:0,0:0:0:0:
433,219,81524,1,0,0:0:0:0:
392,156,81693,2,0,L|399:20,1,125,8|0,0:2|1:0,0:0:0:0:
328,2,82202,1,0,1:0:0:0:
328,2,82371,5,6,3:2:0:0:
48,100,85083,5,6,3:2:0:0:
470,178,87795,5,6,3:2:0:0:
92,343,90168,6,0,L|39:353,2,31.25,4|0|0,1:3|0:0|0:0,0:0:0:0:
150,295,90507,6,0,L|153:224,1,62.5,6|4,3:2|1:3,0:0:0:0:
102,176,90846,2,0,L|99:113,1,62.5,4|4,1:3|1:3,0:0:0:0:
52,55,91185,2,0,B|101:25|143:53|143:53|201:65|234:15,1,187.5,4|4,1:3|1:3,0:0:0:0:
271,95,91863,6,0,B|308:126|308:126|351:99,1,93.7500035762788,2|2,0:2|0:2,0:0:0:0:
468,23,92541,2,0,B|429:-1|429:-1|392:29,1,93.7500035762788,2|2,0:2|0:2,0:0:0:0:
389,177,93219,6,0,B|400:216|387:244|387:244|400:267|401:297,1,121.874994421006,6|0,3:2|0:0,0:0:0:0:
354,365,93897,2,0,B|421:379|440:287|336:272|340:376|221:342,1,253.125000965595,10|0,0:2|0:0,0:0:0:0:
138,382,94575,6,0,B|151:352|151:352|121:300|121:300|131:264,1,121.874994421006,6|0,3:2|0:0,0:0:0:0:
197,224,95253,2,0,B|187:267|129:255|130:207|166:176|166:176|201:147|206:98|137:82|139:145,1,253.125000965595,10|0,0:2|0:0,0:0:0:0:
127,35,95931,6,0,B|169:25|190:33|190:33|218:27|218:27|254:36,1,121.874994421006,6|0,3:2|0:0,0:0:0:0:
313,82,96608,2,0,B|368:7|470:34|470:34|453:97|414:87,1,253.125000965595,10|0,0:2|0:0,0:0:0:0:
370,146,97286,6,0,P|365:201|384:281,1,131.249995994568,0|0,0:0|3:0,0:0:0:0:
415,346,97795,1,0,0:0:0:0:
336,340,97964,2,0,L|196:354,1,131.249995994568,10|0,0:2|0:0,0:0:0:0:
41,211,98642,6,0,B|56:216|88:206|88:206|121:194|142:216|142:216|122:223|113:209,1,121.874994421006,6|0,3:2|0:0,0:0:0:0:
207,266,99320,2,0,B|236:220|212:170|212:170|187:127|228:86|228:86|214:118|224:152,2,253.125000965595,10|0|0,0:2|0:0|3:0,0:0:0:0:
129,128,100676,1,10,0:2:0:0:
233,9,101015,1,0,0:0:0:0:
379,67,101354,6,0,B|514:58|514:58|477:119,1,196.874993991852,6|0,3:2|0:0,0:0:0:0:
422,161,102032,2,0,P|439:203|440:230,1,65.624997997284,10|0,0:2|0:0,0:0:0:0:
498,276,102371,2,0,P|481:318|480:345,1,65.624997997284,0|0,3:0|0:0,0:0:0:0:
410,377,102710,6,0,L|274:375,1,131.249995994568,0|0,1:0|3:0,0:0:0:0:
223,318,103219,1,0,1:0:0:0:
149,346,103388,2,0,P|92:331|11:336,1,131.249995994568,10|0,0:2|0:0,0:0:0:0:
96,203,104066,6,0,B|99:181|99:181|108:162|94:144|94:144|93:127|106:119|101:85,1,121.874994421006,6|0,3:2|0:0,0:0:0:0:
33,41,104744,2,0,B|93:40|131:49|131:49|160:9|160:9|213:24|276:17,1,253.125000965595,10|0,0:2|0:0,0:0:0:0:
316,123,105422,6,0,B|299:103|306:84|306:84|345:58|340:11,1,121.874994421006,6|0,3:2|0:0,0:0:0:0:
397,105,106100,2,0,B|450:112|477:79|477:79|450:114|451:164|451:164|490:197|476:269,1,253.125000965595,10|0,0:2|0:0,0:0:0:0:
414,343,106778,6,0,B|425:311|425:311|400:288|416:271|399:248|399:248|403:217,1,121.874994421006,6|0,3:2|0:0,0:0:0:0:
321,268,107456,2,0,B|283:248|241:262|241:262|215:298|230:343|230:343|214:300|159:304,1,253.125000965595,10|0,0:2|0:0,0:0:0:0:
85,375,108134,6,0,L|92:242,1,131.249995994568,0|0,0:0|3:0,0:0:0:0:
47,178,108642,1,0,0:0:0:0:
106,126,108812,2,0,B|89:64|89:64|111:-2,1,131.249995994568,10|0,0:2|0:0,0:0:0:0:
208,68,109490,6,0,B|248:57|248:57|270:64|270:64|291:59|313:71|313:71|337:59,1,121.874994421006,6|0,3:2|0:0,0:0:0:0:
380,117,110168,2,0,B|475:101|469:0|469:0|471:53|521:76,2,253.125000965595,10|0|0,0:2|0:0|3:0,0:0:0:0:
482,237,111524,1,10,0:2:0:0:
406,375,111863,1,0,0:0:0:0:
254,333,112202,6,0,B|209:314|159:326|159:326|120:355|48:344,1,196.874993991852,6|0,3:2|0:0,0:0:0:0:
19,280,112880,1,10,0:2:0:0:
58,212,113049,1,0,0:0:0:0:
8,150,113219,2,0,L|2:80,1,65.624997997284,0|0,3:0|1:0,0:0:0:0:
50,21,113558,6,0,B|91:36|91:36|185:22,1,131.249995994568,0|0,0:0|3:0,0:0:0:0:
314,102,114236,2,0,B|273:87|273:87|186:99,1,131.249995994568,12|0,0:2|0:0,0:0:0:0:
129,247,114914,5,6,0:2:0:0:
417,373,115592,2,0,B|364:322|414:256|414:256|457:197|407:123,2,262.499991989136,0|0|0,0:0|0:0|0:0,0:0:0:0:
373,60,117625,6,0,P|418:49|462:62,2,87.499997329712,6|0|0,3:2|0:0|0:0,0:0:0:0:
282,6,118303,2,0,L|151:18,1,131.249995994568,0|0,0:0|0:0,0:0:0:0:
87,65,118812,1,0,0:0:0:0:
128,131,118981,6,0,B|142:172|142:172|127:263,1,131.249995994568,0|0,0:0|0:0,0:0:0:0:
105,335,119490,1,0,0:0:0:0:
105,335,119659,1,0,0:0:0:0:
417,376,120337,6,0,B|435:310|435:310|422:263|422:263|439:186,1,196.874993991852,6|0,3:2|0:0,0:0:0:0:
391,122,121015,2,0,P|408:80|398:40,1,65.624997997284,0|0,0:0|0:0,0:0:0:0:
343,13,121354,2,0,B|293:22|270:73|290:117|290:117|271:77|218:80,1,196.874993991852,0|0,3:0|0:0,0:0:0:0:
191,21,122032,2,0,L|124:27,1,65.624997997284,0|0,3:0|0:0,0:0:0:0:
64,76,122371,2,0,L|-1:70,2,65.624997997284,10|0|0,0:2|0:0|0:0,0:0:0:0:
106,143,122880,1,0,0:0:0:0:
56,203,123049,6,0,P|65:287|53:342,1,131.249995994568,6|0,3:2|0:0,0:0:0:0:
124,372,123558,1,0,0:0:0:0:
194,337,123727,2,0,L|269:332,1,65.624997997284,14|0,0:2|0:0,0:0:0:0:
329,369,124066,2,0,L|406:374,1,65.624997997284,0|0,3:0|0:0,0:0:0:0:
444,312,124405,5,0,1:0:0:0:
406,242,124575,1,0,0:0:0:0:
451,177,124744,2,0,L|455:106,1,65.624997997284,0|0,3:0|1:0,0:0:0:0:
410,46,125083,2,0,P|450:30|506:48,2,98.437496995926,10|0|0,0:2|0:0|1:0,0:0:0:0:
332,9,125761,6,0,B|286:17|286:17|263:35|263:35|239:27|216:6,1,121.874994421006,6|0,3:2|0:0,0:0:0:0:
180,78,126439,2,0,B|-5:59|-5:59|35:74|45:110,1,253.125000965595,10|0,0:2|0:0,0:0:0:0:
27,180,127117,6,0,B|26:162|26:148|26:148|58:127|58:127|87:141|104:167,1,121.874994421006,6|0,3:2|0:0,0:0:0:0:
136,227,127795,2,0,B|91:179|131:133|182:147|196:204|106:253|148:330,1,253.125000965595,10|0,0:2|0:0,0:0:0:0:
227,291,128473,6,0,L|327:283,2,98.437496995926,6|0|0,3:2|0:0|0:0,0:0:0:0:
263,361,129151,2,0,L|400:362,1,131.249995994568,10|0,0:2|3:0,0:0:0:0:
454,311,129659,1,0,0:0:0:0:
433,234,129829,6,0,L|436:166,1,65.624997997284,0|0,0:0|0:0,0:0:0:0:
503,126,130168,2,0,L|500:58,1,65.624997997284,0|0,3:0|0:0,0:0:0:0:
445,3,130507,2,0,P|384:24|313:25,1,131.249995994568,10|0,0:2|0:0,0:0:0:0:
257,76,131015,1,0,0:0:0:0:
185,41,131185,6,0,B|142:45|116:42|116:42|102:53|102:53|85:49|85:49|62:46,1,121.874994421006,6|0,3:2|0:0,0:0:0:0:
17,120,131863,2,0,B|15:182|35:219|35:219|15:274|15:274|34:322|30:373,2,253.125000965595,10|0|0,0:2|0:0|3:0,0:0:0:0:
173,146,133219,1,10,0:2:0:0:
244,286,133558,1,0,0:0:0:0:
400,267,133897,6,0,L|476:260,1,65.624997997284,6|0,3:2|0:0,0:0:0:0:
498,189,134236,1,0,0:0:0:0:
455,123,134405,1,0,0:0:0:0:
499,57,134575,2,0,B|516:19|516:19|344:30,1,196.874993991852,10|0,0:2|1:0,0:0:0:0:
284,9,135253,6,0,P|251:17|206:15,1,65.624997997284,0|0,0:0|1:0,0:0:0:0:
153,60,135592,2,0,P|120:52|75:54,1,65.624997997284,0|4,3:0|0:3,0:0:0:0:
47,119,135931,1,12,0:2:0:0:
88,185,136100,1,0,3:0:0:0:
55,256,136269,2,0,L|59:305,2,32.812498998642,0|0|0,0:0|0:0|0:0,0:0:0:0:
8,192,136608,5,6,3:2:0:0:
300,307,137286,2,0,B|371:273|432:305|432:305|372:273|373:188,1,262.499991989136,0|6,0:0|0:2,0:0:0:0:
120,13,138642,2,0,B|49:47|-12:15|-12:15|48:47|47:132,1,262.499991989136,0|0,0:0|0:0,0:0:0:0:
