osu file format v14

[General]
AudioFilename: audio.mp3
AudioLeadIn: 0
PreviewTime: 91863
Countdown: 0
SampleSet: Soft
StackLeniency: 0.7
Mode: 0
LetterboxInBreaks: 0
EpilepsyWarning: 1
WidescreenStoryboard: 1

[Editor]
DistanceSpacing: 1
BeatDivisor: 4
GridSize: 4
TimelineZoom: 2.1

[Metadata]
Title:RISE (ft. The Glitch Mob, Mako, and The Word Alive)
TitleUnicode:RISE (ft. The Glitch Mob, Mako, and The Word Alive)
Artist:League of Legends
ArtistUnicode:League of Legends
Creator:SquareTude
Version:Nelliel's Normal
Source:League of Legends
Tags:Worlds 2018 Riot Games Megapcmx Celektus RVMathew Nelliel Apo11o MinorSonek ChaoticRed Zelq [[Pika]]
BeatmapID:1807480
BeatmapSetID:858938

[Difficulty]
HPDrainRate:3
CircleSize:3.5
OverallDifficulty:4
ApproachRate:5
SliderMultiplier:0.999999999999999
SliderTickRate:1

[Events]
//Background and Video events
0,0,"best bg ever.png",0,0
//Break Periods
//Storyboard Layer 0 (Background)
//Storyboard Layer 1 (Fail)
//Storyboard Layer 2 (Pass)
//Storyboard Layer 3 (Foreground)
Sprite,Foreground,Centre,"sb/sprites/c2.png",368,354 S,2,49829,50495,0.2,0.4 F,2,49829,50495,0.5,0 P,0,49829,50495,A
Sprite,Foreground,Centre,"sb/sprites/c2.png",556,287 S,2,50507,51173,0.2,0.4 F,2,50507,51173,0.5,0 P,0,50507,51511,A
Sprite,Foreground,Centre,"sb/sprites/c2.png",556,86 S,2,51185,51851,0.2,0.4 F,2,51185,51851,0.5,0 P,0,51185,51851,A
Sprite,Foreground,Centre,"sb/sprites/c2.png",379,180 S,2,51863,52529,0.2,0.4 F,2,51863,52529,0.5,0 P,0,51863,52867,A
Sprite,Foreground,Centre,"sb/sprites/c2.png",182,176 S,2,52541,53207,0.2,0.4 F,2,52541,53207,0.5,0 P,0,52541,53207,A
Sprite,Foreground,Centre,"sb/sprites/c2.png",315,324 S,2,53219,53885,0.2,0.4 F,2,53219,53885,0.5,0 P,0,53219,54223,A
Sprite,Foreground,Centre,"sb/sprites/c2.png",410,432 S,2,53897,54563,0.2,0.4 F,2,53897,54563,0.5,0 P,0,53897,54901,A
Sprite,Foreground,Centre,"sb/sprites/c2.png",443,291 S,2,54405,55071,0.2,0.4 F,2,54405,55071,0.5,0 P,0,54405,55071,A
Sprite,Foreground,Centre,"sb/sprites/c2.png",443,291 S,2,54575,55241,0.2,0.4 F,2,54575,55241,0.5,0 P,0,54575,55579,A
Sprite,Foreground,Centre,"sb/sprites/c2.png",435,90 S,2,55253,55919,0.2,0.4 F,2,55253,55919,0.5,0 P,0,55253,55919,A
Sprite,Foreground,Centre,"sb/sprites/c2.png",320,248 S,2,55931,56597,0.2,0.4 F,2,55931,56597,0.5,0 P,0,55931,58630,A
Sprite,Foreground,Centre,"sb/sprites/c2.png",532,118 S,2,58642,59308,0.2,0.4 F,2,58642,59308,0.5,0 P,0,58642,59308,A
Sprite,Foreground,Centre,"sb/sprites/c2.png",435,90 S,2,58981,59647,0.2,0.4 F,2,58981,59647,0.5,0 P,0,58981,59647,A
Sprite,Foreground,Centre,"sb/sprites/c2.png",339,62 S,2,59320,59986,0.2,0.4 F,2,59320,59986,0.5,0 P,0,59320,60324,A
Sprite,Foreground,Centre,"sb/sprites/c2.png",244,233 S,2,59998,60664,0.2,0.4 F,2,59998,60664,0.5,0 P,0,59998,61002,A
Sprite,Foreground,Centre,"sb/sprites/c2.png",237,413 S,2,60676,61342,0.2,0.4 F,2,60676,61342,0.5,0 P,0,60676,61342,A
Sprite,Foreground,Centre,"sb/sprites/c2.png",109,259 S,2,61354,62020,0.2,0.4 F,2,61354,62020,0.5,0 P,0,61354,62358,A
Sprite,Foreground,Centre,"sb/sprites/c2.png",224,102 S,2,62032,62698,0.2,0.4 F,2,62032,62698,0.5,0 P,0,62032,62698,A
Sprite,Foreground,Centre,"sb/sprites/c2.png",350,257 S,2,62710,63376,0.2,0.4 F,2,62710,63376,0.5,0 P,0,62710,63714,A
Sprite,Foreground,Centre,"sb/sprites/c2.png",547,241 S,2,63388,64054,0.2,0.4 F,2,63388,64054,0.5,0 P,0,63388,64054,A
Sprite,Foreground,Centre,"sb/sprites/c2.png",371,144 S,2,64066,64732,0.2,0.4 F,2,64066,64732,0.5,0 P,0,64066,65070,A
Sprite,Foreground,Centre,"sb/sprites/c2.png",207,252 S,2,64744,65410,0.2,0.4 F,2,64744,65410,0.5,0 P,0,64744,65748,A
Sprite,Foreground,Centre,"sb/sprites/c2.png",101,164 S,2,65253,65919,0.2,0.4 F,2,65253,65919,0.5,0 P,0,65253,65919,A
Sprite,Foreground,Centre,"sb/sprites/c2.png",101,164 S,2,65422,66088,0.2,0.4 F,2,65422,66088,0.5,0 P,0,65422,66426,A
Sprite,Foreground,Centre,"sb/sprites/c2.png",279,182 S,2,66100,66766,0.2,0.4 F,2,66100,66766,0.5,0 P,0,66100,66766,A
Sprite,Foreground,Centre,"sb/sprites/c2.png",320,248 S,2,66778,67444,0.2,0.4 F,2,66778,67444,0.5,0 P,0,66778,69478,A
Sprite,Foreground,Centre,"sb/sprites/c2.png",328,188 S,2,69490,70156,0.2,0.4 F,2,69490,70156,0.5,0 P,0,69490,70156,A
Sprite,Foreground,Centre,"sb/sprites/c2.png",228,178 S,2,69829,70495,0.2,0.4 F,2,69829,70495,0.5,0 P,0,69829,70495,A
Sprite,Foreground,Centre,"sb/sprites/c2.png",416,111 S,2,93219,93885,0.2,0.4 F,2,93219,93885,0.5,0 P,0,93219,93885,A
Sprite,Foreground,Centre,"sb/sprites/c2.png",294,269 S,2,93897,94563,0.2,0.4 F,2,93897,94563,0.5,0 P,0,93897,94901,A
Sprite,Foreground,Centre,"sb/sprites/c2.png",99,237 S,2,94575,95241,0.2,0.4 F,2,94575,95241,0.5,0 P,0,94575,95241,A
Sprite,Foreground,Centre,"sb/sprites/c2.png",294,269 S,2,95253,95919,0.2,0.4 F,2,95253,95919,0.5,0 P,0,95253,96257,A
Sprite,Foreground,Centre,"sb/sprites/c2.png",314,74 S,2,95931,96597,0.2,0.4 F,2,95931,96597,0.5,0 P,0,95931,96597,A
Sprite,Foreground,Centre,"sb/sprites/c2.png",511,106 S,2,96608,97274,0.2,0.4 F,2,96608,97274,0.5,0 P,0,96608,97612,A
Sprite,Foreground,Centre,"sb/sprites/c2.png",458,295 S,2,97286,97952,0.2,0.4 F,2,97286,97952,0.5,0 P,0,97286,98290,A
Sprite,Foreground,Centre,"sb/sprites/c2.png",431,432 S,2,97795,98461,0.2,0.4 F,2,97795,98461,0.5,0 P,0,97795,98461,A
Sprite,Foreground,Centre,"sb/sprites/c2.png",431,432 S,2,97964,98630,0.2,0.4 F,2,97964,98630,0.5,0 P,0,97964,98968,A
Sprite,Foreground,Centre,"sb/sprites/c2.png",241,394 S,2,98642,99308,0.2,0.4 F,2,98642,99308,0.5,0 P,0,98642,99308,A
Sprite,Foreground,Centre,"sb/sprites/c2.png",320,248 S,2,99320,99986,0.2,0.4 F,2,99320,99986,0.5,0 P,0,99320,102020,A
Sprite,Foreground,Centre,"sb/sprites/c2.png",241,394 S,2,102032,102698,0.2,0.4 F,2,102032,102698,0.5,0 P,0,102032,102698,A
Sprite,Foreground,Centre,"sb/sprites/c2.png",251,299 S,2,102371,103037,0.2,0.4 F,2,102371,103037,0.5,0 P,0,102371,103037,A
Sprite,Foreground,Centre,"sb/sprites/c2.png",261,204 S,2,102710,103376,0.2,0.4 F,2,102710,103376,0.5,0 P,0,102710,103714,A
Sprite,Foreground,Centre,"sb/sprites/c2.png",159,109 S,2,103388,104054,0.2,0.4 F,2,103388,104054,0.5,0 P,0,103388,104392,A
Sprite,Foreground,Centre,"sb/sprites/c2.png",356,120 S,2,104066,104732,0.2,0.4 F,2,104066,104732,0.5,0 P,0,104066,104732,A
Sprite,Foreground,Centre,"sb/sprites/c2.png",525,225 S,2,104744,105410,0.2,0.4 F,2,104744,105410,0.5,0 P,0,104744,105748,A
Sprite,Foreground,Centre,"sb/sprites/c2.png",510,424 S,2,105422,106088,0.2,0.4 F,2,105422,106088,0.5,0 P,0,105422,106088,A
Sprite,Foreground,Centre,"sb/sprites/c2.png",334,328 S,2,106100,106766,0.2,0.4 F,2,106100,106766,0.5,0 P,0,106100,107104,A
Sprite,Foreground,Centre,"sb/sprites/c2.png",142,371 S,2,106778,107444,0.2,0.4 F,2,106778,107444,0.5,0 P,0,106778,107444,A
Sprite,Foreground,Centre,"sb/sprites/c2.png",99,175 S,2,107456,108122,0.2,0.4 F,2,107456,108122,0.5,0 P,0,107456,108460,A
Sprite,Foreground,Centre,"sb/sprites/c2.png",206,83 S,2,108134,108800,0.2,0.4 F,2,108134,108800,0.5,0 P,0,108134,109138,A
Sprite,Foreground,Centre,"sb/sprites/c2.png",235,216 S,2,108642,109308,0.2,0.4 F,2,108642,109308,0.5,0 P,0,108642,109308,A
Sprite,Foreground,Centre,"sb/sprites/c2.png",235,216 S,2,108812,109478,0.2,0.4 F,2,108812,109478,0.5,0 P,0,108812,109816,A
Sprite,Foreground,Centre,"sb/sprites/c2.png",258,414 S,2,109490,110156,0.2,0.4 F,2,109490,110156,0.5,0 P,0,109490,110156,A
Sprite,Foreground,Centre,"sb/sprites/c2.png",320,248 S,2,110168,110834,0.2,0.4 F,2,110168,110834,0.5,0 P,0,110168,112868,A
Sprite,Foreground,Centre,"sb/sprites/c2.png",258,414 S,2,112880,113546,0.2,0.4 F,2,112880,113546,0.5,0 P,0,112880,113546,A
Sprite,Foreground,Centre,"sb/sprites/c2.png",356,395 S,2,113219,113885,0.2,0.4 F,2,113219,113885,0.5,0 P,0,113219,113885,A
Sprite,Foreground,Centre,"sb/sprites/c2.png",455,384 S,2,113558,114224,0.2,0.4 F,2,113558,114224,0.5,0 P,0,113558,114562,A
Sprite,Foreground,Centre,"sb/sprites/c2.png",398,212 S,2,114236,114902,0.2,0.4 F,2,114236,114902,0.5,0 P,0,114236,115240,A
Sprite,Foreground,Centre,"sb/sprites/c2.png",295,298 S,2,125761,126427,0.2,0.4 F,2,125761,126427,0.5,0 P,0,125761,126427,A
Sprite,Foreground,Centre,"sb/sprites/c2.png",486,354 S,2,126439,127105,0.2,0.4 F,2,126439,127105,0.5,0 P,0,126439,127443,A
Sprite,Foreground,Centre,"sb/sprites/c2.png",488,155 S,2,127117,127783,0.2,0.4 F,2,127117,127783,0.5,0 P,0,127117,127783,A
Sprite,Foreground,Centre,"sb/sprites/c2.png",300,85 S,2,127795,128461,0.2,0.4 F,2,127795,128461,0.5,0 P,0,127795,128799,A
Sprite,Foreground,Centre,"sb/sprites/c2.png",100,76 S,2,128473,129139,0.2,0.4 F,2,128473,129139,0.5,0 P,0,128473,129477,A
Sprite,Foreground,Centre,"sb/sprites/c2.png",167,252 S,2,129151,129817,0.2,0.4 F,2,129151,129817,0.5,0 P,0,129151,129817,A
Sprite,Foreground,Centre,"sb/sprites/c2.png",120,340 S,2,129490,130156,0.2,0.4 F,2,129490,130156,0.5,0 P,0,129490,130325,A
Sprite,Foreground,Centre,"sb/sprites/c2.png",208,374 S,2,129829,130495,0.2,0.4 F,2,129829,130495,0.5,0 P,0,129829,130833,A
Sprite,Foreground,Centre,"sb/sprites/c2.png",408,366 S,2,130507,131173,0.2,0.4 F,2,130507,131173,0.5,0 P,0,130507,131173,A
Sprite,Foreground,Centre,"sb/sprites/c2.png",485,183 S,2,131185,131851,0.2,0.4 F,2,131185,131851,0.5,0 P,0,131185,132189,A
Sprite,Foreground,Centre,"sb/sprites/c2.png",383,94 S,2,131863,132529,0.2,0.4 F,2,131863,132529,0.5,0 P,0,131863,132867,A
Sprite,Foreground,Centre,"sb/sprites/c2.png",352,236 S,2,132371,133037,0.2,0.4 F,2,132371,133037,0.5,0 P,0,132371,133037,A
Sprite,Foreground,Centre,"sb/sprites/c2.png",352,236 S,2,132541,133207,0.2,0.4 F,2,132541,133207,0.5,0 P,0,132541,133545,A
Sprite,Foreground,Centre,"sb/sprites/c2.png",361,436 S,2,133219,133885,0.2,0.4 F,2,133219,133885,0.5,0 P,0,133219,133885,A
Sprite,Foreground,Centre,"sb/sprites/c2.png",168,381 S,2,133897,134563,0.2,0.4 F,2,133897,134563,0.5,0 P,0,133897,134901,A
Sprite,Foreground,Centre,"sb/sprites/c2.png",170,182 S,2,134575,135241,0.2,0.4 F,2,134575,135241,0.5,0 P,0,134575,135241,A
Sprite,Foreground,Centre,"sb/sprites/c2.png",348,92 S,2,135253,135919,0.2,0.4 F,2,135253,135919,0.5,0 P,0,135253,136257,A
Sprite,Foreground,Centre,"sb/sprites/c2.png",547,109 S,2,135931,136597,0.2,0.4 F,2,135931,136597,0.5,0 P,0,135931,136597,A
Sprite,Foreground,Centre,"sb/sprites/c.png",0,0 C,0,17286,,255,255,255 F,0,17286,,0.9 S,7,17286,18396,0.2,0.6 F,0,17287,18397,0.9,0 M,0,17286,,173,186 R,22,17287,18397,0,2 P,0,17286,18396,A C,0,19998,,255,255,255 F,0,19998,,0.9 S,7,19998,21108,0.2,0.6 F,0,19999,21109,0.9,0 M,0,19998,,186,326 R,22,19999,21109,0,-1 P,0,19998,21108,A C,0,22710,,255,255,255 F,0,22710,,0.9 S,7,22710,23820,0.2,0.6 F,0,22711,23821,0.9,0 M,0,22710,,268,175 R,22,22711,23821,0,-3 P,0,22710,23820,A C,0,25422,,255,255,255 F,0,25422,,0.9 S,7,25422,26532,0.2,0.6 F,0,25423,26533,0.9,0 M,0,25422,,301,109 R,22,25423,26533,0,3 P,0,25422,26532,A C,0,28134,,255,255,255 F,0,28134,,0.9 S,7,28134,29244,0.2,0.6 F,0,28135,29245,0.9,0 M,0,28134,,369,358 R,22,28135,29245,0,-4 P,0,28134,29244,A C,0,30846,,255,255,255 F,0,30846,,0.9 S,7,30846,31956,0.2,0.6 F,0,30847,31957,0.9,0 M,0,30846,,392,203 R,22,30847,31957,0,-2 P,0,30846,31956,A C,0,33558,,255,255,255 F,0,33558,,0.9 S,7,33558,34668,0.2,0.6 F,0,33559,34669,0.9,0 M,0,33558,,347,373 R,22,33559,34669,0,2 P,0,33558,34668,A C,0,36269,,255,255,255 F,0,36269,,0.9 S,7,36269,37379,0.2,0.6 F,0,36270,37380,0.9,0 M,0,36269,,167,156 R,22,36270,37380,0,-1 P,0,36269,37379,A C,0,38981,,255,255,255 F,0,38981,,0.9 S,7,38981,40091,0.2,0.6 F,0,38982,40092,0.9,0 M,0,38981,,479,172 R,22,38982,40092,0,-3 P,0,38981,40091,A C,0,41693,,255,255,255 F,0,41693,,0.9 S,7,41693,42803,0.2,0.6 F,0,41694,42804,0.9,0 M,0,41693,,244,383 R,22,41694,42804,0,-4 P,0,41693,42803,A C,0,44405,,255,255,255 F,0,44405,,0.9 S,7,44405,45515,0.2,0.6 F,0,44406,45516,0.9,0 M,0,44405,,298,120 R,22,44406,45516,0,2 P,0,44405,45515,A C,0,47117,,255,255,255 F,0,47117,,0.9 S,7,47117,48227,0.2,0.6 F,0,47118,48228,0.9,0 M,0,47117,,368,354 R,22,47118,48228,0,-4 P,0,47117,48227,A C,0,71524,,255,255,255 F,0,71524,,0.9 S,7,71524,72634,0.2,0.6 F,0,71525,72635,0.9,0 M,0,71524,,363,303 R,22,71525,72635,0,-4 P,0,71524,72634,A C,0,74236,,255,255,255 F,0,74236,,0.9 S,7,74236,75346,0.2,0.6 F,0,74237,75347,0.9,0 M,0,74236,,123,146 R,22,74237,75347,0 P,0,74236,75346,A C,0,76947,,255,255,255 F,0,76947,,0.9 S,7,76947,78057,0.2,0.6 F,0,76948,78058,0.9,0 M,0,76947,,123,342 R,22,76948,78058,0,-1 P,0,76947,78057,A
Sprite,Foreground,Centre,"sb/sprites/c.png",0,0 C,0,79659,,255,255,255 F,0,79659,,0.9 S,7,79659,80769,0.2,0.6 F,0,79660,80770,0.9,0 M,0,79659,,298,159 R,22,79660,80770,0,-2 P,0,79659,80769,A C,0,82371,,255,255,255 F,0,82371,,0.9 S,7,82371,83481,0.2,0.6 F,0,82372,83482,0.9,0 M,0,82371,,288,165 R,22,82372,83482,0,1 P,0,82371,83481,A C,0,85083,,255,255,255 F,0,85083,,0.9 S,7,85083,86193,0.2,0.6 F,0,85084,86194,0.9,0 M,0,85083,,564,324 R,22,85084,86194,0,-3 P,0,85083,86193,A C,0,87795,,255,255,255 F,0,87795,,0.9 S,7,87795,88905,0.2,0.6 F,0,87796,88906,0.9,0 M,0,87795,,169,234 R,22,87796,88906,0,1 P,0,87795,88905,A C,0,90507,,255,255,255 F,0,90507,,0.9 S,7,90507,91617,0.2,0.6 F,0,90508,91618,0.9,0 M,0,90507,,416,111 R,22,90508,91618,0,-4 P,0,90507,91617,A C,0,124405,,255,255,255 F,0,124405,,0.9 S,7,124405,125515,0.2,0.6 F,0,124406,125516,0.9,0 M,0,124405,,118,286 R,22,124406,125516,0,-4 P,0,124405,125515,A
Sprite,Foreground,Centre,"sb/sprites/c.png",0,0 C,0,125422,,255,255,255 F,0,125422,,0.9 S,7,125422,126532,0.2,0.6 F,0,125423,126533,0.9,0 M,0,125422,,210,246 R,22,125423,126533,0,-2 P,0,125422,126532,A
Sprite,Foreground,Centre,"sb/sprites/hb.png",0,240 C,21,49830,50940,255,0,0,255,255,255 F,0,49830,50940,0.7,0 MX,0,49829,,368 L,49830,17 V,2,0,20,1.2,1.313,1.6,1.313 V,2,20,40,1.6,1.313,1.2,1.313 L,50676,1 V,2,0,338,1.2,1.313,0.05,1.313 P,0,49829,50939,A C,21,51186,52296,255,0,0,255,255,255 F,0,51186,52296,0.7,0 MX,0,51185,,556 L,51186,17 V,2,0,20,1.2,1.313,1.6,1.313 V,2,20,40,1.6,1.313,1.2,1.313 L,52032,1 V,2,0,338,1.2,1.313,0.05,1.313 P,0,51185,52295,A C,21,52542,53652,255,0,0,255,255,255 F,0,52542,53652,0.7,0 MX,0,52541,,182 L,52542,17 V,2,0,20,1.2,1.313,1.6,1.313 V,2,20,40,1.6,1.313,1.2,1.313 L,53388,1 V,2,0,338,1.2,1.313,0.05,1.313 P,0,52541,53651,A C,21,55254,56364,255,0,0,255,255,255 F,0,55254,56364,0.7,0 MX,0,55253,,435 L,55254,17 V,2,0,20,1.2,1.313,1.6,1.313 V,2,20,40,1.6,1.313,1.2,1.313 L,56100,1 V,2,0,338,1.2,1.313,0.05,1.313 P,0,55253,56363,A C,21,60677,61787,255,0,0,255,255,255 F,0,60677,61787,0.7,0 MX,0,60676,,237 L,60677,17 V,2,0,20,1.2,1.313,1.6,1.313 V,2,20,40,1.6,1.313,1.2,1.313 L,61523,1 V,2,0,338,1.2,1.313,0.05,1.313 P,0,60676,61786,A C,21,62033,63143,255,0,0,255,255,255 F,0,62033,63143,0.7,0 MX,0,62032,,224 L,62033,17 V,2,0,20,1.2,1.313,1.6,1.313 V,2,20,40,1.6,1.313,1.2,1.313 L,62879,1 V,2,0,338,1.2,1.313,0.05,1.313 P,0,62032,63142,A C,21,63389,64499,255,0,0,255,255,255 F,0,63389,64499,0.7,0 MX,0,63388,,547 L,63389,17 V,2,0,20,1.2,1.313,1.6,1.313 V,2,20,40,1.6,1.313,1.2,1.313 L,64235,1 V,2,0,338,1.2,1.313,0.05,1.313 P,0,63388,64498,A C,21,66101,67211,255,0,0,255,255,255 F,0,66101,67211,0.7,0 MX,0,66100,,279 L,66101,17 V,2,0,20,1.2,1.313,1.6,1.313 V,2,20,40,1.6,1.313,1.2,1.313 L,66947,1 V,2,0,338,1.2,1.313,0.05,1.313 P,0,66100,67210,A C,21,93220,94330,255,0,0,255,255,255 F,0,93220,94330,0.7,0 MX,0,93219,,416 L,93220,17 V,2,0,20,1.2,1.313,1.6,1.313 V,2,20,40,1.6,1.313,1.2,1.313 L,94066,1 V,2,0,338,1.2,1.313,0.05,1.313 P,0,93219,94329,A C,21,94576,95686,255,0,0,255,255,255 F,0,94576,95686,0.7,0 MX,0,94575,,99 L,94576,17 V,2,0,20,1.2,1.313,1.6,1.313 V,2,20,40,1.6,1.313,1.2,1.313 L,95422,1 V,2,0,338,1.2,1.313,0.05,1.313 P,0,94575,95685,A C,21,95932,97042,255,0,0,255,255,255 F,0,95932,97042,0.7,0 MX,0,95931,,314 L,95932,17 V,2,0,20,1.2,1.313,1.6,1.313 V,2,20,40,1.6,1.313,1.2,1.313 L,96778,1 V,2,0,338,1.2,1.313,0.05,1.313 P,0,95931,97041,A C,21,98643,99753,255,0,0,255,255,255 F,0,98643,99753,0.7,0 MX,0,98642,,241 L,98643,17 V,2,0,20,1.2,1.313,1.6,1.313 V,2,20,40,1.6,1.313,1.2,1.313 L,99489,1 V,2,0,338,1.2,1.313,0.05,1.313 P,0,98642,99752,A C,21,102372,103482,255,0,0,255,255,255 F,0,102372,103482,0.7,0 MX,0,102371,,251 L,102372,17 V,2,0,20,1.2,1.313,1.6,1.313 V,2,20,40,1.6,1.313,1.2,1.313 L,103218,1 V,2,0,338,1.2,1.313,0.05,1.313 P,0,102371,103481,A C,21,104067,105177,255,0,0,255,255,255 F,0,104067,105177,0.7,0 MX,0,104066,,356 L,104067,17 V,2,0,20,1.2,1.313,1.6,1.313 V,2,20,40,1.6,1.313,1.2,1.313 L,104913,1 V,2,0,338,1.2,1.313,0.05,1.313 P,0,104066,105176,A C,21,105423,106533,255,0,0,255,255,255 F,0,105423,106533,0.7,0 MX,0,105422,,510 L,105423,17 V,2,0,20,1.2,1.313,1.6,1.313 V,2,20,40,1.6,1.313,1.2,1.313 L,106269,1 V,2,0,338,1.2,1.313,0.05,1.313 P,0,105422,106532,A C,21,106779,107889,255,0,0,255,255,255 F,0,106779,107889,0.7,0 MX,0,106778,,142 L,106779,17 V,2,0,20,1.2,1.313,1.6,1.313 V,2,20,40,1.6,1.313,1.2,1.313 L,107625,1 V,2,0,338,1.2,1.313,0.05,1.313 P,0,106778,107888,A C,21,109491,110601,255,0,0,255,255,255 F,0,109491,110601,0.7,0 MX,0,109490,,258 L,109491,17 V,2,0,20,1.2,1.313,1.6,1.313 V,2,20,40,1.6,1.313,1.2,1.313 L,110337,1 V,2,0,338,1.2,1.313,0.05,1.313 P,0,109490,110600,A
Sprite,Foreground,Centre,"sb/sprites/hb.png",0,240 C,21,125762,126872,255,0,0,255,255,255 F,0,125762,126872,0.7,0 MX,0,125761,,295 L,125762,17 V,2,0,20,1.2,1.313,1.6,1.313 V,2,20,40,1.6,1.313,1.2,1.313 L,126608,1 V,2,0,338,1.2,1.313,0.05,1.313 P,0,125761,126871,A C,21,127118,128228,255,0,0,255,255,255 F,0,127118,128228,0.7,0 MX,0,127117,,488 L,127118,17 V,2,0,20,1.2,1.313,1.6,1.313 V,2,20,40,1.6,1.313,1.2,1.313 L,127964,1 V,2,0,338,1.2,1.313,0.05,1.313 P,0,127117,128227,A C,21,128474,129584,255,0,0,255,255,255 F,0,128474,129584,0.7,0 MX,0,128473,,100 L,128474,17 V,2,0,20,1.2,1.313,1.6,1.313 V,2,20,40,1.6,1.313,1.2,1.313 L,129320,1 V,2,0,338,1.2,1.313,0.05,1.313 P,0,128473,129583,A C,21,131186,132296,255,0,0,255,255,255 F,0,131186,132296,0.7,0 MX,0,131185,,485 L,131186,17 V,2,0,20,1.2,1.313,1.6,1.313 V,2,20,40,1.6,1.313,1.2,1.313 L,132032,1 V,2,0,338,1.2,1.313,0.05,1.313 P,0,131185,132295,A C,21,133898,135008,255,0,0,255,255,255 F,0,133898,135008,0.7,0 MX,0,133897,,168 L,133898,17 V,2,0,20,1.2,1.313,1.6,1.313 V,2,20,40,1.6,1.313,1.2,1.313 L,134744,1 V,2,0,338,1.2,1.313,0.05,1.313 P,0,133897,135007,A
//Storyboard Sound Samples

[TimingPoints]
15931,338.983050847458,4,2,1,10,1,0
15931,-100,4,2,1,10,0,0
17286,-100,4,2,1,40,0,0
28134,-100,4,2,1,50,0,0
37626,-100,4,2,1,60,0,0
38982,-100,4,2,1,40,0,0
47117,-100,4,2,1,50,0,0
47795,-100,4,2,1,60,0,0
48812,-100,4,2,1,55,0,0
49151,-100,4,2,1,60,0,0
49490,-100,4,2,1,65,0,0
49829,-100,4,2,1,80,0,0
50507,-100,4,2,1,80,0,1
50846,-100,4,2,1,80,0,0
51863,-100,4,2,1,80,0,1
52202,-100,4,2,1,80,0,0
55931,-100,4,2,1,80,0,1
58642,-100,4,2,1,80,0,0
61354,-100,4,2,1,80,0,1
61693,-100,4,2,1,80,0,0
62710,-100,4,2,1,80,0,1
63049,-100,4,2,1,80,0,0
66778,-100,4,2,1,80,0,1
69490,-100,4,2,1,80,0,0
71524,-100,4,2,1,50,0,0
81015,-100,4,2,1,50,0,0
82371,-100,4,2,1,40,0,0
90507,-100,4,2,1,50,0,0
91185,-100,4,2,1,60,0,0
93219,-100,4,2,1,80,0,0
93897,-100,4,2,1,80,0,1
94236,-100,4,2,1,80,0,0
95253,-100,4,2,1,80,0,1
95592,-100,4,2,1,80,0,0
99320,-100,4,2,1,80,0,1
102032,-100,4,2,1,80,0,0
104744,-100,4,2,1,80,0,1
105083,-100,4,2,1,80,0,0
106100,-100,4,2,1,80,0,1
106439,-100,4,2,1,80,0,0
110168,-100,4,2,1,80,0,1
112880,-100,4,2,1,80,0,0
114914,-100,4,2,1,60,0,0
120337,-100,4,2,1,60,0,0
125761,-100,4,2,1,70,0,0
126439,-100,4,2,1,80,0,1
126778,-100,4,2,1,80,0,0
127795,-100,4,2,1,80,0,1
128134,-100,4,2,1,80,0,0
131863,-100,4,2,1,80,0,1
134575,-100,4,2,1,80,0,0
140337,-100,4,2,1,80,0,0
140676,-100,4,2,1,20,0,0

[Colours]
Combo1 : 216,184,73
Combo2 : 56,114,141
Combo3 : 148,20,20
Combo4 : 192,192,192

[HitObjects]
109,130,17286,6,0,L|234:134,1,99.9999999999999,2|0,3:2|0:0,0:0:0:0:
307,112,17964,1,10,0:2:0:0:
455,246,18642,2,0,L|336:243,1,99.9999999999999,0|0,0:0|0:0,0:0:0:0:
267,293,19320,2,0,L|167:295,1,99.9999999999999,10|0,0:2|0:0,0:0:0:0:
122,270,19829,1,2,3:2:0:0:
122,270,19998,6,0,B|84:250|84:250|88:132,1,150,2|0,3:2|0:0,0:0:0:0:
91,93,20676,1,8,0:2:0:0:
281,30,21354,2,0,L|396:28,2,99.9999999999999,0|2|10,0:0|3:2|0:2,0:0:0:0:
180,27,22371,2,0,L|177:86,1,50,2|0,0:3|3:0,0:0:0:0:
204,119,22710,6,0,L|209:224,1,99.9999999999999,2|0,3:2|0:0,0:0:0:0:
218,318,23388,1,10,0:2:0:0:
413,276,24066,2,0,L|418:176,1,99.9999999999999,0|0,0:0|3:0,0:0:0:0:
383,81,24744,2,0,L|283:75,1,99.9999999999999,10|2,0:2|0:2,0:0:0:0:
237,53,25253,1,0,3:0:0:0:
237,53,25422,6,0,L|74:62,1,150,0|0,3:0|0:0,0:0:0:0:
37,67,26100,1,10,0:2:0:0:
1,263,26778,6,0,L|134:270,1,133.333333333333,8|8,0:1|0:1,0:0:0:0:
196,245,27456,1,8,0:1:0:0:
219,343,27795,2,0,P|249:342|268:335,1,50,8|8,0:1|1:3,0:0:0:0:
305,302,28134,6,0,P|357:318|408:318,1,99.9999999999999,6|0,3:2|0:0,0:0:0:0:
499,296,28812,1,10,0:2:0:0:
419,112,29490,2,0,P|432:60|431:2,1,99.9999999999999,2|2,0:2|3:2,0:0:0:0:
333,0,30168,2,0,P|320:48|319:98,1,99.9999999999999,10|2,0:2|0:2,0:0:0:0:
328,147,30676,1,2,0:2:0:0:
328,147,30846,6,0,P|279:159|229:160,1,99.9999999999999,2|0,3:2|0:0,0:0:0:0:
131,139,31524,1,8,0:2:0:0:
116,338,32202,2,0,P|67:350|17:351,2,99.9999999999999,2|0|10,0:2|3:0|0:2,0:0:0:0:
197,279,33219,2,0,P|234:281|256:286,1,50,6|8,0:3|0:3,0:0:0:0:
283,317,33558,6,0,P|332:316|381:303,1,99.9999999999999,2|0,3:2|0:0,0:0:0:0:
460,242,34236,1,8,0:2:0:0:
422,45,34914,2,0,P|373:32|323:31,1,99.9999999999999,2|2,0:2|3:2,0:0:0:0:
250,100,35592,2,0,P|201:112|151:113,1,99.9999999999999,8|2,0:2|0:2,0:0:0:0:
103,100,36100,1,0,0:0:0:0:
103,100,36269,6,0,P|115:148|116:198,1,99.9999999999999,2|0,3:2|0:0,0:0:0:0:
102,297,36947,1,10,0:2:0:0:
294,351,37625,6,0,L|350:354,1,50,2|0,3:2|1:0,0:0:0:0:
383,323,37964,2,0,L|432:320,1,50,2|0,3:2|1:0,0:0:0:0:
479,302,38303,1,10,0:2:0:0:
451,205,38642,2,0,L|448:156,1,50,2|2,1:2|1:2,0:0:0:0:
415,116,38981,6,0,B|374:120|349:150|349:150|324:120|284:109,2,150,6|4|4,3:2|1:3|1:3,0:0:0:0:
451,205,40337,2,0,L|447:305,1,99.9999999999999,4|4,1:3|1:3,0:0:0:0:
374,374,41015,1,4,1:3:0:0:
280,337,41354,2,0,L|230:335,1,50,4|4,1:3|1:3,0:0:0:0:
180,327,41693,6,0,B|179:267|179:267|164:237|164:237|164:177,2,150,6|4|4,3:2|1:3|1:3,0:0:0:0:
82,349,43049,2,0,P|57:298|53:242,1,99.9999999999999,4|4,1:3|1:3,0:0:0:0:
67,156,43727,1,4,1:3:0:0:
137,84,44066,2,0,P|162:75|190:69,1,50,4|4,1:3|1:3,0:0:0:0:
234,64,44405,6,0,P|299:101|389:106,2,150,6|4|4,3:2|1:3|1:3,0:0:0:0:
137,84,45761,2,0,L|136:192,1,99.9999999999999,4|4,1:3|1:3,0:0:0:0:
137,284,46439,1,4,1:3:0:0:
222,336,46778,2,0,L|279:336,1,50,4|4,1:3|1:3,0:0:0:0:
304,298,47117,6,0,B|382:288|382:288|466:303,2,150,6|4|4,3:2|1:3|1:3,0:0:0:0:
206,321,48473,1,2,0:2:0:0:
304,298,49829,5,6,3:2:0:0:
492,231,50507,2,0,L|493:131,1,99.9999999999999,10|0,0:2|0:0,0:0:0:0:
492,30,51185,1,6,3:2:0:0:
315,124,51863,2,0,P|259:138|205:133,1,99.9999999999999,10|0,0:2|0:0,0:0:0:0:
118,120,52541,5,6,3:2:0:0:
251,268,53219,2,0,L|247:368,1,99.9999999999999,10|0,0:2|3:0,0:0:0:0:
346,376,53897,2,0,L|350:276,1,99.9999999999999,0|0,0:0|3:2,0:0:0:0:
379,235,54405,1,0,0:0:0:0:
379,235,54575,2,0,L|375:135,1,99.9999999999999,10|0,0:2|0:0,0:0:0:0:
371,34,55253,5,6,3:2:0:0:
256,192,55931,12,6,57964,3:2:0:0:
468,62,58642,5,10,0:2:0:0:
371,34,58981,1,0,3:0:0:0:
275,6,59320,2,0,P|263:60|244:104,1,99.9999999999999,0|0,1:0|3:0,0:0:0:0:
180,177,59998,2,0,P|206:225|219:272,1,99.9999999999999,10|0,0:2|0:0,0:0:0:0:
173,357,60676,5,6,3:2:0:0:
45,203,61354,2,0,P|60:155|84:111,1,99.9999999999999,10|0,0:2|0:0,0:0:0:0:
160,46,62032,1,6,3:2:0:0:
286,201,62710,2,0,L|404:208,1,99.9999999999999,10|0,0:2|0:0,0:0:0:0:
483,185,63388,5,6,3:2:0:0:
307,88,64066,2,0,P|259:102|215:126,1,99.9999999999999,10|0,0:2|3:0,0:0:0:0:
143,196,64744,2,0,P|95:181|51:157,1,99.9999999999999,0|0,0:0|3:0,0:0:0:0:
37,108,65253,1,0,0:0:0:0:
37,108,65422,2,0,P|80:84|128:69,1,99.9999999999999,10|0,0:2|0:0,0:0:0:0:
215,126,66100,5,6,3:2:0:0:
256,192,66778,12,6,68812,3:2:0:0:
264,132,69490,5,10,0:2:0:0:
164,122,69829,1,0,3:0:0:0:
64,110,70168,2,0,L|69:229,1,99.9999999999999,0|0,0:0|3:0,0:0:0:0:
119,296,70846,2,0,P|173:307|238:301,1,99.9999999999999,12|0,0:2|0:0,0:0:0:0:
299,247,71524,6,0,P|353:236|418:242,1,99.9999999999999,2|0,3:2|0:0,0:0:0:0:
488,279,72202,1,10,0:2:0:0:
404,97,72880,2,0,P|354:98|305:87,1,99.9999999999999,0|0,0:0|3:2,0:0:0:0:
206,68,73558,2,0,P|156:66|107:77,1,99.9999999999999,10|2,0:2|0:2,0:0:0:0:
59,90,74066,1,0,3:2:0:0:
59,90,74236,6,0,P|75:165|73:241,1,150,2|0,3:2|0:0,0:0:0:0:
59,286,74914,1,8,0:2:0:0:
255,251,75592,2,0,P|303:240|353:241,2,99.9999999999999,0|2|10,0:0|3:2|0:2,0:0:0:0:
164,293,76608,2,0,P|139:293|114:288,1,50,2|0,0:3|3:0,0:0:0:0:
59,286,76947,6,0,P|57:236|68:187,1,99.9999999999999,2|0,3:2|0:0,0:0:0:0:
98,91,77625,1,10,0:2:0:0:
286,23,78303,2,0,P|335:21|384:32,1,99.9999999999999,0|0,0:0|3:0,0:0:0:0:
380,132,78981,2,0,P|330:133|281:122,1,99.9999999999999,10|2,0:2|0:2,0:0:0:0:
234,103,79490,1,0,3:0:0:0:
234,103,79659,6,0,P|235:152|224:201,1,99.9999999999999,0|0,3:0|0:0,0:0:0:0:
179,291,80337,1,10,0:2:0:0:
371,345,81015,6,0,L|373:281,1,50,0|0,0:0|1:0,0:0:0:0:
396,251,81354,2,0,L|394:187,1,50,0|0,3:0|0:0,0:0:0:0:
393,150,81693,1,8,0:2:0:0:
318,83,82032,2,0,L|254:85,1,50,0|0,1:0|1:0,0:0:0:0:
224,109,82371,6,0,L|72:104,2,150,6|4|4,3:2|1:3|1:3,0:0:0:0:
297,177,83727,2,0,P|317:228|325:287,1,99.9999999999999,4|4,1:3|1:3,0:0:0:0:
335,372,84405,1,4,1:3:0:0:
410,306,84744,2,0,P|429:289|451:278,1,50,4|4,1:3|1:3,0:0:0:0:
500,268,85083,6,0,B|474:222|474:222|486:116,2,150,6|4|4,3:2|1:3|1:3,0:0:0:0:
410,306,86439,2,0,L|304:300,1,99.9999999999999,4|4,1:3|1:3,0:0:0:0:
212,322,87117,1,4,1:3:0:0:
124,274,87456,2,0,L|126:220,1,50,4|4,1:3|1:3,0:0:0:0:
105,178,87795,6,0,B|85:76|85:76|110:28,2,150,6|4|4,3:2|1:3|1:3,0:0:0:0:
124,274,89151,2,0,P|181:282|237:272,1,99.9999999999999,4|4,1:3|1:3,0:0:0:0:
314,236,89829,1,4,1:3:0:0:
369,152,90168,2,0,P|372:123|368:95,1,50,4|0,1:3|0:0,0:0:0:0:
352,55,90507,6,0,B|275:60|275:60|186:37,2,150,6|4|4,3:2|1:3|1:3,0:0:0:0:
451,42,91863,1,2,0:2:0:0:
352,55,93219,5,6,3:2:0:0:
230,213,93897,2,0,L|113:216,1,99.9999999999999,10|0,0:2|0:0,0:0:0:0:
35,181,94575,1,6,3:2:0:0:
230,213,95253,2,0,P|247:177|258:105,1,99.9999999999999,10|0,0:2|0:0,0:0:0:0:
250,18,95931,5,6,3:2:0:0:
447,50,96608,2,0,L|439:162,1,99.9999999999999,10|0,0:2|3:0,0:0:0:0:
394,239,97286,2,0,L|402:351,1,99.9999999999999,0|0,0:0|3:0,0:0:0:0:
367,376,97795,1,0,0:0:0:0:
367,376,97964,2,0,L|255:384,1,99.9999999999999,10|0,0:2|0:0,0:0:0:0:
177,338,98642,5,6,3:2:0:0:
256,192,99320,12,6,101354,3:2:0:0:
177,338,102032,5,10,0:2:0:0:
187,243,102371,1,0,3:0:0:0:
197,148,102710,2,0,P|147:157|93:153,1,99.9999999999999,0|0,1:0|3:0,0:0:0:0:
95,53,103388,2,0,P|145:44|199:48,1,99.9999999999999,10|0,0:2|0:0,0:0:0:0:
292,64,104066,5,6,3:2:0:0:
461,169,104744,2,0,L|455:278,1,99.9999999999999,10|0,0:2|0:0,0:0:0:0:
446,368,105422,1,6,3:2:0:0:
270,272,106100,2,0,P|220:269|171:277,1,99.9999999999999,10|0,0:2|0:0,0:0:0:0:
78,315,106778,5,6,3:2:0:0:
35,119,107456,2,0,L|42:19,1,99.9999999999999,10|0,0:2|3:0,0:0:0:0:
142,27,108134,2,0,L|134:126,1,99.9999999999999,0|0,0:0|3:0,0:0:0:0:
171,160,108642,1,0,0:0:0:0:
171,160,108812,2,0,L|178:259,1,99.9999999999999,10|0,0:2|0:0,0:0:0:0:
194,358,109490,5,6,3:2:0:0:
256,192,110168,12,6,112202,3:2:0:0:
194,358,112880,5,10,0:2:0:0:
292,339,113219,1,0,3:0:0:0:
391,328,113558,2,0,P|401:274|404:224,1,99.9999999999999,0|0,0:0|3:0,0:0:0:0:
334,156,114236,2,0,P|324:102|321:52,1,99.9999999999999,12|0,0:2|0:0,0:0:0:0:
400,0,114914,5,6,0:2:0:0:
205,43,115592,2,0,L|102:45,1,99.9999999999999,0|0,0:0|0:0,0:0:0:0:
11,79,116269,1,0,0:0:0:0:
11,279,116947,2,0,P|60:288|109:291,1,99.9999999999999,0|0,0:0|0:0,0:0:0:0:
165,207,117625,6,0,P|231:211|287:216,1,99.9999999999999,6|0,3:2|0:0,0:0:0:0:
364,219,118303,1,0,0:0:0:0:
388,315,118642,2,0,P|413:312|444:301,1,50,0|0,0:0|0:0,0:0:0:0:
479,277,118981,2,0,L|485:115,1,150,0|0,0:0|0:0,0:0:0:0:
248,41,120337,6,0,L|130:49,1,99.9999999999999,6|0,3:2|0:0,0:0:0:0:
256,192,121015,12,10,122371,0:2:0:0:
238,70,123049,6,0,L|132:59,1,99.9999999999999,6|0,3:2|0:0,0:0:0:0:
39,46,123727,1,14,0:2:0:0:
16,143,124066,2,0,L|21:192,1,50,0|0,3:0|0:0,0:0:0:0:
54,230,124405,2,0,L|42:338,2,99.9999999999999,0|0|10,1:0|3:0|0:2,0:0:0:0:
146,190,125422,1,0,0:0:0:0:
231,242,125761,5,6,3:2:0:0:
422,298,126439,2,0,P|435:240|434:190,1,99.9999999999999,10|0,0:2|0:0,0:0:0:0:
424,99,127117,1,6,3:2:0:0:
236,29,127795,2,0,L|119:31,1,99.9999999999999,10|0,0:2|0:0,0:0:0:0:
36,20,128473,6,0,L|39:129,1,99.9999999999999,6|0,3:2|0:0,0:0:0:0:
103,196,129151,1,10,0:2:0:0:
56,284,129490,2,0,L|119:287,1,50,0|0,3:0|0:0,0:0:0:0:
144,318,129829,2,0,L|265:309,1,99.9999999999999,0|0,0:0|3:0,0:0:0:0:
344,310,130507,1,10,0:2:0:0:
421,127,131185,6,0,L|425:18,1,99.9999999999999,6|0,3:2|0:0,0:0:0:0:
319,38,131863,2,0,L|315:137,1,99.9999999999999,10|0,0:2|3:0,0:0:0:0:
288,180,132371,1,0,0:0:0:0:
288,180,132541,2,0,L|291:279,1,99.9999999999999,0|0,0:0|3:0,0:0:0:0:
297,380,133219,1,10,0:2:0:0:
104,325,133897,6,0,P|117:268|116:212,1,99.9999999999999,6|0,3:2|0:0,0:0:0:0:
106,126,134575,1,10,0:2:0:0:
284,36,135253,2,0,L|388:44,1,99.9999999999999,0|0,0:0|3:0,0:0:0:0:
483,53,135931,1,12,0:2:0:0:
501,251,136608,5,6,3:2:0:0:
301,234,137286,2,0,P|251:235|202:247,1,99.9999999999999,0|0,0:0|0:0,0:0:0:0:
109,284,137964,1,6,0:2:0:0:
76,86,138642,2,0,L|192:92,1,99.9999999999999,0|0,0:0|0:0,0:0:0:0:
275,100,139320,1,0,0:0:0:0:
