osu file format v14

[General]
AudioFilename: audio.mp3
AudioLeadIn: 0
PreviewTime: 91863
Countdown: 0
SampleSet: Soft
StackLeniency: 0.6
Mode: 0
LetterboxInBreaks: 0
EpilepsyWarning: 1
WidescreenStoryboard: 1

[Editor]
DistanceSpacing: 1.2
BeatDivisor: 4
GridSize: 32
TimelineZoom: 1

[Metadata]
Title:RISE (ft. The Glitch Mob, Mako, and The Word Alive)
TitleUnicode:RISE (ft. The Glitch Mob, Mako, and The Word Alive)
Artist:League of Legends
ArtistUnicode:League of Legends
Creator:SquareTude
Version:Minorsonek's Insane
Source:League of Legends
Tags:Worlds 2018 Riot Games Megapcmx Celektus RVMathew Nelliel Apo11o MinorSonek ChaoticRed Zelq [[Pika]]
BeatmapID:1795003
BeatmapSetID:858938

[Difficulty]
HPDrainRate:5
CircleSize:4.2
OverallDifficulty:8
ApproachRate:9
SliderMultiplier:2.2
SliderTickRate:1

[Events]
//Background and Video events
0,0,"best bg ever.png",0,0
//Break Periods
//Storyboard Layer 0 (Background)
//Storyboard Layer 1 (Fail)
//Storyboard Layer 2 (Pass)
//Storyboard Layer 3 (Foreground)
Sprite,Foreground,Centre,"sb/sprites/c2.png",433,388 S,2,49829,50495,0.2,0.4 F,2,49829,50495,0.5,0 P,0,49829,50833,A
Sprite,Foreground,Centre,"sb/sprites/c2.png",129,249 S,2,50507,51173,0.2,0.4 F,2,50507,51173,0.5,0 P,0,50507,51681,A
Sprite,Foreground,Centre,"sb/sprites/c2.png",313,193 S,2,51185,51851,0.2,0.4 F,2,51185,51851,0.5,0 P,0,51185,52189,A
Sprite,Foreground,Centre,"sb/sprites/c2.png",476,155 S,2,51863,52529,0.2,0.4 F,2,51863,52529,0.5,0 P,0,51863,53037,A
Sprite,Foreground,Centre,"sb/sprites/c2.png",488,298 S,2,52541,53207,0.2,0.4 F,2,52541,53207,0.5,0 P,0,52541,53545,A
Sprite,Foreground,Centre,"sb/sprites/c2.png",64,356 S,2,53219,53885,0.2,0.4 F,2,53219,53885,0.5,0 P,0,53219,54139,A
Sprite,Foreground,Centre,"sb/sprites/c2.png",401,313 S,2,53558,54224,0.2,0.4 F,2,53558,54224,0.5,0 P,0,53558,54224,A
Sprite,Foreground,Centre,"sb/sprites/c2.png",285,421 S,2,53727,54393,0.2,0.4 F,2,53727,54393,0.5,0 P,0,53727,54393,A
Sprite,Foreground,Centre,"sb/sprites/c2.png",171,236 S,2,53897,54563,0.2,0.4 F,2,53897,54563,0.5,0 P,0,53897,54732,A
Sprite,Foreground,Centre,"sb/sprites/c2.png",271,94 S,2,54236,54902,0.2,0.4 F,2,54236,54902,0.5,0 P,0,54236,54902,A
Sprite,Foreground,Centre,"sb/sprites/c2.png",228,290 S,2,54405,55071,0.2,0.4 F,2,54405,55071,0.5,0 P,0,54405,55071,A
Sprite,Foreground,Centre,"sb/sprites/c2.png",355,175 S,2,54575,55241,0.2,0.4 F,2,54575,55241,0.5,0 P,0,54575,55410,A
Sprite,Foreground,Centre,"sb/sprites/c2.png",576,284 S,2,54914,55580,0.2,0.4 F,2,54914,55580,0.5,0 P,0,54914,55749,A
Sprite,Foreground,Centre,"sb/sprites/c2.png",323,356 S,2,55253,55919,0.2,0.4 F,2,55253,55919,0.5,0 P,0,55253,56257,A
Sprite,Foreground,Centre,"sb/sprites/c2.png",525,295 S,2,55931,56597,0.2,0.4 F,2,55931,56597,0.5,0 P,0,55931,57952,A
Sprite,Foreground,Centre,"sb/sprites/c2.png",244,379 S,2,57625,58291,0.2,0.4 F,2,57625,58291,0.5,0 P,0,57625,58460,A
Sprite,Foreground,Centre,"sb/sprites/c2.png",82,183 S,2,57964,58630,0.2,0.4 F,2,57964,58630,0.5,0 P,0,57964,58968,A
Sprite,Foreground,Centre,"sb/sprites/c2.png",65,163 S,2,58473,59139,0.2,0.4 F,2,58473,59139,0.5,0 P,0,58473,59139,A
Sprite,Foreground,Centre,"sb/sprites/c2.png",282,123 S,2,58642,59308,0.2,0.4 F,2,58642,59308,0.5,0 P,0,58642,59477,A
Sprite,Foreground,Centre,"sb/sprites/c2.png",487,252 S,2,58981,59647,0.2,0.4 F,2,58981,59647,0.5,0 P,0,58981,59647,A
Sprite,Foreground,Centre,"sb/sprites/c2.png",527,83 S,2,59151,59817,0.2,0.4 F,2,59151,59817,0.5,0 P,0,59151,59817,A
Sprite,Foreground,Centre,"sb/sprites/c2.png",553,306 S,2,59320,59986,0.2,0.4 F,2,59320,59986,0.5,0 P,0,59320,60240,A
Sprite,Foreground,Centre,"sb/sprites/c2.png",475,390 S,2,59659,60325,0.2,0.4 F,2,59659,60325,0.5,0 P,0,59659,60579,A
Sprite,Foreground,Centre,"sb/sprites/c2.png",198,373 S,2,59998,60664,0.2,0.4 F,2,59998,60664,0.5,0 P,0,59998,60664,A
Sprite,Foreground,Centre,"sb/sprites/c2.png",380,437 S,2,60168,60834,0.2,0.4 F,2,60168,60834,0.5,0 P,0,60168,60834,A
Sprite,Foreground,Centre,"sb/sprites/c2.png",217,241 S,2,60337,61003,0.2,0.4 F,2,60337,61003,0.5,0 P,0,60337,61003,A
Sprite,Foreground,Centre,"sb/sprites/c2.png",276,416 S,2,60507,61173,0.2,0.4 F,2,60507,61173,0.5,0 P,0,60507,61173,A
Sprite,Foreground,Centre,"sb/sprites/c2.png",309,189 S,2,60676,61342,0.2,0.4 F,2,60676,61342,0.5,0 P,0,60676,61680,A
Sprite,Foreground,Centre,"sb/sprites/c2.png",187,278 S,2,61354,62020,0.2,0.4 F,2,61354,62020,0.5,0 P,0,61354,62528,A
Sprite,Foreground,Centre,"sb/sprites/c2.png",497,216 S,2,62032,62698,0.2,0.4 F,2,62032,62698,0.5,0 P,0,62032,63036,A
Sprite,Foreground,Centre,"sb/sprites/c2.png",298,424 S,2,62710,63376,0.2,0.4 F,2,62710,63376,0.5,0 P,0,62710,63884,A
Sprite,Foreground,Centre,"sb/sprites/c2.png",217,142 S,2,63388,64054,0.2,0.4 F,2,63388,64054,0.5,0 P,0,63388,64392,A
Sprite,Foreground,Centre,"sb/sprites/c2.png",553,56 S,2,64066,64732,0.2,0.4 F,2,64066,64732,0.5,0 P,0,64066,64986,A
Sprite,Foreground,Centre,"sb/sprites/c2.png",512,395 S,2,64405,65071,0.2,0.4 F,2,64405,65071,0.5,0 P,0,64405,65071,A
Sprite,Foreground,Centre,"sb/sprites/c2.png",576,236 S,2,64575,65241,0.2,0.4 F,2,64575,65241,0.5,0 P,0,64575,65241,A
Sprite,Foreground,Centre,"sb/sprites/c2.png",427,356 S,2,64744,65410,0.2,0.4 F,2,64744,65410,0.5,0 P,0,64744,65579,A
Sprite,Foreground,Centre,"sb/sprites/c2.png",175,293 S,2,65083,65749,0.2,0.4 F,2,65083,65749,0.5,0 P,0,65083,65749,A
Sprite,Foreground,Centre,"sb/sprites/c2.png",346,254 S,2,65253,65919,0.2,0.4 F,2,65253,65919,0.5,0 P,0,65253,65919,A
Sprite,Foreground,Centre,"sb/sprites/c2.png",205,164 S,2,65422,66088,0.2,0.4 F,2,65422,66088,0.5,0 P,0,65422,66257,A
Sprite,Foreground,Centre,"sb/sprites/c2.png",340,101 S,2,65761,66427,0.2,0.4 F,2,65761,66427,0.5,0 P,0,65761,66596,A
Sprite,Foreground,Centre,"sb/sprites/c2.png",249,68 S,2,66100,66766,0.2,0.4 F,2,66100,66766,0.5,0 P,0,66100,67104,A
Sprite,Foreground,Centre,"sb/sprites/c2.png",309,421 S,2,66778,67444,0.2,0.4 F,2,66778,67444,0.5,0 P,0,66778,68799,A
Sprite,Foreground,Centre,"sb/sprites/c2.png",295,232 S,2,68473,69139,0.2,0.4 F,2,68473,69139,0.5,0 P,0,68473,69139,A
Sprite,Foreground,Centre,"sb/sprites/c2.png",192,121 S,2,68642,69308,0.2,0.4 F,2,68642,69308,0.5,0 P,0,68642,69308,A
Sprite,Foreground,Centre,"sb/sprites/c2.png",246,303 S,2,68812,69478,0.2,0.4 F,2,68812,69478,0.5,0 P,0,68812,69647,A
Sprite,Foreground,Centre,"sb/sprites/c2.png",370,96 S,2,69151,69817,0.2,0.4 F,2,69151,69817,0.5,0 P,0,69151,69986,A
Sprite,Foreground,Centre,"sb/sprites/c2.png",525,324 S,2,69490,70156,0.2,0.4 F,2,69490,70156,0.5,0 P,0,69490,70325,A
Sprite,Foreground,Centre,"sb/sprites/c2.png",386,221 S,2,69829,70495,0.2,0.4 F,2,69829,70495,0.5,0 P,0,69829,70495,A
Sprite,Foreground,Centre,"sb/sprites/c2.png",521,357 S,2,69998,70664,0.2,0.4 F,2,69998,70664,0.5,0 P,0,69998,70664,A
Sprite,Foreground,Centre,"sb/sprites/c2.png",263,271 S,2,93219,93885,0.2,0.4 F,2,93219,93885,0.5,0 P,0,93219,94223,A
Sprite,Foreground,Centre,"sb/sprites/c2.png",443,179 S,2,93897,94563,0.2,0.4 F,2,93897,94563,0.5,0 P,0,93897,95071,A
Sprite,Foreground,Centre,"sb/sprites/c2.png",470,106 S,2,94575,95241,0.2,0.4 F,2,94575,95241,0.5,0 P,0,94575,95579,A
Sprite,Foreground,Centre,"sb/sprites/c2.png",390,256 S,2,95253,95919,0.2,0.4 F,2,95253,95919,0.5,0 P,0,95253,96427,A
Sprite,Foreground,Centre,"sb/sprites/c2.png",355,370 S,2,95931,96597,0.2,0.4 F,2,95931,96597,0.5,0 P,0,95931,96935,A
Sprite,Foreground,Centre,"sb/sprites/c2.png",116,87 S,2,96608,97274,0.2,0.4 F,2,96608,97274,0.5,0 P,0,96608,97528,A
Sprite,Foreground,Centre,"sb/sprites/c2.png",146,423 S,2,96947,97613,0.2,0.4 F,2,96947,97613,0.5,0 P,0,96947,97613,A
Sprite,Foreground,Centre,"sb/sprites/c2.png",86,266 S,2,97117,97783,0.2,0.4 F,2,97117,97783,0.5,0 P,0,97117,97783,A
Sprite,Foreground,Centre,"sb/sprites/c2.png",228,169 S,2,97286,97952,0.2,0.4 F,2,97286,97952,0.5,0 P,0,97286,98163,A
Sprite,Foreground,Centre,"sb/sprites/c2.png",225,246 S,2,97625,98291,0.2,0.4 F,2,97625,98291,0.5,0 P,0,97625,98291,A
Sprite,Foreground,Centre,"sb/sprites/c2.png",366,172 S,2,97795,98461,0.2,0.4 F,2,97795,98461,0.5,0 P,0,97795,98461,A
Sprite,Foreground,Centre,"sb/sprites/c2.png",234,329 S,2,97964,98630,0.2,0.4 F,2,97964,98630,0.5,0 P,0,97964,98799,A
Sprite,Foreground,Centre,"sb/sprites/c2.png",445,381 S,2,98303,98969,0.2,0.4 F,2,98303,98969,0.5,0 P,0,98303,99138,A
Sprite,Foreground,Centre,"sb/sprites/c2.png",327,440 S,2,98642,99308,0.2,0.4 F,2,98642,99308,0.5,0 P,0,98642,99646,A
Sprite,Foreground,Centre,"sb/sprites/c2.png",252,75 S,2,99320,99986,0.2,0.4 F,2,99320,99986,0.5,0 P,0,99320,101341,A
Sprite,Foreground,Centre,"sb/sprites/c2.png",273,392 S,2,101015,101681,0.2,0.4 F,2,101015,101681,0.5,0 P,0,101015,101850,A
Sprite,Foreground,Centre,"sb/sprites/c2.png",365,211 S,2,101354,102020,0.2,0.4 F,2,101354,102020,0.5,0 P,0,101354,102358,A
Sprite,Foreground,Centre,"sb/sprites/c2.png",383,243 S,2,101863,102529,0.2,0.4 F,2,101863,102529,0.5,0 P,0,101863,102529,A
Sprite,Foreground,Centre,"sb/sprites/c2.png",158,352 S,2,102032,102698,0.2,0.4 F,2,102032,102698,0.5,0 P,0,102032,102867,A
Sprite,Foreground,Centre,"sb/sprites/c2.png",80,92 S,2,102371,103037,0.2,0.4 F,2,102371,103037,0.5,0 P,0,102371,103037,A
Sprite,Foreground,Centre,"sb/sprites/c2.png",137,266 S,2,102541,103207,0.2,0.4 F,2,102541,103207,0.5,0 P,0,102541,103207,A
Sprite,Foreground,Centre,"sb/sprites/c2.png",288,121 S,2,102710,103376,0.2,0.4 F,2,102710,103376,0.5,0 P,0,102710,103545,A
Sprite,Foreground,Centre,"sb/sprites/c2.png",264,298 S,2,103049,103715,0.2,0.4 F,2,103049,103715,0.5,0 P,0,103049,103884,A
Sprite,Foreground,Centre,"sb/sprites/c2.png",359,56 S,2,103388,104054,0.2,0.4 F,2,103388,104054,0.5,0 P,0,103388,104054,A
Sprite,Foreground,Centre,"sb/sprites/c2.png",416,259 S,2,103558,104224,0.2,0.4 F,2,103558,104224,0.5,0 P,0,103558,104224,A
Sprite,Foreground,Centre,"sb/sprites/c2.png",495,79 S,2,103727,104393,0.2,0.4 F,2,103727,104393,0.5,0 P,0,103727,104393,A
Sprite,Foreground,Centre,"sb/sprites/c2.png",310,210 S,2,103897,104563,0.2,0.4 F,2,103897,104563,0.5,0 P,0,103897,104563,A
Sprite,Foreground,Centre,"sb/sprites/c2.png",493,289 S,2,104066,104732,0.2,0.4 F,2,104066,104732,0.5,0 P,0,104066,105070,A
Sprite,Foreground,Centre,"sb/sprites/c2.png",343,362 S,2,104744,105410,0.2,0.4 F,2,104744,105410,0.5,0 P,0,104744,105918,A
Sprite,Foreground,Centre,"sb/sprites/c2.png",327,280 S,2,105422,106088,0.2,0.4 F,2,105422,106088,0.5,0 P,0,105422,106426,A
Sprite,Foreground,Centre,"sb/sprites/c2.png",483,81 S,2,106100,106766,0.2,0.4 F,2,106100,106766,0.5,0 P,0,106100,107274,A
Sprite,Foreground,Centre,"sb/sprites/c2.png",459,335 S,2,106778,107444,0.2,0.4 F,2,106778,107444,0.5,0 P,0,106778,107782,A
Sprite,Foreground,Centre,"sb/sprites/c2.png",191,352 S,2,107456,108122,0.2,0.4 F,2,107456,108122,0.5,0 P,0,107456,108376,A
Sprite,Foreground,Centre,"sb/sprites/c2.png",498,243 S,2,107795,108461,0.2,0.4 F,2,107795,108461,0.5,0 P,0,107795,108461,A
Sprite,Foreground,Centre,"sb/sprites/c2.png",429,404 S,2,107964,108630,0.2,0.4 F,2,107964,108630,0.5,0 P,0,107964,108630,A
Sprite,Foreground,Centre,"sb/sprites/c2.png",435,198 S,2,108134,108800,0.2,0.4 F,2,108134,108800,0.5,0 P,0,108134,108969,A
Sprite,Foreground,Centre,"sb/sprites/c2.png",248,184 S,2,108473,109139,0.2,0.4 F,2,108473,109139,0.5,0 P,0,108473,109139,A
Sprite,Foreground,Centre,"sb/sprites/c2.png",433,92 S,2,108642,109308,0.2,0.4 F,2,108642,109308,0.5,0 P,0,108642,109308,A
Sprite,Foreground,Centre,"sb/sprites/c2.png",178,259 S,2,108812,109478,0.2,0.4 F,2,108812,109478,0.5,0 P,0,108812,109647,A
Sprite,Foreground,Centre,"sb/sprites/c2.png",363,371 S,2,109151,109817,0.2,0.4 F,2,109151,109817,0.5,0 P,0,109151,109986,A
Sprite,Foreground,Centre,"sb/sprites/c2.png",155,372 S,2,109490,110156,0.2,0.4 F,2,109490,110156,0.5,0 P,0,109490,110494,A
Sprite,Foreground,Centre,"sb/sprites/c2.png",576,187 S,2,110168,110834,0.2,0.4 F,2,110168,110834,0.5,0 P,0,110168,112189,A
Sprite,Foreground,Centre,"sb/sprites/c2.png",293,226 S,2,111863,112529,0.2,0.4 F,2,111863,112529,0.5,0 P,0,111863,112529,A
Sprite,Foreground,Centre,"sb/sprites/c2.png",185,131 S,2,112032,112698,0.2,0.4 F,2,112032,112698,0.5,0 P,0,112032,112698,A
Sprite,Foreground,Centre,"sb/sprites/c2.png",333,355 S,2,112202,112868,0.2,0.4 F,2,112202,112868,0.5,0 P,0,112202,113122,A
Sprite,Foreground,Centre,"sb/sprites/c2.png",569,248 S,2,112541,113207,0.2,0.4 F,2,112541,113207,0.5,0 P,0,112541,113207,A
Sprite,Foreground,Centre,"sb/sprites/c2.png",358,148 S,2,112710,113376,0.2,0.4 F,2,112710,113376,0.5,0 P,0,112710,113376,A
Sprite,Foreground,Centre,"sb/sprites/c2.png",217,412 S,2,112880,113546,0.2,0.4 F,2,112880,113546,0.5,0 P,0,112880,113800,A
Sprite,Foreground,Centre,"sb/sprites/c2.png",315,339 S,2,113219,113885,0.2,0.4 F,2,113219,113885,0.5,0 P,0,113219,113885,A
Sprite,Foreground,Centre,"sb/sprites/c2.png",209,164 S,2,113388,114054,0.2,0.4 F,2,113388,114054,0.5,0 P,0,113388,114054,A
Sprite,Foreground,Centre,"sb/sprites/c2.png",453,348 S,2,113558,114224,0.2,0.4 F,2,113558,114224,0.5,0 P,0,113558,114393,A
Sprite,Foreground,Centre,"sb/sprites/c2.png",204,132 S,2,113897,114563,0.2,0.4 F,2,113897,114563,0.5,0 P,0,113897,114732,A
Sprite,Foreground,Centre,"sb/sprites/c2.png",467,115 S,2,114236,114902,0.2,0.4 F,2,114236,114902,0.5,0 P,0,114236,114902,A
Sprite,Foreground,Centre,"sb/sprites/c2.png",499,279 S,2,114405,115071,0.2,0.4 F,2,114405,115071,0.5,0 P,0,114405,115071,A
Sprite,Foreground,Centre,"sb/sprites/c2.png",306,98 S,2,114575,115241,0.2,0.4 F,2,114575,115241,0.5,0 P,0,114575,115241,A
Sprite,Foreground,Centre,"sb/sprites/c2.png",230,323 S,2,114744,115410,0.2,0.4 F,2,114744,115410,0.5,0 P,0,114744,115410,A
Sprite,Foreground,Centre,"sb/sprites/c2.png",437,322 S,2,125761,126427,0.2,0.4 F,2,125761,126427,0.5,0 P,0,125761,126765,A
Sprite,Foreground,Centre,"sb/sprites/c2.png",135,234 S,2,126439,127105,0.2,0.4 F,2,126439,127105,0.5,0 P,0,126439,127613,A
Sprite,Foreground,Centre,"sb/sprites/c2.png",296,189 S,2,127117,127783,0.2,0.4 F,2,127117,127783,0.5,0 P,0,127117,128121,A
Sprite,Foreground,Centre,"sb/sprites/c2.png",450,209 S,2,127795,128461,0.2,0.4 F,2,127795,128461,0.5,0 P,0,127795,128969,A
Sprite,Foreground,Centre,"sb/sprites/c2.png",336,315 S,2,128473,129139,0.2,0.4 F,2,128473,129139,0.5,0 P,0,128473,129477,A
Sprite,Foreground,Centre,"sb/sprites/c2.png",151,404 S,2,129151,129817,0.2,0.4 F,2,129151,129817,0.5,0 P,0,129151,130071,A
Sprite,Foreground,Centre,"sb/sprites/c2.png",122,73 S,2,129490,130156,0.2,0.4 F,2,129490,130156,0.5,0 P,0,129490,130156,A
Sprite,Foreground,Centre,"sb/sprites/c2.png",92,239 S,2,129659,130325,0.2,0.4 F,2,129659,130325,0.5,0 P,0,129659,130325,A
Sprite,Foreground,Centre,"sb/sprites/c2.png",241,124 S,2,129829,130495,0.2,0.4 F,2,129829,130495,0.5,0 P,0,129829,130833,A
Sprite,Foreground,Centre,"sb/sprites/c2.png",447,82 S,2,130337,131003,0.2,0.4 F,2,130337,131003,0.5,0 P,0,130337,131003,A
Sprite,Foreground,Centre,"sb/sprites/c2.png",277,226 S,2,130507,131173,0.2,0.4 F,2,130507,131173,0.5,0 P,0,130507,131342,A
Sprite,Foreground,Centre,"sb/sprites/c2.png",545,270 S,2,131185,131851,0.2,0.4 F,2,131185,131851,0.5,0 P,0,131185,132189,A
Sprite,Foreground,Centre,"sb/sprites/c2.png",158,411 S,2,131863,132529,0.2,0.4 F,2,131863,132529,0.5,0 P,0,131863,133884,A
Sprite,Foreground,Centre,"sb/sprites/c2.png",544,269 S,2,133558,134224,0.2,0.4 F,2,133558,134224,0.5,0 P,0,133558,134224,A
Sprite,Foreground,Centre,"sb/sprites/c2.png",519,124 S,2,133727,134393,0.2,0.4 F,2,133727,134393,0.5,0 P,0,133727,134393,A
Sprite,Foreground,Centre,"sb/sprites/c2.png",443,274 S,2,133897,134563,0.2,0.4 F,2,133897,134563,0.5,0 P,0,133897,134732,A
Sprite,Foreground,Centre,"sb/sprites/c2.png",191,285 S,2,134236,134902,0.2,0.4 F,2,134236,134902,0.5,0 P,0,134236,134902,A
Sprite,Foreground,Centre,"sb/sprites/c2.png",317,152 S,2,134405,135071,0.2,0.4 F,2,134405,135071,0.5,0 P,0,134405,135071,A
Sprite,Foreground,Centre,"sb/sprites/c2.png",184,259 S,2,134575,135241,0.2,0.4 F,2,134575,135241,0.5,0 P,0,134575,135410,A
Sprite,Foreground,Centre,"sb/sprites/c2.png",101,346 S,2,134914,135580,0.2,0.4 F,2,134914,135580,0.5,0 P,0,134914,135749,A
Sprite,Foreground,Centre,"sb/sprites/c2.png",415,326 S,2,135253,135919,0.2,0.4 F,2,135253,135919,0.5,0 P,0,135253,136088,A
Sprite,Foreground,Centre,"sb/sprites/c2.png",178,106 S,2,135592,136258,0.2,0.4 F,2,135592,136258,0.5,0 P,0,135592,136427,A
Sprite,Foreground,Centre,"sb/sprites/c2.png",195,284 S,2,135931,136597,0.2,0.4 F,2,135931,136597,0.5,0 P,0,135931,136766,A
Sprite,Foreground,Centre,"sb/sprites/c2.png",421,223 S,2,136269,136935,0.2,0.4 F,2,136269,136935,0.5,0 P,0,136269,137104,A
Sprite,Foreground,Centre,"sb/sprites/c.png",0,0 C,0,17286,,255,255,255 F,0,17286,,0.9 S,7,17286,18396,0.2,0.6 F,0,17287,18397,0.9,0 M,0,17286,,225,123 R,22,17287,18397,0,2 P,0,17286,18396,A C,0,19998,,255,255,255 F,0,19998,,0.9 S,7,19998,21108,0.2,0.6 F,0,19999,21109,0.9,0 M,0,19998,,206,206 R,22,19999,21109,0,-1 P,0,19998,21108,A C,0,22710,,255,255,255 F,0,22710,,0.9 S,7,22710,23820,0.2,0.6 F,0,22711,23821,0.9,0 M,0,22710,,79,224 R,22,22711,23821,0,-3 P,0,22710,23820,A C,0,25422,,255,255,255 F,0,25422,,0.9 S,7,25422,26532,0.2,0.6 F,0,25423,26533,0.9,0 M,0,25422,,236,305 R,22,25423,26533,0,3 P,0,25422,26532,A C,0,28134,,255,255,255 F,0,28134,,0.9 S,7,28134,29244,0.2,0.6 F,0,28135,29245,0.9,0 M,0,28134,,569,254 R,22,28135,29245,0,-4 P,0,28134,29244,A C,0,30846,,255,255,255 F,0,30846,,0.9 S,7,30846,31956,0.2,0.6 F,0,30847,31957,0.9,0 M,0,30846,,576,225 R,22,30847,31957,0,-2 P,0,30846,31956,A C,0,33558,,255,255,255 F,0,33558,,0.9 S,7,33558,34668,0.2,0.6 F,0,33559,34669,0.9,0 M,0,33558,,434,352 R,22,33559,34669,0,2 P,0,33558,34668,A C,0,36269,,255,255,255 F,0,36269,,0.9 S,7,36269,37379,0.2,0.6 F,0,36270,37380,0.9,0 M,0,36269,,320,321 R,22,36270,37380,0,-1 P,0,36269,37379,A C,0,38981,,255,255,255 F,0,38981,,0.9 S,7,38981,40091,0.2,0.6 F,0,38982,40092,0.9,0 M,0,38981,,129,56 R,22,38982,40092,0,-3 P,0,38981,40091,A C,0,41693,,255,255,255 F,0,41693,,0.9 S,7,41693,42803,0.2,0.6 F,0,41694,42804,0.9,0 M,0,41693,,394,260 R,22,41694,42804,0,-4 P,0,41693,42803,A C,0,44405,,255,255,255 F,0,44405,,0.9 S,7,44405,45515,0.2,0.6 F,0,44406,45516,0.9,0 M,0,44405,,266,62 R,22,44406,45516,0,2 P,0,44405,45515,A C,0,47117,,255,255,255 F,0,47117,,0.9 S,7,47117,48227,0.2,0.6 F,0,47118,48228,0.9,0 M,0,47117,,551,92 R,22,47118,48228,0,-4 P,0,47117,48227,A C,0,71524,,255,255,255 F,0,71524,,0.9 S,7,71524,72634,0.2,0.6 F,0,71525,72635,0.9,0 M,0,71524,,480,127 R,22,71525,72635,0,-4 P,0,71524,72634,A C,0,74236,,255,255,255 F,0,74236,,0.9 S,7,74236,75346,0.2,0.6 F,0,74237,75347,0.9,0 M,0,74236,,576,332 R,22,74237,75347,0 P,0,74236,75346,A C,0,76947,,255,255,255 F,0,76947,,0.9 S,7,76947,78057,0.2,0.6 F,0,76948,78058,0.9,0 M,0,76947,,543,273 R,22,76948,78058,0,-1 P,0,76947,78057,A
Sprite,Foreground,Centre,"sb/sprites/c.png",0,0 C,0,79659,,255,255,255 F,0,79659,,0.9 S,7,79659,80769,0.2,0.6 F,0,79660,80770,0.9,0 M,0,79659,,296,386 R,22,79660,80770,0,-2 P,0,79659,80769,A C,0,82371,,255,255,255 F,0,82371,,0.9 S,7,82371,83481,0.2,0.6 F,0,82372,83482,0.9,0 M,0,82371,,210,56 R,22,82372,83482,0,1 P,0,82371,83481,A C,0,85083,,255,255,255 F,0,85083,,0.9 S,7,85083,86193,0.2,0.6 F,0,85084,86194,0.9,0 M,0,85083,,188,367 R,22,85084,86194,0,-3 P,0,85083,86193,A C,0,87795,,255,255,255 F,0,87795,,0.9 S,7,87795,88905,0.2,0.6 F,0,87796,88906,0.9,0 M,0,87795,,248,324 R,22,87796,88906,0,1 P,0,87795,88905,A C,0,90507,,255,255,255 F,0,90507,,0.9 S,7,90507,91617,0.2,0.6 F,0,90508,91618,0.9,0 M,0,90507,,385,162 R,22,90508,91618,0,-4 P,0,90507,91617,A C,0,124405,,255,255,255 F,0,124405,,0.9 S,7,124405,125515,0.2,0.6 F,0,124406,125516,0.9,0 M,0,124405,,401,400 R,22,124406,125516,0,-4 P,0,124405,125515,A C,0,125592,,255,255,255 F,0,125592,,0.9 S,7,125592,126702,0.2,0.6 F,0,125593,126703,0.9,0 M,0,125592,,563,204 R,22,125593,126703,0,3 P,0,125592,126702,A
Sprite,Foreground,Centre,"sb/sprites/c.png",0,0 C,0,124575,,255,255,255 F,0,124575,,0.9 S,7,124575,125685,0.2,0.6 F,0,124576,125686,0.9,0 M,0,124575,,360,335 R,22,124576,125686,0,-2 P,0,124575,125685,A
Sprite,Foreground,Centre,"sb/sprites/c.png",0,0 C,0,124744,,255,255,255 F,0,124744,,0.9 S,7,124744,125854,0.2,0.6 F,0,124745,125855,0.9,0 M,0,124744,,478,381 R,22,124745,125855,0,-2 P,0,124744,125854,A
Sprite,Foreground,Centre,"sb/sprites/c.png",0,0 C,0,124914,,255,255,255 F,0,124914,,0.9 S,7,124914,126024,0.2,0.6 F,0,124915,126025,0.9,0 M,0,124914,,505,261 R,22,124915,126025,0,1 P,0,124914,126024,A
Sprite,Foreground,Centre,"sb/sprites/c.png",0,0 C,0,125083,,255,255,255 F,0,125083,,0.9 S,7,125083,126193,0.2,0.6 F,0,125084,126194,0.9,0 M,0,125083,,330,432 R,22,125084,126194,0,3 P,0,125083,126193,A
Sprite,Foreground,Centre,"sb/sprites/c.png",0,0 C,0,125253,,255,255,255 F,0,125253,,0.9 S,7,125253,126363,0.2,0.6 F,0,125254,126364,0.9,0 M,0,125253,,297,237 R,22,125254,126364,0,2 P,0,125253,126363,A
Sprite,Foreground,Centre,"sb/sprites/c.png",0,0 C,0,125422,,255,255,255 F,0,125422,,0.9 S,7,125422,126532,0.2,0.6 F,0,125423,126533,0.9,0 M,0,125422,,522,440 R,22,125423,126533,0,1 P,0,125422,126532,A
Sprite,Foreground,Centre,"sb/sprites/hb.png",0,240 C,21,49830,50940,255,0,0,255,255,255 F,0,49830,50940,0.7,0 MX,0,49829,,433 L,49830,17 V,2,0,20,1.2,1.313,1.6,1.313 V,2,20,40,1.6,1.313,1.2,1.313 L,50676,1 V,2,0,338,1.2,1.313,0.05,1.313 P,0,49829,50939,A C,21,51186,52296,255,0,0,255,255,255 F,0,51186,52296,0.7,0 MX,0,51185,,313 L,51186,17 V,2,0,20,1.2,1.313,1.6,1.313 V,2,20,40,1.6,1.313,1.2,1.313 L,52032,1 V,2,0,338,1.2,1.313,0.05,1.313 P,0,51185,52295,A C,21,52542,53652,255,0,0,255,255,255 F,0,52542,53652,0.7,0 MX,0,52541,,488 L,52542,17 V,2,0,20,1.2,1.313,1.6,1.313 V,2,20,40,1.6,1.313,1.2,1.313 L,53388,1 V,2,0,338,1.2,1.313,0.05,1.313 P,0,52541,53651,A C,21,55254,56364,255,0,0,255,255,255 F,0,55254,56364,0.7,0 MX,0,55253,,323 L,55254,17 V,2,0,20,1.2,1.313,1.6,1.313 V,2,20,40,1.6,1.313,1.2,1.313 L,56100,1 V,2,0,338,1.2,1.313,0.05,1.313 P,0,55253,56363,A C,21,57965,59075,255,0,0,255,255,255 F,0,57965,59075,0.7,0 MX,0,57964,,82 L,57965,17 V,2,0,20,1.2,1.313,1.6,1.313 V,2,20,40,1.6,1.313,1.2,1.313 L,58811,1 V,2,0,338,1.2,1.313,0.05,1.313 P,0,57964,59074,A C,21,60677,61787,255,0,0,255,255,255 F,0,60677,61787,0.7,0 MX,0,60676,,309 L,60677,17 V,2,0,20,1.2,1.313,1.6,1.313 V,2,20,40,1.6,1.313,1.2,1.313 L,61523,1 V,2,0,338,1.2,1.313,0.05,1.313 P,0,60676,61786,A C,21,62033,63143,255,0,0,255,255,255 F,0,62033,63143,0.7,0 MX,0,62032,,497 L,62033,17 V,2,0,20,1.2,1.313,1.6,1.313 V,2,20,40,1.6,1.313,1.2,1.313 L,62879,1 V,2,0,338,1.2,1.313,0.05,1.313 P,0,62032,63142,A C,21,63389,64499,255,0,0,255,255,255 F,0,63389,64499,0.7,0 MX,0,63388,,217 L,63389,17 V,2,0,20,1.2,1.313,1.6,1.313 V,2,20,40,1.6,1.313,1.2,1.313 L,64235,1 V,2,0,338,1.2,1.313,0.05,1.313 P,0,63388,64498,A C,21,66101,67211,255,0,0,255,255,255 F,0,66101,67211,0.7,0 MX,0,66100,,249 L,66101,17 V,2,0,20,1.2,1.313,1.6,1.313 V,2,20,40,1.6,1.313,1.2,1.313 L,66947,1 V,2,0,338,1.2,1.313,0.05,1.313 P,0,66100,67210,A C,21,68813,69923,255,0,0,255,255,255 F,0,68813,69923,0.7,0 MX,0,68812,,246 L,68813,17 V,2,0,20,1.2,1.313,1.6,1.313 V,2,20,40,1.6,1.313,1.2,1.313 L,69659,1 V,2,0,338,1.2,1.313,0.05,1.313 P,0,68812,69922,A C,21,93220,94330,255,0,0,255,255,255 F,0,93220,94330,0.7,0 MX,0,93219,,263 L,93220,17 V,2,0,20,1.2,1.313,1.6,1.313 V,2,20,40,1.6,1.313,1.2,1.313 L,94066,1 V,2,0,338,1.2,1.313,0.05,1.313 P,0,93219,94329,A C,21,94576,95686,255,0,0,255,255,255 F,0,94576,95686,0.7,0 MX,0,94575,,470 L,94576,17 V,2,0,20,1.2,1.313,1.6,1.313 V,2,20,40,1.6,1.313,1.2,1.313 L,95422,1 V,2,0,338,1.2,1.313,0.05,1.313 P,0,94575,95685,A C,21,95932,97042,255,0,0,255,255,255 F,0,95932,97042,0.7,0 MX,0,95931,,355 L,95932,17 V,2,0,20,1.2,1.313,1.6,1.313 V,2,20,40,1.6,1.313,1.2,1.313 L,96778,1 V,2,0,338,1.2,1.313,0.05,1.313 P,0,95931,97041,A C,21,98643,99753,255,0,0,255,255,255 F,0,98643,99753,0.7,0 MX,0,98642,,327 L,98643,17 V,2,0,20,1.2,1.313,1.6,1.313 V,2,20,40,1.6,1.313,1.2,1.313 L,99489,1 V,2,0,338,1.2,1.313,0.05,1.313 P,0,98642,99752,A C,21,101355,102465,255,0,0,255,255,255 F,0,101355,102465,0.7,0 MX,0,101354,,365 L,101355,17 V,2,0,20,1.2,1.313,1.6,1.313 V,2,20,40,1.6,1.313,1.2,1.313 L,102201,1 V,2,0,338,1.2,1.313,0.05,1.313 P,0,101354,102464,A C,21,104067,105177,255,0,0,255,255,255 F,0,104067,105177,0.7,0 MX,0,104066,,493 L,104067,17 V,2,0,20,1.2,1.313,1.6,1.313 V,2,20,40,1.6,1.313,1.2,1.313 L,104913,1 V,2,0,338,1.2,1.313,0.05,1.313 P,0,104066,105176,A C,21,105423,106533,255,0,0,255,255,255 F,0,105423,106533,0.7,0 MX,0,105422,,327 L,105423,17 V,2,0,20,1.2,1.313,1.6,1.313 V,2,20,40,1.6,1.313,1.2,1.313 L,106269,1 V,2,0,338,1.2,1.313,0.05,1.313 P,0,105422,106532,A C,21,106779,107889,255,0,0,255,255,255 F,0,106779,107889,0.7,0 MX,0,106778,,459 L,106779,17 V,2,0,20,1.2,1.313,1.6,1.313 V,2,20,40,1.6,1.313,1.2,1.313 L,107625,1 V,2,0,338,1.2,1.313,0.05,1.313 P,0,106778,107888,A C,21,109491,110601,255,0,0,255,255,255 F,0,109491,110601,0.7,0 MX,0,109490,,155 L,109491,17 V,2,0,20,1.2,1.313,1.6,1.313 V,2,20,40,1.6,1.313,1.2,1.313 L,110337,1 V,2,0,338,1.2,1.313,0.05,1.313 P,0,109490,110600,A
Sprite,Foreground,Centre,"sb/sprites/hb.png",0,240 C,21,102372,103482,255,0,0,255,255,255 F,0,102372,103482,0.7,0 MX,0,102371,,80 L,102372,17 V,2,0,20,1.2,1.313,1.6,1.313 V,2,20,40,1.6,1.313,1.2,1.313 L,103218,1 V,2,0,338,1.2,1.313,0.05,1.313 P,0,102371,103481,A C,21,112203,113313,255,0,0,255,255,255 F,0,112203,113313,0.7,0 MX,0,112202,,333 L,112203,17 V,2,0,20,1.2,1.313,1.6,1.313 V,2,20,40,1.6,1.313,1.2,1.313 L,113049,1 V,2,0,338,1.2,1.313,0.05,1.313 P,0,112202,113312,A C,21,125762,126872,255,0,0,255,255,255 F,0,125762,126872,0.7,0 MX,0,125761,,437 L,125762,17 V,2,0,20,1.2,1.313,1.6,1.313 V,2,20,40,1.6,1.313,1.2,1.313 L,126608,1 V,2,0,338,1.2,1.313,0.05,1.313 P,0,125761,126871,A C,21,127118,128228,255,0,0,255,255,255 F,0,127118,128228,0.7,0 MX,0,127117,,296 L,127118,17 V,2,0,20,1.2,1.313,1.6,1.313 V,2,20,40,1.6,1.313,1.2,1.313 L,127964,1 V,2,0,338,1.2,1.313,0.05,1.313 P,0,127117,128227,A C,21,128474,129584,255,0,0,255,255,255 F,0,128474,129584,0.7,0 MX,0,128473,,336 L,128474,17 V,2,0,20,1.2,1.313,1.6,1.313 V,2,20,40,1.6,1.313,1.2,1.313 L,129320,1 V,2,0,338,1.2,1.313,0.05,1.313 P,0,128473,129583,A C,21,131186,132296,255,0,0,255,255,255 F,0,131186,132296,0.7,0 MX,0,131185,,545 L,131186,17 V,2,0,20,1.2,1.313,1.6,1.313 V,2,20,40,1.6,1.313,1.2,1.313 L,132032,1 V,2,0,338,1.2,1.313,0.05,1.313 P,0,131185,132295,A C,21,133898,135008,255,0,0,255,255,255 F,0,133898,135008,0.7,0 MX,0,133897,,443 L,133898,17 V,2,0,20,1.2,1.313,1.6,1.313 V,2,20,40,1.6,1.313,1.2,1.313 L,134744,1 V,2,0,338,1.2,1.313,0.05,1.313 P,0,133897,135007,A
Sprite,Foreground,Centre,"sb/sprites/hb.png",0,240 C,21,134915,136025,255,0,0,255,255,255 F,0,134915,136025,0.7,0 MX,0,134914,,101 L,134915,17 V,2,0,20,1.2,1.313,1.6,1.313 V,2,20,40,1.6,1.313,1.2,1.313 L,135761,1 V,2,0,338,1.2,1.313,0.05,1.313 P,0,134914,136024,A
//Storyboard Sound Samples

[TimingPoints]
15931,338.983050847458,4,2,1,10,1,0
15931,-200,4,2,1,10,0,0
17286,-100,4,2,1,40,0,0
17964,-50,4,2,1,40,0,0
18049,-50,4,2,1,20,0,0
18642,-133.333333333333,4,2,1,40,0,0
19320,-50,4,2,1,40,0,0
19405,-50,4,2,1,20,0,0
19829,-100,4,2,1,40,0,0
20676,-50,4,2,1,40,0,0
20761,-50,4,2,1,20,0,0
21354,-100,4,2,1,40,0,0
22032,-50,4,2,1,40,0,0
22117,-50,4,2,1,20,0,0
22371,-83.3333333333333,4,2,1,40,0,0
23388,-66.6666666666667,4,2,1,40,0,0
24066,-100,4,2,1,40,0,0
24744,-50,4,2,1,40,0,0
24829,-50,4,2,1,20,0,0
25083,-100,4,2,1,40,0,0
26778,-76.9230769230769,4,2,1,40,0,0
28134,-76.9230769230769,4,2,1,50,0,0
28812,-66.6666666666667,4,2,1,50,0,0
29490,-100,4,2,1,50,0,0
30846,-83.3333333333333,4,2,1,50,0,0
31524,-66.6666666666667,4,2,1,50,0,0
32202,-100,4,2,1,50,0,0
33558,-83.3333333333333,4,2,1,50,0,0
34236,-66.6666666666667,4,2,1,50,0,0
34914,-100,4,2,1,50,0,0
36269,-83.3333333333333,4,2,1,50,0,0
36947,-66.6666666666667,4,2,1,50,0,0
37625,-100,4,2,1,60,0,0
38303,-66.6666666666667,4,2,1,60,0,0
38981,-166.666666666667,4,2,1,40,0,0
43049,-125,4,2,1,40,0,0
47117,-100,4,2,1,50,0,0
47795,-100,4,2,1,60,0,0
48812,-100,4,2,1,55,0,0
49151,-100,4,2,1,60,0,0
49490,-100,4,2,1,65,0,0
49829,-200,4,2,1,80,0,1
50507,-50,4,2,1,80,0,1
51185,-200,4,2,1,80,0,1
51863,-50,4,2,1,80,0,1
52541,-200,4,2,1,80,0,1
53219,-66.6666666666667,4,2,1,80,0,1
53897,-83.3333333333333,4,2,1,80,0,1
55253,-200,4,2,1,80,0,1
55931,-50,4,2,1,80,0,1
57625,-83.3333333333333,4,2,1,80,0,1
58642,-66.6666666666667,4,2,1,80,0,1
60676,-200,4,2,1,80,0,1
61354,-50,4,2,1,80,0,1
62032,-200,4,2,1,80,0,1
62710,-50,4,2,1,80,0,1
63388,-200,4,2,1,80,0,1
64066,-66.6666666666667,4,2,1,80,0,1
64744,-83.3333333333333,4,2,1,80,0,1
66100,-200,4,2,1,80,0,1
66778,-50,4,2,1,80,0,1
68812,-83.3333333333333,4,2,1,80,0,1
69490,-66.6666666666667,4,2,1,80,0,1
70168,-100,4,2,1,80,0,0
71524,-100,4,2,1,50,0,0
72202,-50,4,2,1,50,0,0
72286,-50,4,2,1,20,0,0
72880,-100,4,2,1,50,0,0
73558,-50,4,2,1,50,0,0
73642,-50,4,2,1,20,0,0
74066,-100,4,2,1,50,0,0
74914,-50,4,2,1,50,0,0
74998,-50,4,2,1,20,0,0
75592,-100,4,2,1,50,0,0
76269,-50,4,2,1,50,0,0
76354,-50,4,2,1,20,0,0
76608,-100,4,2,1,50,0,0
76947,-83.3333333333333,4,2,1,50,0,0
77625,-66.6666666666667,4,2,1,50,0,0
78303,-100,4,2,1,50,0,0
78981,-50,4,2,1,50,0,0
79066,-50,4,2,1,20,0,0
79320,-83.3333333333333,4,2,1,50,0,0
80337,-50,4,2,1,50,0,0
80422,-50,4,2,1,20,0,0
81015,-100,4,2,1,60,0,0
81693,-66.6666666666667,4,2,1,60,0,0
82371,-166.666666666667,4,2,1,40,0,0
86439,-125,4,2,1,40,0,0
90507,-100,4,2,1,50,0,0
91185,-100,4,2,1,60,0,0
93219,-200,4,2,1,80,0,1
93897,-50,4,2,1,80,0,1
94575,-200,4,2,1,80,0,1
95253,-50,4,2,1,80,0,1
95931,-200,4,2,1,80,0,1
96608,-66.6666666666667,4,2,1,80,0,1
97287,-83.3333333333333,4,2,1,80,0,1
98642,-200,4,2,1,80,0,1
99320,-50,4,2,1,80,0,1
101015,-83.3333333333333,4,2,1,80,0,1
102032,-66.6666666666667,4,2,1,80,0,1
104066,-200,4,2,1,80,0,1
104744,-50,4,2,1,80,0,1
105422,-200,4,2,1,80,0,1
106100,-50,4,2,1,80,0,1
106778,-200,4,2,1,80,0,1
107456,-66.6666666666667,4,2,1,80,0,1
108134,-83.3333333333333,4,2,1,80,0,1
109490,-200,4,2,1,80,0,1
110168,-50,4,2,1,80,0,1
112202,-66.6666666666667,4,2,1,80,0,1
112880,-58.8235294117647,4,2,1,80,0,1
113219,-66.6666666666667,4,2,1,80,0,1
114914,-500,4,2,1,60,0,0
116269,-100,4,2,1,60,0,0
116947,-500,4,2,1,60,0,0
117625,-166.666666666667,4,2,1,60,0,0
120337,-166.666666666667,4,2,1,70,0,0
121015,-142.857142857143,4,2,1,70,0,0
123049,-125,4,2,1,70,0,0
125761,-200,4,2,1,80,0,1
126439,-50,4,2,1,80,0,1
127117,-200,4,2,1,80,0,1
127795,-50,4,2,1,80,0,1
128473,-200,4,2,1,80,0,1
129151,-66.6666666666667,4,2,1,80,0,1
129829,-83.3333333333333,4,2,1,80,0,1
130507,-66.6666666666667,4,2,1,80,0,1
131185,-200,4,2,1,80,0,1
131863,-50,4,2,1,80,0,1
133897,-83.3333333333333,4,2,1,80,0,1
134575,-66.6666666666667,4,2,1,80,0,1
134914,-83.3333333333333,4,2,1,80,0,1
136608,-500,4,2,1,80,0,0
140337,-500,4,2,1,60,0,0

[Colours]
Combo1 : 184,170,63
Combo2 : 56,114,151
Combo3 : 148,20,20
Combo4 : 192,192,192

[HitObjects]
29,45,15931,6,0,B|114:47|61:143|170:145,1,165,0|0,0:0|0:0,0:0:0:0:
161,67,16608,1,0,0:0:0:0:
161,67,17286,6,0,B|288:35|238:127|390:97,1,220,2|0,3:2|0:0,0:0:0:0:
370,100,17964,2,0,L|387:208,1,110,10|0,0:2|0:0,0:0:0:0:
411,344,18642,6,0,P|361:307|192:356,1,247.500009441376,0|0,0:0|0:0,0:0:0:0:
195,351,19320,2,0,L|209:193,1,110,10|0,0:2|0:0,0:0:0:0:
73,70,19829,5,2,3:2:0:0:
142,150,19998,2,0,P|218:158|238:26,1,220,2|0,3:2|0:0,0:0:0:0:
250,40,20676,2,0,L|359:51,1,110,8|0,0:2|0:0,0:0:0:0:
494,249,21354,6,0,B|395:274|405:131|294:174,1,220,0|2,0:0|3:2,0:0:0:0:
305,170,22032,2,0,L|293:279,1,110,10|0,0:2|0:0,0:0:0:0:
37,339,22371,5,2,0:3:0:0:
0,257,22541,1,0,3:0:0:0:
15,168,22710,2,0,P|112:211|143:75,1,263.99999194336,2|0,3:2|0:0,0:0:0:0:
154,90,23388,2,0,P|198:220|295:122,1,330.000012588501,10|0,0:2|0:0,0:0:0:0:
508,249,24066,6,0,B|415:215|406:350|310:335,1,220,0|0,0:0|3:0,0:0:0:0:
320,336,24744,2,0,L|305:227,1,110,10|0,0:2|0:0,0:0:0:0:
22,132,25083,5,2,0:2:0:0:
121,158,25253,1,0,3:0:0:0:
172,249,25422,2,0,P|84:302|52:216,1,220,0|0,3:0|0:0,0:0:0:0:
51,218,26100,1,10,0:2:0:0:
506,308,26778,6,0,P|476:340|426:352,1,95.3333289693199,8|0,0:1|0:0,0:0:0:0:
435,160,27004,2,0,P|477:169|513:207,1,95.3333289693199,8|0,0:1|0:0,0:0:0:0:
348,298,27230,2,0,P|335:256|349:206,1,95.3333289693199,8|0,0:1|0:0,0:0:0:0:
431,255,27456,1,8,0:1:0:0:
447,345,27795,6,0,P|480:333|505:308,1,71.4999967269899,8|0,0:1|0:0,0:0:0:0:
353,227,27964,2,0,P|348:263|359:297,1,71.4999967269899,8|0,1:3|0:0,0:0:0:0:
505,198,28134,2,0,B|468:120|359:114|278:228|205:139|205:139|265:160|314:108,1,428.999980361939,6|0,3:2|0:0,0:0:0:0:
238,59,28812,2,0,L|63:31,1,165.000006294251,10|0,0:2|0:0,0:0:0:0:
38,351,29320,5,2,0:2:0:0:
116,288,29490,2,0,P|179:278|252:303,1,110,2|0,0:2|0:0,0:0:0:0:
339,349,29829,1,2,3:2:0:0:
234,191,29998,1,2,0:2:0:0:
383,243,30168,2,0,P|284:251|225:354,1,220,10|2,0:2|0:2,0:0:0:0:
477,319,30676,1,2,0:2:0:0:
512,169,30846,6,0,B|484:224|420:204|400:147|436:103|485:89|485:89|378:120|319:33,1,395.999987915039,2|0,3:2|0:0,0:0:0:0:
182,25,31524,2,0,L|17:42,1,165.000006294251,8|0,0:2|0:0,0:0:0:0:
33,258,32202,6,0,P|118:283|46:335,1,220,2|0,0:2|3:0,0:0:0:0:
100,168,32710,1,0,0:0:0:0:
184,343,32880,2,0,P|194:276|99:168,1,220,10|6,0:2|0:3,0:0:0:0:
253,216,33388,1,8,0:3:0:0:
370,296,33558,6,0,B|410:314|469:289|490:257|435:165|362:170|345:258|328:324|234:318|193:276,1,395.999987915039,2|0,3:2|0:0,0:0:0:0:
29,207,34236,2,0,L|63:368,1,165.000006294251,8|0,0:2|0:0,0:0:0:0:
49,37,34744,5,2,0:2:0:0:
138,90,34914,2,0,P|192:101|247:95,1,110,2|0,0:2|0:0,0:0:0:0:
367,39,35253,1,2,3:2:0:0:
328,166,35422,1,2,0:2:0:0:
342,2,35592,2,0,P|388:86|403:236,1,220,8|2,0:2|0:2,0:0:0:0:
381,352,36100,1,0,0:0:0:0:
256,265,36269,6,0,B|282:209|216:159|139:206|136:286|196:342|245:349|245:349|139:361|118:312,1,395.999987915039,2|0,3:2|0:0,0:0:0:0:
345,269,36947,2,0,L|509:197,1,165.000006294251,10|0,0:2|0:0,0:0:0:0:
74,361,37625,6,0,P|152:356|240:389,1,165,2|0,3:2|0:0,0:0:0:0:
270,285,37964,2,0,P|242:284|216:292,1,55,2|0,3:2|0:0,0:0:0:0:
37,287,38134,2,0,P|76:278|111:286,1,55,0|0,1:0|0:0,0:0:0:0:
256,168,38303,2,0,P|141:208|20:191,1,247.500009441376,10|0,0:2|0:0,0:0:0:0:
18,73,38642,2,0,P|52:101|78:139,1,82.5000031471254,2|0,1:2|1:0,0:0:0:0:
240,33,38812,2,0,P|206:61|179:99,1,82.5000031471254,2|0,1:2|1:0,0:0:0:0:
65,0,38981,5,6,3:2:0:0:
65,0,39490,1,4,1:3:0:0:
189,120,39659,2,0,P|237:132|319:97,1,131.99999597168,4|4,1:3|1:3,0:0:0:0:
398,35,40168,1,0,0:0:0:0:
429,127,40337,2,0,L|455:197,2,65.9999979858399,4|4|4,1:3|1:3|1:3,0:0:0:0:
397,272,41015,2,0,P|340:298|260:272,1,131.99999597168,4|4,1:3|1:3,0:0:0:0:
191,232,41524,1,4,1:3:0:0:
330,204,41693,5,6,3:2:0:0:
330,204,42202,1,4,1:3:0:0:
225,135,42371,2,0,P|175:132|100:178,1,131.99999597168,4|4,1:3|1:3,0:0:0:0:
414,273,43049,6,0,B|487:163|347:141|432:21,1,264,4|0,1:3|0:0,0:0:0:0:
494,95,43727,1,4,1:3:0:0:
494,95,43897,2,0,P|403:113|318:68,1,176,0|4,0:0|1:3,0:0:0:0:
202,6,44405,6,0,P|248:79|251:166,1,176,6|4,3:2|1:3,0:0:0:0:
204,272,44914,1,4,1:3:0:0:
75,151,45083,2,0,P|160:175|201:257,1,176,4|4,1:3|1:3,0:0:0:0:
473,348,45761,6,0,P|385:289|486:255,1,264,4|0,1:3|0:0,0:0:0:0:
313,318,46439,1,4,1:3:0:0:
313,318,46608,2,0,P|320:248|403:169,1,176,0|4,0:0|1:3,0:0:0:0:
487,36,47117,6,0,P|442:64|381:74,1,110,6|4,3:2|1:3,0:0:0:0:
161,5,47456,2,0,P|198:41|256:64,1,110,4|4,1:3|1:3,0:0:0:0:
444,155,47795,2,0,P|389:161|337:145,1,110,4|4,1:3|1:3,0:0:0:0:
168,308,48134,2,0,P|200:264|212:210,1,110,4|4,1:3|1:3,0:0:0:0:
369,332,48473,5,2,0:2:0:0:
369,332,49829,6,0,P|314:328|263:308,1,110,6|0,3:2|0:0,0:0:0:0:
65,193,50507,2,0,B|37:231|-20:240|-20:240|105:283|118:163|230:213|230:213|122:251|102:356|199:417|326:384|252:253|249:271,1,660,10|0,0:2|0:0,0:0:0:0:
249,137,51185,6,0,P|196:124|142:128,1,110,6|0,3:2|0:0,0:0:0:0:
412,99,51863,2,0,B|461:80|495:140|473:185|417:210|338:189|300:125|336:59|382:13|382:13|336:59|288:16|204:5|115:43|148:184,1,660,10|0,0:2|0:0,0:0:0:0:
424,242,52541,6,0,P|477:229|516:191,1,110,6|0,3:2|0:0,0:0:0:0:
0,300,53219,2,0,L|257:269,1,247.500009441376,10|0,0:2|0:0,0:0:0:0:
337,257,53558,1,0,3:0:0:0:
221,365,53727,1,0,0:0:0:0:
107,180,53897,6,0,P|84:118|32:80,1,131.99999597168,0|0,0:0|0:0,0:0:0:0:
207,38,54236,1,0,3:2:0:0:
164,234,54405,1,0,0:0:0:0:
291,119,54575,2,0,P|335:57|405:36,1,131.99999597168,10|0,0:2|0:0,0:0:0:0:
512,228,54914,2,0,P|422:185|349:211,1,131.99999597168,0|0,0:0|0:0,0:0:0:0:
259,300,55253,6,0,P|240:248|242:185,1,110,6|0,3:2|0:0,0:0:0:0:
461,239,55931,2,0,B|343:258|240:193|240:193|221:345|396:366|396:366|317:201|415:71|415:71|282:150|147:102|147:102|203:245|72:348|72:348|10:306|16:188|16:188|213:350,1,1760,10|10,0:2|0:2,0:0:0:0:
180,323,57625,6,0,P|186:267|146:192,1,131.99999597168,0|0,0:0|0:0,0:0:0:0:
18,127,57964,2,0,P|100:149|72:18,1,263.99999194336,6|0,3:2|0:0,0:0:0:0:
1,107,58473,1,0,0:0:0:0:
218,67,58642,2,0,L|400:40,1,165.000006294251,10|0,0:2|0:0,0:0:0:0:
423,196,58981,1,0,3:0:0:0:
463,27,59151,1,0,0:0:0:0:
489,250,59320,6,0,P|392:239|338:368,1,247.500009441376,0|0,1:0|0:0,0:0:0:0:
411,334,59659,2,0,P|315:285|210:368,1,247.500009441376,0|0,3:0|0:0,0:0:0:0:
134,317,59998,5,10,0:2:0:0:
316,381,60168,1,0,3:0:0:0:
153,185,60337,1,0,0:0:0:0:
212,360,60507,1,0,0:0:0:0:
245,133,60676,6,0,P|261:92|319:47,1,110,6|0,3:2|0:0,0:0:0:0:
123,222,61354,2,0,B|40:253|-34:159|39:52|146:48|188:122|148:237|216:240|358:175|358:175|291:123|313:32,1,660,10|0,0:2|0:0,0:0:0:0:
433,160,62032,6,0,P|423:219|371:249,1,110,6|0,3:2|0:0,0:0:0:0:
234,368,62710,2,0,B|264:338|259:265|179:236|133:292|139:344|139:344|96:233|165:166|165:166|284:160|260:256|392:245,1,660,10|0,0:2|0:0,0:0:0:0:
153,86,63388,6,0,P|109:119|76:163,1,110,6|0,3:2|0:0,0:0:0:0:
489,0,64066,2,0,L|459:251,1,247.500009441376,10|0,0:2|0:0,0:0:0:0:
448,339,64405,1,0,3:0:0:0:
512,180,64575,1,0,0:0:0:0:
363,300,64744,6,0,P|301:324|236:321,1,131.99999597168,0|0,0:0|0:0,0:0:0:0:
111,237,65083,1,0,3:0:0:0:
282,198,65253,1,0,0:0:0:0:
141,108,65422,2,0,P|71:108|13:145,1,131.99999597168,10|0,0:2|0:0,0:0:0:0:
276,45,65761,2,0,P|346:45|404:82,1,131.99999597168,0|0,0:0|0:0,0:0:0:0:
185,12,66100,6,0,P|206:62|214:116,1,110,6|0,3:2|0:0,0:0:0:0:
245,365,66778,2,0,B|309:162|522:100|522:100|549:270|379:301|379:301|384:130|300:19|300:19|271:244|77:301|77:301|111:196|43:116|43:116|242:180,1,1760,10|10,0:2|0:2,0:0:0:0:
231,176,68473,5,0,0:0:0:0:
128,65,68642,1,0,0:0:0:0:
182,247,68812,2,0,P|252:265|307:226,1,131.99999597168,6|0,3:2|0:0,0:0:0:0:
306,40,69151,2,0,P|251:94|239:156,1,131.99999597168,0|0,0:0|0:0,0:0:0:0:
461,268,69490,2,0,L|487:65,1,165.000006294251,10|0,0:2|0:0,0:0:0:0:
322,165,69829,1,0,3:0:0:0:
457,301,69998,1,0,1:0:0:0:
361,262,70168,6,0,B|256:312|255:217|136:281,1,220,0|0,0:0|3:0,0:0:0:0:
148,274,70846,2,0,L|125:148,1,110,12|0,0:2|3:0,0:0:0:0:
416,71,71524,6,0,B|451:65|472:29|472:29|437:107|457:187,1,220,2|0,3:2|0:0,0:0:0:0:
453,173,72202,2,0,L|344:160,1,110,10|0,0:2|0:0,0:0:0:0:
33,93,72880,6,0,B|143:100|67:223|193:229,1,220,0|0,0:0|3:2,0:0:0:0:
183,228,73558,2,0,L|169:346,1,110,10|0,0:2|0:0,0:0:0:0:
445,343,74066,5,0,3:2:0:0:
512,276,74236,2,0,B|428:209|399:300|297:233,1,220,2|0,3:2|0:0,0:0:0:0:
303,237,74914,2,0,L|315:127,1,110,8|0,0:2|0:0,0:0:0:0:
62,30,75592,6,0,P|100:131|73:235,1,220,0|2,0:0|3:2,0:0:0:0:
73,235,76269,2,0,L|209:215,1,110,10|0,0:2|0:0,0:0:0:0:
389,42,76608,5,2,0:3:0:0:
458,116,76778,1,0,3:0:0:0:
479,217,76947,2,0,P|407:273|267:194,1,263.99999194336,2|0,3:2|0:0,0:0:0:0:
186,309,77625,2,0,P|284:336|360:139,1,330.000012588501,10|0,0:2|0:0,0:0:0:0:
20,153,78303,6,0,B|144:142|74:41|197:38,1,220,0|0,0:0|3:0,0:0:0:0:
192,39,78981,2,0,L|182:156,1,110,10|0,0:2|0:0,0:0:0:0:
55,343,79320,5,2,0:2:0:0:
143,315,79490,1,0,3:0:0:0:
232,330,79659,2,0,P|336:356|473:273,1,263.99999194336,0|0,3:0|0:0,0:0:0:0:
418,158,80168,1,0,3:0:0:0:
466,282,80337,2,0,L|441:150,1,110,10|0,0:2|0:0,0:0:0:0:
181,344,81015,6,0,P|105:372|32:340,1,165,0|0,0:0|0:0,0:0:0:0:
175,222,81354,2,0,P|192:243|201:268,1,55,0|0,3:0|0:0,0:0:0:0:
6,272,81524,2,0,P|15:246|32:225,1,55,0|0,0:0|0:0,0:0:0:0:
266,195,81693,2,0,P|177:224|83:103,1,247.500009441376,8|0,0:2|0:0,0:0:0:0:
201,53,82032,2,0,P|205:86|182:138,1,82.5000031471254,0|0,1:0|0:0,0:0:0:0:
13,104,82202,2,0,P|-3:66|0:25,1,82.5000031471254,0|0,1:0|0:0,0:0:0:0:
146,0,82371,5,6,3:2:0:0:
146,0,82880,1,4,1:3:0:0:
233,63,83049,2,0,P|317:86|363:67,1,131.99999597168,4|4,1:3|1:3,0:0:0:0:
437,17,83558,1,0,0:0:0:0:
481,148,83727,2,0,L|492:82,2,65.9999979858399,4|4|4,1:3|1:3|1:3,0:0:0:0:
441,258,84405,2,0,P|384:254|313:306,1,131.99999597168,4|4,1:3|1:3,0:0:0:0:
262,362,84914,1,4,1:3:0:0:
124,311,85083,5,6,3:2:0:0:
124,311,85592,1,4,1:3:0:0:
53,244,85761,2,0,P|37:183|63:115,1,131.99999597168,4|4,1:3|1:3,0:0:0:0:
215,43,86439,6,0,P|273:127|173:104,1,264,4|0,1:3|0:0,0:0:0:0:
330,24,87117,1,4,1:3:0:0:
330,24,87286,2,0,P|354:103|312:191,1,176,0|4,0:0|1:3,0:0:0:0:
184,268,87795,6,0,P|270:253|355:273,1,176,6|4,3:2|1:3,0:0:0:0:
425,323,88303,1,4,1:3:0:0:
512,143,88473,2,0,P|455:209|430:293,1,176,4|4,1:3|1:3,0:0:0:0:
237,139,89151,6,0,B|152:144|196:34|95:46,1,176,4|4,1:3|1:3,0:0:0:0:
10,123,89659,1,0,0:0:0:0:
10,123,89829,2,0,P|68:134|173:69,1,176,4|4,1:3|1:3,0:0:0:0:
225,0,90337,1,0,0:0:0:0:
321,106,90507,6,0,P|364:139|416:153,1,110,6|4,3:2|1:3,0:0:0:0:
327,332,90846,2,0,P|370:298|422:284,1,110,4|4,1:3|1:3,0:0:0:0:
408,31,91185,2,0,P|414:85|442:132,1,110,4|4,1:3|1:3,0:0:0:0:
407,378,91524,2,0,P|413:323|441:276,1,110,4|4,1:3|1:3,0:0:0:0:
199,215,91863,5,2,0:2:0:0:
199,215,93219,6,0,P|144:211|93:229,1,110,6|0,3:2|0:0,0:0:0:0:
379,123,93897,2,0,B|339:112|330:69|330:69|262:137|198:55|141:117|141:117|126:164|62:176|4:161|-14:79|76:18|135:88|106:149|106:149|77:175|98:250,1,660,10|0,0:2|0:0,0:0:0:0:
406,50,94575,6,0,P|447:84|456:138,1,110,6|0,3:2|0:0,0:0:0:0:
326,200,95253,2,0,B|316:262|373:246|372:323|372:323|423:238|312:161|324:67|381:13|455:0|533:29|559:79|520:162|453:137,1,660,10|0,0:2|0:0,0:0:0:0:
291,314,95931,6,0,P|225:323|172:352,1,110,6|0,3:2|0:0,0:0:0:0:
52,31,96608,2,0,L|73:288,1,247.500009441376,10|0,0:2|0:0,0:0:0:0:
82,367,96947,1,0,3:0:0:0:
22,210,97117,1,0,0:0:0:0:
164,113,97286,6,0,B|244:107|223:213|327:190,1,165.000006294251,0|0,0:0|0:0,0:0:0:0:
161,190,97625,1,0,3:0:0:0:
302,116,97795,1,0,0:0:0:0:
170,273,97964,2,0,P|104:273|43:297,1,131.99999597168,10|0,0:2|0:0,0:0:0:0:
381,325,98303,2,0,P|446:325|507:349,1,131.99999597168,0|0,0:0|0:0,0:0:0:0:
263,384,98642,6,0,P|277:331|276:276,1,110,6|0,3:2|0:0,0:0:0:0:
188,19,99320,2,0,B|233:241|489:254|489:254|503:65|317:-5|317:-5|336:259|80:343|80:343|5:226|103:88|103:88|211:339,1,1760,10|10,0:2|0:2,0:0:0:0:
209,336,101015,6,0,P|275:332|338:352,1,131.99999597168,0|0,0:0|0:0,0:0:0:0:
301,155,101354,2,0,P|208:121|236:234,1,263.99999194336,6|0,3:2|0:0,0:0:0:0:
319,187,101863,1,0,0:0:0:0:
94,296,102032,2,0,L|110:121,1,165.000006294251,10|0,0:2|0:0,0:0:0:0:
16,36,102371,1,0,3:0:0:0:
73,210,102541,1,0,0:0:0:0:
224,65,102710,6,0,P|163:11|83:9,1,165.000006294251,0|0,1:0|0:0,0:0:0:0:
200,242,103049,2,0,P|280:240|340:186,1,165.000006294251,0|0,3:0|1:0,0:0:0:0:
295,0,103388,5,10,0:2:0:0:
352,203,103558,1,0,3:0:0:0:
431,23,103727,1,0,0:0:0:0:
246,154,103897,1,0,1:0:0:0:
429,233,104066,6,0,P|431:179|398:135,1,110,6|0,3:2|0:0,0:0:0:0:
279,306,104744,2,0,B|324:315|353:362|353:362|313:260|384:215|301:146|301:146|249:102|261:26|309:-7|399:-8|450:38|417:126|385:151,1,660,10|0,0:2|0:0,0:0:0:0:
263,224,105422,6,0,P|209:221|144:204,1,110,6|0,3:2|0:0,0:0:0:0:
419,25,106100,2,0,B|450:147|337:91|360:213|360:213|337:91|212:31|212:31|252:152|145:213,1,660,10|0,0:2|0:0,0:0:0:0:
395,279,106778,6,0,P|432:244|427:172,1,110,6|0,3:2|0:0,0:0:0:0:
127,296,107456,2,0,L|365:212,1,247.500009441376,10|0,0:2|0:0,0:0:0:0:
434,187,107795,1,0,3:0:0:0:
365,348,107964,1,0,0:0:0:0:
371,142,108134,6,0,P|357:61|315:0,1,131.99999597168,0|0,0:0|0:0,0:0:0:0:
184,128,108473,1,0,3:0:0:0:
369,36,108642,1,0,0:0:0:0:
114,203,108812,2,0,P|83:146|96:82,1,131.99999597168,10|0,0:2|0:0,0:0:0:0:
299,315,109151,2,0,P|329:258|316:194,1,131.99999597168,0|0,0:0|0:0,0:0:0:0:
91,316,109490,6,0,P|141:294|195:297,1,110,6|0,3:2|0:0,0:0:0:0:
512,131,110168,2,0,B|328:132|236:320|236:320|345:231|473:244|473:244|362:73|121:75|121:75|191:231|157:374|157:374|122:247|22:207|22:207|257:166,1,1760,10|10,0:2|0:2,0:0:0:0:
229,170,111863,1,0,0:0:0:0:
121,75,112032,1,0,0:0:0:0:
269,299,112202,6,0,B|400:289|304:153|461:146,1,247.500009441376,6|0,3:2|0:0,0:0:0:0:
505,192,112541,1,0,0:0:0:0:
294,92,112710,1,0,0:0:0:0:
153,356,112880,6,0,P|61:285|185:227,1,280.500005350113,10|0,0:2|0:0,0:0:0:0:
251,283,113219,1,0,3:0:0:0:
145,108,113388,1,0,1:0:0:0:
389,292,113558,6,0,L|415:120,1,165.000006294251,0|0,0:0|1:0,0:0:0:0:
140,76,113897,2,0,L|164:239,1,165.000006294251,0|4,3:0|0:3,0:0:0:0:
403,59,114236,5,12,0:2:0:0:
435,223,114405,1,0,3:0:0:0:
242,42,114575,1,0,0:0:0:0:
166,267,114744,1,0,0:0:0:0:
492,128,114914,5,6,0:2:0:0:
492,128,115592,2,0,L|419:140,1,66,0|0,0:0|0:0,0:0:0:0:
331,197,116269,6,0,B|258:249|165:220|165:220|208:184,1,220,0|0,0:0|0:0,0:0:0:0:
200,190,116947,2,0,L|184:117,1,66,0|0,0:0|0:0,0:0:0:0:
169,46,117625,6,0,B|259:75|327:18|327:18|350:108|431:126|483:123|514:58|484:0|426:9|404:25,1,461.999985900879,6|0,3:2|0:0,0:0:0:0:
419,18,118981,1,0,0:0:0:0:
395,234,119490,2,0,P|384:201|386:168,1,65.9999979858399,0|0,0:0|0:0,0:0:0:0:
43,336,120337,5,6,3:2:0:0:
43,336,121015,2,0,B|141:262|118:114|118:114|-3:133|10:251|10:251|202:198,1,615.999981201173,0|10,0:0|0:2,0:0:0:0:
174,205,122710,2,0,P|208:222|246:227,1,76.9999976501466,0|0,0:0|0:0,0:0:0:0:
243,54,123049,6,0,P|243:99|233:141,1,88,6|0,3:2|0:0,0:0:0:0:
97,162,123388,2,0,P|87:119|87:75,1,88,0|0,0:0|0:0,0:0:0:0:
378,122,123727,2,0,P|339:143|307:173,1,88,14|0,0:2|0:0,0:0:0:0:
36,231,124066,2,0,P|74:252|106:282,1,88,0|0,3:0|0:0,0:0:0:0:
337,344,124405,5,0,1:0:0:0:
296,279,124575,1,0,0:0:0:0:
414,325,124744,1,0,3:0:0:0:
441,205,124914,1,0,1:0:0:0:
266,376,125083,5,10,0:2:0:0:
233,181,125253,1,0,3:0:0:0:
458,384,125422,1,0,0:0:0:0:
499,148,125592,1,0,1:0:0:0:
373,266,125761,6,0,P|320:278|258:261,1,110,6|0,3:2|0:0,0:0:0:0:
71,178,126439,2,0,B|79:95|150:61|150:61|191:158|83:344|83:344|140:259|213:353|272:256,1,660,10|0,0:2|0:0,0:0:0:0:
232,133,127117,6,0,P|230:78|213:26,1,110,6|0,3:2|0:0,0:0:0:0:
386,153,127795,2,0,B|382:104|432:66|432:66|514:198|391:266|391:266|254:213|362:67|211:25,1,660,10|0,0:2|0:0,0:0:0:0:
272,259,128473,6,0,P|310:300|358:327,1,110,6|0,3:2|0:0,0:0:0:0:
87,348,129151,2,0,L|66:94,1,247.500009441376,10|0,0:2|0:0,0:0:0:0:
58,17,129490,1,0,3:0:0:0:
28,183,129659,1,0,0:0:0:0:
177,68,129829,6,0,B|320:47|264:151|452:125,1,263.99999194336,0|0,0:0|3:0,0:0:0:0:
383,26,130337,1,0,0:0:0:0:
213,170,130507,2,0,L|204:338,1,165.000006294251,10|0,0:2|0:0,0:0:0:0:
481,214,131185,6,0,P|426:210|378:235,1,110,6|0,3:2|0:0,0:0:0:0:
94,355,131863,2,0,B|204:264|190:37|190:37|59:112|59:292|59:292|182:186|389:227|389:227|348:322|236:345|236:345|299:190|291:44|291:44|487:219,1,1760,10|10,0:2|0:2,0:0:0:0:
480,213,133558,1,0,0:0:0:0:
455,68,133727,1,0,0:0:0:0:
379,218,133897,6,0,P|321:185|257:171,1,131.99999597168,6|0,3:2|0:0,0:0:0:0:
127,229,134236,1,0,0:0:0:0:
253,96,134405,1,0,0:0:0:0:
120,203,134575,2,0,L|88:41,1,165.000006294251,10|0,0:2|1:0,0:0:0:0:
37,290,134914,2,0,P|25:209|-22:142,1,131.99999597168,0|0,3:0|1:0,0:0:0:0:
351,270,135253,6,0,P|244:227|191:228,1,131.99999597168,0|0,0:0|1:0,0:0:0:0:
114,50,135592,2,0,P|215:90|255:87,1,131.99999597168,0|4,3:0|0:3,0:0:0:0:
131,228,135931,2,0,L|112:370,1,131.99999597168,12|0,0:2|3:0,0:0:0:0:
357,167,136269,2,0,P|349:102|367:39,1,131.99999597168,0|0,0:0|0:0,0:0:0:0:
432,282,136608,5,6,3:2:0:0:
357,167,137286,2,0,L|348:102,1,66,0|0,0:0|0:0,0:0:0:0:
204,208,137964,5,6,0:2:0:0:
219,95,138642,2,0,L|227:30,1,66,0|0,0:0|0:0,0:0:0:0:
256,384,140394,5,12,0:3:0:0:
