osu file format v14

[General]
AudioFilename: audio.mp3
AudioLeadIn: 0
PreviewTime: 91863
Countdown: 0
SampleSet: Soft
StackLeniency: 0.6
Mode: 0
LetterboxInBreaks: 0
EpilepsyWarning: 1
WidescreenStoryboard: 1

[Editor]
Bookmarks: 17286,49829,71524,93219
DistanceSpacing: 1.4
BeatDivisor: 4
GridSize: 32
TimelineZoom: 2.1

[Metadata]
Title:RISE (ft. The Glitch Mob, Mako, and The Word Alive)
TitleUnicode:RISE (ft. The Glitch Mob, Mako, and The Word Alive)
Artist:League of Legends
ArtistUnicode:League of Legends
Creator:SquareTude
Version:Mathollo's Hard
Source:League of Legends
Tags:Worlds 2018 Riot Games Megapcmx Celektus RVMathew Nelliel Apo11o MinorSonek ChaoticRed Zelq [[Pika]]
BeatmapID:1806548
BeatmapSetID:858938

[Difficulty]
HPDrainRate:4.8
CircleSize:4
OverallDifficulty:6
ApproachRate:7.5
SliderMultiplier:1.4
SliderTickRate:1

[Events]
//Background and Video events
0,0,"best bg ever.png",0,0
//Break Periods
//Storyboard Layer 0 (Background)
//Storyboard Layer 1 (Fail)
//Storyboard Layer 2 (Pass)
//Storyboard Layer 3 (Foreground)
Sprite,Foreground,Centre,"sb/sprites/c2.png",283,186 S,2,49829,50495,0.2,0.4 F,2,49829,50495,0.5,0 P,0,49829,51003,A
Sprite,Foreground,Centre,"sb/sprites/c2.png",378,90 S,2,50507,51173,0.2,0.4 F,2,50507,51173,0.5,0 P,0,50507,51681,A
Sprite,Foreground,Centre,"sb/sprites/c2.png",389,413 S,2,51185,51851,0.2,0.4 F,2,51185,51851,0.5,0 P,0,51185,52359,A
Sprite,Foreground,Centre,"sb/sprites/c2.png",250,424 S,2,51863,52529,0.2,0.4 F,2,51863,52529,0.5,0 P,0,51863,53037,A
Sprite,Foreground,Centre,"sb/sprites/c2.png",245,103 S,2,52541,53207,0.2,0.4 F,2,52541,53207,0.5,0 P,0,52541,53715,A
Sprite,Foreground,Centre,"sb/sprites/c2.png",182,203 S,2,53219,53885,0.2,0.4 F,2,53219,53885,0.5,0 P,0,53219,54054,A
Sprite,Foreground,Centre,"sb/sprites/c2.png",346,284 S,2,53558,54224,0.2,0.4 F,2,53558,54224,0.5,0 P,0,53558,54393,A
Sprite,Foreground,Centre,"sb/sprites/c2.png",332,186 S,2,53897,54563,0.2,0.4 F,2,53897,54563,0.5,0 P,0,53897,54901,A
Sprite,Foreground,Centre,"sb/sprites/c2.png",553,107 S,2,54405,55071,0.2,0.4 F,2,54405,55071,0.5,0 P,0,54405,55071,A
Sprite,Foreground,Centre,"sb/sprites/c2.png",558,246 S,2,54575,55241,0.2,0.4 F,2,54575,55241,0.5,0 P,0,54575,55579,A
Sprite,Foreground,Centre,"sb/sprites/c2.png",344,246 S,2,55253,55919,0.2,0.4 F,2,55253,55919,0.5,0 P,0,55253,56257,A
Sprite,Foreground,Centre,"sb/sprites/c2.png",248,306 S,2,55761,56427,0.2,0.4 F,2,55761,56427,0.5,0 P,0,55761,56427,A
Sprite,Foreground,Centre,"sb/sprites/c2.png",144,364 S,2,55931,56597,0.2,0.4 F,2,55931,56597,0.5,0 P,0,55931,56935,A
Sprite,Foreground,Centre,"sb/sprites/c2.png",202,208 S,2,56439,57105,0.2,0.4 F,2,56439,57105,0.5,0 P,0,56439,57105,A
Sprite,Foreground,Centre,"sb/sprites/c2.png",314,168 S,2,56608,57274,0.2,0.4 F,2,56608,57274,0.5,0 P,0,56608,57951,A
Sprite,Foreground,Centre,"sb/sprites/c2.png",202,208 S,2,57456,58122,0.2,0.4 F,2,57456,58122,0.5,0 P,0,57456,58122,A
Sprite,Foreground,Centre,"sb/sprites/c2.png",293,284 S,2,57625,58291,0.2,0.4 F,2,57625,58291,0.5,0 P,0,57625,58460,A
Sprite,Foreground,Centre,"sb/sprites/c2.png",459,201 S,2,57964,58630,0.2,0.4 F,2,57964,58630,0.5,0 P,0,57964,58968,A
Sprite,Foreground,Centre,"sb/sprites/c2.png",386,386 S,2,58473,59139,0.2,0.4 F,2,58473,59139,0.5,0 P,0,58473,59139,A
Sprite,Foreground,Centre,"sb/sprites/c2.png",361,270 S,2,58642,59308,0.2,0.4 F,2,58642,59308,0.5,0 P,0,58642,59308,A
Sprite,Foreground,Centre,"sb/sprites/c2.png",273,351 S,2,58812,59478,0.2,0.4 F,2,58812,59478,0.5,0 P,0,58812,59478,A
Sprite,Foreground,Centre,"sb/sprites/c2.png",386,386 S,2,58981,59647,0.2,0.4 F,2,58981,59647,0.5,0 P,0,58981,59816,A
Sprite,Foreground,Centre,"sb/sprites/c2.png",341,248 S,2,59320,59986,0.2,0.4 F,2,59320,59986,0.5,0 P,0,59320,60324,A
Sprite,Foreground,Centre,"sb/sprites/c2.png",110,205 S,2,59829,60495,0.2,0.4 F,2,59829,60495,0.5,0 P,0,59829,60495,A
Sprite,Foreground,Centre,"sb/sprites/c2.png",176,106 S,2,59998,60664,0.2,0.4 F,2,59998,60664,0.5,0 P,0,59998,60833,A
Sprite,Foreground,Centre,"sb/sprites/c2.png",347,149 S,2,60337,61003,0.2,0.4 F,2,60337,61003,0.5,0 P,0,60337,61172,A
Sprite,Foreground,Centre,"sb/sprites/c2.png",518,192 S,2,60676,61342,0.2,0.4 F,2,60676,61342,0.5,0 P,0,60676,61850,A
Sprite,Foreground,Centre,"sb/sprites/c2.png",547,307 S,2,61354,62020,0.2,0.4 F,2,61354,62020,0.5,0 P,0,61354,62528,A
Sprite,Foreground,Centre,"sb/sprites/c2.png",337,354 S,2,62032,62698,0.2,0.4 F,2,62032,62698,0.5,0 P,0,62032,63206,A
Sprite,Foreground,Centre,"sb/sprites/c2.png",251,292 S,2,62710,63376,0.2,0.4 F,2,62710,63376,0.5,0 P,0,62710,63884,A
Sprite,Foreground,Centre,"sb/sprites/c2.png",244,72 S,2,63388,64054,0.2,0.4 F,2,63388,64054,0.5,0 P,0,63388,64562,A
Sprite,Foreground,Centre,"sb/sprites/c2.png",494,63 S,2,64066,64732,0.2,0.4 F,2,64066,64732,0.5,0 P,0,64066,64901,A
Sprite,Foreground,Centre,"sb/sprites/c2.png",428,222 S,2,64405,65071,0.2,0.4 F,2,64405,65071,0.5,0 P,0,64405,65240,A
Sprite,Foreground,Centre,"sb/sprites/c2.png",526,208 S,2,64744,65410,0.2,0.4 F,2,64744,65410,0.5,0 P,0,64744,65748,A
Sprite,Foreground,Centre,"sb/sprites/c2.png",436,416 S,2,65253,65919,0.2,0.4 F,2,65253,65919,0.5,0 P,0,65253,65919,A
Sprite,Foreground,Centre,"sb/sprites/c2.png",331,363 S,2,65422,66088,0.2,0.4 F,2,65422,66088,0.5,0 P,0,65422,66426,A
Sprite,Foreground,Centre,"sb/sprites/c2.png",295,229 S,2,66100,66766,0.2,0.4 F,2,66100,66766,0.5,0 P,0,66100,67104,A
Sprite,Foreground,Centre,"sb/sprites/c2.png",265,143 S,2,66608,67274,0.2,0.4 F,2,66608,67274,0.5,0 P,0,66608,67274,A
Sprite,Foreground,Centre,"sb/sprites/c2.png",163,80 S,2,66778,67444,0.2,0.4 F,2,66778,67444,0.5,0 P,0,66778,67782,A
Sprite,Foreground,Centre,"sb/sprites/c2.png",378,143 S,2,67286,67952,0.2,0.4 F,2,67286,67952,0.5,0 P,0,67286,67952,A
Sprite,Foreground,Centre,"sb/sprites/c2.png",460,56 S,2,67456,68122,0.2,0.4 F,2,67456,68122,0.5,0 P,0,67456,68799,A
Sprite,Foreground,Centre,"sb/sprites/c2.png",378,143 S,2,68303,68969,0.2,0.4 F,2,68303,68969,0.5,0 P,0,68303,68969,A
Sprite,Foreground,Centre,"sb/sprites/c2.png",477,210 S,2,68473,69139,0.2,0.4 F,2,68473,69139,0.5,0 P,0,68473,69308,A
Sprite,Foreground,Centre,"sb/sprites/c2.png",420,341 S,2,68812,69478,0.2,0.4 F,2,68812,69478,0.5,0 P,0,68812,69816,A
Sprite,Foreground,Centre,"sb/sprites/c2.png",218,418 S,2,69320,69986,0.2,0.4 F,2,69320,69986,0.5,0 P,0,69320,69986,A
Sprite,Foreground,Centre,"sb/sprites/c2.png",128,340 S,2,69490,70156,0.2,0.4 F,2,69490,70156,0.5,0 P,0,69490,70325,A
Sprite,Foreground,Centre,"sb/sprites/c2.png",214,213 S,2,69829,70495,0.2,0.4 F,2,69829,70495,0.5,0 P,0,69829,70664,A
Sprite,Foreground,Centre,"sb/sprites/c2.png",321,121 S,2,93219,93885,0.2,0.4 F,2,93219,93885,0.5,0 P,0,93219,94393,A
Sprite,Foreground,Centre,"sb/sprites/c2.png",448,165 S,2,93897,94563,0.2,0.4 F,2,93897,94563,0.5,0 P,0,93897,95071,A
Sprite,Foreground,Centre,"sb/sprites/c2.png",291,438 S,2,94575,95241,0.2,0.4 F,2,94575,95241,0.5,0 P,0,94575,95749,A
Sprite,Foreground,Centre,"sb/sprites/c2.png",164,394 S,2,95253,95919,0.2,0.4 F,2,95253,95919,0.5,0 P,0,95253,96427,A
Sprite,Foreground,Centre,"sb/sprites/c2.png",127,93 S,2,95931,96597,0.2,0.4 F,2,95931,96597,0.5,0 P,0,95931,97105,A
Sprite,Foreground,Centre,"sb/sprites/c2.png",385,102 S,2,96608,97274,0.2,0.4 F,2,96608,97274,0.5,0 P,0,96608,97443,A
Sprite,Foreground,Centre,"sb/sprites/c2.png",296,233 S,2,96947,97613,0.2,0.4 F,2,96947,97613,0.5,0 P,0,96947,97782,A
Sprite,Foreground,Centre,"sb/sprites/c2.png",207,364 S,2,97286,97952,0.2,0.4 F,2,97286,97952,0.5,0 P,0,97286,98290,A
Sprite,Foreground,Centre,"sb/sprites/c2.png",211,248 S,2,97795,98461,0.2,0.4 F,2,97795,98461,0.5,0 P,0,97795,98461,A
Sprite,Foreground,Centre,"sb/sprites/c2.png",102,202 S,2,97964,98630,0.2,0.4 F,2,97964,98630,0.5,0 P,0,97964,98968,A
Sprite,Foreground,Centre,"sb/sprites/c2.png",376,300 S,2,98642,99308,0.2,0.4 F,2,98642,99308,0.5,0 P,0,98642,99646,A
Sprite,Foreground,Centre,"sb/sprites/c2.png",505,108 S,2,99151,99817,0.2,0.4 F,2,99151,99817,0.5,0 P,0,99151,99817,A
Sprite,Foreground,Centre,"sb/sprites/c2.png",563,211 S,2,99320,99986,0.2,0.4 F,2,99320,99986,0.5,0 P,0,99320,100324,A
Sprite,Foreground,Centre,"sb/sprites/c2.png",473,428 S,2,99829,100495,0.2,0.4 F,2,99829,100495,0.5,0 P,0,99829,100495,A
Sprite,Foreground,Centre,"sb/sprites/c2.png",373,364 S,2,99998,100664,0.2,0.4 F,2,99998,100664,0.5,0 P,0,99998,101341,A
Sprite,Foreground,Centre,"sb/sprites/c2.png",270,304 S,2,100846,101512,0.2,0.4 F,2,100846,101512,0.5,0 P,0,100846,101512,A
Sprite,Foreground,Centre,"sb/sprites/c2.png",319,196 S,2,101015,101681,0.2,0.4 F,2,101015,101681,0.5,0 P,0,101015,101850,A
Sprite,Foreground,Centre,"sb/sprites/c2.png",276,81 S,2,101354,102020,0.2,0.4 F,2,101354,102020,0.5,0 P,0,101354,102358,A
Sprite,Foreground,Centre,"sb/sprites/c2.png",77,177 S,2,101863,102529,0.2,0.4 F,2,101863,102529,0.5,0 P,0,101863,102529,A
Sprite,Foreground,Centre,"sb/sprites/c2.png",194,196 S,2,102032,102698,0.2,0.4 F,2,102032,102698,0.5,0 P,0,102032,102698,A
Sprite,Foreground,Centre,"sb/sprites/c2.png",118,288 S,2,102202,102868,0.2,0.4 F,2,102202,102868,0.5,0 P,0,102202,102868,A
Sprite,Foreground,Centre,"sb/sprites/c2.png",77,177 S,2,102371,103037,0.2,0.4 F,2,102371,103037,0.5,0 P,0,102371,103206,A
Sprite,Foreground,Centre,"sb/sprites/c2.png",252,121 S,2,102710,103376,0.2,0.4 F,2,102710,103376,0.5,0 P,0,102710,103714,A
Sprite,Foreground,Centre,"sb/sprites/c2.png",238,360 S,2,103219,103885,0.2,0.4 F,2,103219,103885,0.5,0 P,0,103219,103885,A
Sprite,Foreground,Centre,"sb/sprites/c2.png",338,297 S,2,103388,104054,0.2,0.4 F,2,103388,104054,0.5,0 P,0,103388,104223,A
Sprite,Foreground,Centre,"sb/sprites/c2.png",513,235 S,2,103727,104393,0.2,0.4 F,2,103727,104393,0.5,0 P,0,103727,104562,A
Sprite,Foreground,Centre,"sb/sprites/c2.png",355,141 S,2,104066,104732,0.2,0.4 F,2,104066,104732,0.5,0 P,0,104066,105240,A
Sprite,Foreground,Centre,"sb/sprites/c2.png",401,56 S,2,104744,105410,0.2,0.4 F,2,104744,105410,0.5,0 P,0,104744,105918,A
Sprite,Foreground,Centre,"sb/sprites/c2.png",167,217 S,2,105422,106088,0.2,0.4 F,2,105422,106088,0.5,0 P,0,105422,106596,A
Sprite,Foreground,Centre,"sb/sprites/c2.png",88,278 S,2,106100,106766,0.2,0.4 F,2,106100,106766,0.5,0 P,0,106100,107274,A
Sprite,Foreground,Centre,"sb/sprites/c2.png",422,276 S,2,106778,107444,0.2,0.4 F,2,106778,107444,0.5,0 P,0,106778,107952,A
Sprite,Foreground,Centre,"sb/sprites/c2.png",562,287 S,2,107456,108122,0.2,0.4 F,2,107456,108122,0.5,0 P,0,107456,108291,A
Sprite,Foreground,Centre,"sb/sprites/c2.png",470,433 S,2,107795,108461,0.2,0.4 F,2,107795,108461,0.5,0 P,0,107795,108630,A
Sprite,Foreground,Centre,"sb/sprites/c2.png",361,312 S,2,108134,108800,0.2,0.4 F,2,108134,108800,0.5,0 P,0,108134,109138,A
Sprite,Foreground,Centre,"sb/sprites/c2.png",118,362 S,2,108642,109308,0.2,0.4 F,2,108642,109308,0.5,0 P,0,108642,109308,A
Sprite,Foreground,Centre,"sb/sprites/c2.png",157,249 S,2,108812,109478,0.2,0.4 F,2,108812,109478,0.5,0 P,0,108812,109816,A
Sprite,Foreground,Centre,"sb/sprites/c2.png",361,312 S,2,109490,110156,0.2,0.4 F,2,109490,110156,0.5,0 P,0,109490,110494,A
Sprite,Foreground,Centre,"sb/sprites/c2.png",335,85 S,2,109998,110664,0.2,0.4 F,2,109998,110664,0.5,0 P,0,109998,110664,A
Sprite,Foreground,Centre,"sb/sprites/c2.png",452,62 S,2,110168,110834,0.2,0.4 F,2,110168,110834,0.5,0 P,0,110168,111172,A
Sprite,Foreground,Centre,"sb/sprites/c2.png",455,264 S,2,110676,111342,0.2,0.4 F,2,110676,111342,0.5,0 P,0,110676,111342,A
Sprite,Foreground,Centre,"sb/sprites/c2.png",572,288 S,2,110846,111512,0.2,0.4 F,2,110846,111512,0.5,0 P,0,110846,112189,A
Sprite,Foreground,Centre,"sb/sprites/c2.png",455,264 S,2,111693,112359,0.2,0.4 F,2,111693,112359,0.5,0 P,0,111693,112359,A
Sprite,Foreground,Centre,"sb/sprites/c2.png",361,337 S,2,111863,112529,0.2,0.4 F,2,111863,112529,0.5,0 P,0,111863,112698,A
Sprite,Foreground,Centre,"sb/sprites/c2.png",312,223 S,2,112202,112868,0.2,0.4 F,2,112202,112868,0.5,0 P,0,112202,113037,A
Sprite,Foreground,Centre,"sb/sprites/c2.png",486,162 S,2,112541,113207,0.2,0.4 F,2,112541,113207,0.5,0 P,0,112541,113376,A
Sprite,Foreground,Centre,"sb/sprites/c2.png",306,202 S,2,112880,113546,0.2,0.4 F,2,112880,113546,0.5,0 P,0,112880,113546,A
Sprite,Foreground,Centre,"sb/sprites/c2.png",245,100 S,2,113049,113715,0.2,0.4 F,2,113049,113715,0.5,0 P,0,113049,113715,A
Sprite,Foreground,Centre,"sb/sprites/c2.png",364,99 S,2,113219,113885,0.2,0.4 F,2,113219,113885,0.5,0 P,0,113219,113885,A
Sprite,Foreground,Centre,"sb/sprites/c2.png",306,202 S,2,113388,114054,0.2,0.4 F,2,113388,114054,0.5,0 P,0,113388,114054,A
Sprite,Foreground,Centre,"sb/sprites/c2.png",245,100 S,2,113558,114224,0.2,0.4 F,2,113558,114224,0.5,0 P,0,113558,114393,A
Sprite,Foreground,Centre,"sb/sprites/c2.png",110,222 S,2,113897,114563,0.2,0.4 F,2,113897,114563,0.5,0 P,0,113897,114732,A
Sprite,Foreground,Centre,"sb/sprites/c2.png",203,384 S,2,114236,114902,0.2,0.4 F,2,114236,114902,0.5,0 P,0,114236,114902,A
Sprite,Foreground,Centre,"sb/sprites/c2.png",230,269 S,2,114405,115071,0.2,0.4 F,2,114405,115071,0.5,0 P,0,114405,115071,A
Sprite,Foreground,Centre,"sb/sprites/c2.png",306,361 S,2,114575,115241,0.2,0.4 F,2,114575,115241,0.5,0 P,0,114575,115410,A
Sprite,Foreground,Centre,"sb/sprites/c2.png",129,236 S,2,125761,126427,0.2,0.4 F,2,125761,126427,0.5,0 P,0,125761,126935,A
Sprite,Foreground,Centre,"sb/sprites/c2.png",201,340 S,2,126439,127105,0.2,0.4 F,2,126439,127105,0.5,0 P,0,126439,127613,A
Sprite,Foreground,Centre,"sb/sprites/c2.png",434,369 S,2,127117,127783,0.2,0.4 F,2,127117,127783,0.5,0 P,0,127117,128291,A
Sprite,Foreground,Centre,"sb/sprites/c2.png",540,288 S,2,127795,128461,0.2,0.4 F,2,127795,128461,0.5,0 P,0,127795,128969,A
Sprite,Foreground,Centre,"sb/sprites/c2.png",469,84 S,2,128473,129139,0.2,0.4 F,2,128473,129139,0.5,0 P,0,128473,129647,A
Sprite,Foreground,Centre,"sb/sprites/c2.png",226,56 S,2,129151,129817,0.2,0.4 F,2,129151,129817,0.5,0 P,0,129151,129986,A
Sprite,Foreground,Centre,"sb/sprites/c2.png",301,184 S,2,129490,130156,0.2,0.4 F,2,129490,130156,0.5,0 P,0,129490,130156,A
Sprite,Foreground,Centre,"sb/sprites/c2.png",195,238 S,2,129659,130325,0.2,0.4 F,2,129659,130325,0.5,0 P,0,129659,130325,A
Sprite,Foreground,Centre,"sb/sprites/c2.png",292,307 S,2,129829,130495,0.2,0.4 F,2,129829,130495,0.5,0 P,0,129829,130664,A
Sprite,Foreground,Centre,"sb/sprites/c2.png",459,237 S,2,130168,130834,0.2,0.4 F,2,130168,130834,0.5,0 P,0,130168,130834,A
Sprite,Foreground,Centre,"sb/sprites/c2.png",514,341 S,2,130337,131003,0.2,0.4 F,2,130337,131003,0.5,0 P,0,130337,131003,A
Sprite,Foreground,Centre,"sb/sprites/c2.png",414,406 S,2,130507,131173,0.2,0.4 F,2,130507,131173,0.5,0 P,0,130507,131342,A
Sprite,Foreground,Centre,"sb/sprites/c2.png",230,371 S,2,130846,131512,0.2,0.4 F,2,130846,131512,0.5,0 P,0,130846,131512,A
Sprite,Foreground,Centre,"sb/sprites/c2.png",111,165 S,2,131185,131851,0.2,0.4 F,2,131185,131851,0.5,0 P,0,131185,132189,A
Sprite,Foreground,Centre,"sb/sprites/c2.png",207,94 S,2,131693,132359,0.2,0.4 F,2,131693,132359,0.5,0 P,0,131693,132359,A
Sprite,Foreground,Centre,"sb/sprites/c2.png",265,198 S,2,131863,132529,0.2,0.4 F,2,131863,132529,0.5,0 P,0,131863,132867,A
Sprite,Foreground,Centre,"sb/sprites/c2.png",495,148 S,2,132371,133037,0.2,0.4 F,2,132371,133037,0.5,0 P,0,132371,133037,A
Sprite,Foreground,Centre,"sb/sprites/c2.png",576,236 S,2,132541,133207,0.2,0.4 F,2,132541,133207,0.5,0 P,0,132541,133545,A
Sprite,Foreground,Centre,"sb/sprites/c2.png",442,415 S,2,133049,133715,0.2,0.4 F,2,133049,133715,0.5,0 P,0,133049,133715,A
Sprite,Foreground,Centre,"sb/sprites/c2.png",332,368 S,2,133219,133885,0.2,0.4 F,2,133219,133885,0.5,0 P,0,133219,134054,A
Sprite,Foreground,Centre,"sb/sprites/c2.png",494,271 S,2,133558,134224,0.2,0.4 F,2,133558,134224,0.5,0 P,0,133558,134393,A
Sprite,Foreground,Centre,"sb/sprites/c2.png",328,179 S,2,133897,134563,0.2,0.4 F,2,133897,134563,0.5,0 P,0,133897,134901,A
Sprite,Foreground,Centre,"sb/sprites/c2.png",174,371 S,2,134405,135071,0.2,0.4 F,2,134405,135071,0.5,0 P,0,134405,135071,A
Sprite,Foreground,Centre,"sb/sprites/c2.png",141,256 S,2,134575,135241,0.2,0.4 F,2,134575,135241,0.5,0 P,0,134575,135241,A
Sprite,Foreground,Centre,"sb/sprites/c2.png",256,285 S,2,134744,135410,0.2,0.4 F,2,134744,135410,0.5,0 P,0,134744,135410,A
Sprite,Foreground,Centre,"sb/sprites/c2.png",174,371 S,2,134914,135580,0.2,0.4 F,2,134914,135580,0.5,0 P,0,134914,135749,A
Sprite,Foreground,Centre,"sb/sprites/c2.png",71,223 S,2,135253,135919,0.2,0.4 F,2,135253,135919,0.5,0 P,0,135253,136088,A
Sprite,Foreground,Centre,"sb/sprites/c2.png",235,146 S,2,135592,136258,0.2,0.4 F,2,135592,136258,0.5,0 P,0,135592,136258,A
Sprite,Foreground,Centre,"sb/sprites/c2.png",142,73 S,2,135761,136427,0.2,0.4 F,2,135761,136427,0.5,0 P,0,135761,136427,A
Sprite,Foreground,Centre,"sb/sprites/c2.png",261,65 S,2,135931,136597,0.2,0.4 F,2,135931,136597,0.5,0 P,0,135931,136766,A
Sprite,Foreground,Centre,"sb/sprites/c2.png",449,81 S,2,136269,136935,0.2,0.4 F,2,136269,136935,0.5,0 P,0,136269,137104,A
Sprite,Foreground,Centre,"sb/sprites/c.png",0,0 C,0,17286,,255,255,255 F,0,17286,,0.9 S,7,17286,18396,0.2,0.6 F,0,17287,18397,0.9,0 M,0,17286,,462,111 R,22,17287,18397,0,2 P,0,17286,18396,A C,0,19998,,255,255,255 F,0,19998,,0.9 S,7,19998,21108,0.2,0.6 F,0,19999,21109,0.9,0 M,0,19998,,125,235 R,22,19999,21109,0,-1 P,0,19998,21108,A C,0,22710,,255,255,255 F,0,22710,,0.9 S,7,22710,23820,0.2,0.6 F,0,22711,23821,0.9,0 M,0,22710,,549,270 R,22,22711,23821,0,-3 P,0,22710,23820,A C,0,25422,,255,255,255 F,0,25422,,0.9 S,7,25422,26532,0.2,0.6 F,0,25423,26533,0.9,0 M,0,25422,,175,297 R,22,25423,26533,0,3 P,0,25422,26532,A C,0,28134,,255,255,255 F,0,28134,,0.9 S,7,28134,29244,0.2,0.6 F,0,28135,29245,0.9,0 M,0,28134,,457,89 R,22,28135,29245,0,-4 P,0,28134,29244,A C,0,30846,,255,255,255 F,0,30846,,0.9 S,7,30846,31956,0.2,0.6 F,0,30847,31957,0.9,0 M,0,30846,,222,427 R,22,30847,31957,0,-2 P,0,30846,31956,A C,0,33558,,255,255,255 F,0,33558,,0.9 S,7,33558,34668,0.2,0.6 F,0,33559,34669,0.9,0 M,0,33558,,394,165 R,22,33559,34669,0,2 P,0,33558,34668,A C,0,36269,,255,255,255 F,0,36269,,0.9 S,7,36269,37379,0.2,0.6 F,0,36270,37380,0.9,0 M,0,36269,,439,135 R,22,36270,37380,0,-1 P,0,36269,37379,A C,0,38981,,255,255,255 F,0,38981,,0.9 S,7,38981,40091,0.2,0.6 F,0,38982,40092,0.9,0 M,0,38981,,102,386 R,22,38982,40092,0,-3 P,0,38981,40091,A C,0,41693,,255,255,255 F,0,41693,,0.9 S,7,41693,42803,0.2,0.6 F,0,41694,42804,0.9,0 M,0,41693,,289,367 R,22,41694,42804,0,-4 P,0,41693,42803,A C,0,44405,,255,255,255 F,0,44405,,0.9 S,7,44405,45515,0.2,0.6 F,0,44406,45516,0.9,0 M,0,44405,,453,105 R,22,44406,45516,0,2 P,0,44405,45515,A C,0,47117,,255,255,255 F,0,47117,,0.9 S,7,47117,48227,0.2,0.6 F,0,47118,48228,0.9,0 M,0,47117,,481,278 R,22,47118,48228,0,-4 P,0,47117,48227,A C,0,71524,,255,255,255 F,0,71524,,0.9 S,7,71524,72634,0.2,0.6 F,0,71525,72635,0.9,0 M,0,71524,,388,96 R,22,71525,72635,0,-4 P,0,71524,72634,A C,0,74236,,255,255,255 F,0,74236,,0.9 S,7,74236,75346,0.2,0.6 F,0,74237,75347,0.9,0 M,0,74236,,375,362 R,22,74237,75347,0 P,0,74236,75346,A C,0,76947,,255,255,255 F,0,76947,,0.9 S,7,76947,78057,0.2,0.6 F,0,76948,78058,0.9,0 M,0,76947,,257,370 R,22,76948,78058,0,-1 P,0,76947,78057,A
Sprite,Foreground,Centre,"sb/sprites/c.png",0,0 C,0,79659,,255,255,255 F,0,79659,,0.9 S,7,79659,80769,0.2,0.6 F,0,79660,80770,0.9,0 M,0,79659,,260,310 R,22,79660,80770,0,-2 P,0,79659,80769,A C,0,82371,,255,255,255 F,0,82371,,0.9 S,7,82371,83481,0.2,0.6 F,0,82372,83482,0.9,0 M,0,82371,,185,137 R,22,82372,83482,0,1 P,0,82371,83481,A C,0,85083,,255,255,255 F,0,85083,,0.9 S,7,85083,86193,0.2,0.6 F,0,85084,86194,0.9,0 M,0,85083,,183,375 R,22,85084,86194,0,-3 P,0,85083,86193,A C,0,87795,,255,255,255 F,0,87795,,0.9 S,7,87795,88905,0.2,0.6 F,0,87796,88906,0.9,0 M,0,87795,,235,371 R,22,87796,88906,0,1 P,0,87795,88905,A C,0,90507,,255,255,255 F,0,90507,,0.9 S,7,90507,91617,0.2,0.6 F,0,90508,91618,0.9,0 M,0,90507,,194,337 R,22,90508,91618,0,-4 P,0,90507,91617,A C,0,124405,,255,255,255 F,0,124405,,0.9 S,7,124405,125515,0.2,0.6 F,0,124406,125516,0.9,0 M,0,124405,,533,112 R,22,124406,125516,0,-4 P,0,124405,125515,A C,0,125592,,255,255,255 F,0,125592,,0.9 S,7,125592,126702,0.2,0.6 F,0,125593,126703,0.9,0 M,0,125592,,168,124 R,22,125593,126703,0,3 P,0,125592,126702,A
Sprite,Foreground,Centre,"sb/sprites/c.png",0,0 C,0,124914,,255,255,255 F,0,124914,,0.9 S,7,124914,126024,0.2,0.6 F,0,124915,126025,0.9,0 M,0,124914,,439,184 R,22,124915,126025,0,-2 P,0,124914,126024,A
Sprite,Foreground,Centre,"sb/sprites/c.png",0,0 C,0,125083,,255,255,255 F,0,125083,,0.9 S,7,125083,126193,0.2,0.6 F,0,125084,126194,0.9,0 M,0,125083,,369,88 R,22,125084,126194,0,-2 P,0,125083,126193,A
Sprite,Foreground,Centre,"sb/sprites/c.png",0,0 C,0,125422,,255,255,255 F,0,125422,,0.9 S,7,125422,126532,0.2,0.6 F,0,125423,126533,0.9,0 M,0,125422,,246,214 R,22,125423,126533,0,1 P,0,125422,126532,A
Sprite,Foreground,Centre,"sb/sprites/hb.png",0,240 C,21,49830,50940,255,0,0,255,255,255 F,0,49830,50940,0.7,0 MX,0,49829,,283 L,49830,17 V,2,0,20,1.2,1.313,1.6,1.313 V,2,20,40,1.6,1.313,1.2,1.313 L,50676,1 V,2,0,338,1.2,1.313,0.05,1.313 P,0,49829,50939,A C,21,51186,52296,255,0,0,255,255,255 F,0,51186,52296,0.7,0 MX,0,51185,,389 L,51186,17 V,2,0,20,1.2,1.313,1.6,1.313 V,2,20,40,1.6,1.313,1.2,1.313 L,52032,1 V,2,0,338,1.2,1.313,0.05,1.313 P,0,51185,52295,A C,21,52542,53652,255,0,0,255,255,255 F,0,52542,53652,0.7,0 MX,0,52541,,245 L,52542,17 V,2,0,20,1.2,1.313,1.6,1.313 V,2,20,40,1.6,1.313,1.2,1.313 L,53388,1 V,2,0,338,1.2,1.313,0.05,1.313 P,0,52541,53651,A C,21,55254,56364,255,0,0,255,255,255 F,0,55254,56364,0.7,0 MX,0,55253,,344 L,55254,17 V,2,0,20,1.2,1.313,1.6,1.313 V,2,20,40,1.6,1.313,1.2,1.313 L,56100,1 V,2,0,338,1.2,1.313,0.05,1.313 P,0,55253,56363,A C,21,57965,59075,255,0,0,255,255,255 F,0,57965,59075,0.7,0 MX,0,57964,,459 L,57965,17 V,2,0,20,1.2,1.313,1.6,1.313 V,2,20,40,1.6,1.313,1.2,1.313 L,58811,1 V,2,0,338,1.2,1.313,0.05,1.313 P,0,57964,59074,A C,21,60677,61787,255,0,0,255,255,255 F,0,60677,61787,0.7,0 MX,0,60676,,518 L,60677,17 V,2,0,20,1.2,1.313,1.6,1.313 V,2,20,40,1.6,1.313,1.2,1.313 L,61523,1 V,2,0,338,1.2,1.313,0.05,1.313 P,0,60676,61786,A C,21,62033,63143,255,0,0,255,255,255 F,0,62033,63143,0.7,0 MX,0,62032,,337 L,62033,17 V,2,0,20,1.2,1.313,1.6,1.313 V,2,20,40,1.6,1.313,1.2,1.313 L,62879,1 V,2,0,338,1.2,1.313,0.05,1.313 P,0,62032,63142,A C,21,63389,64499,255,0,0,255,255,255 F,0,63389,64499,0.7,0 MX,0,63388,,244 L,63389,17 V,2,0,20,1.2,1.313,1.6,1.313 V,2,20,40,1.6,1.313,1.2,1.313 L,64235,1 V,2,0,338,1.2,1.313,0.05,1.313 P,0,63388,64498,A C,21,66101,67211,255,0,0,255,255,255 F,0,66101,67211,0.7,0 MX,0,66100,,295 L,66101,17 V,2,0,20,1.2,1.313,1.6,1.313 V,2,20,40,1.6,1.313,1.2,1.313 L,66947,1 V,2,0,338,1.2,1.313,0.05,1.313 P,0,66100,67210,A C,21,68813,69923,255,0,0,255,255,255 F,0,68813,69923,0.7,0 MX,0,68812,,420 L,68813,17 V,2,0,20,1.2,1.313,1.6,1.313 V,2,20,40,1.6,1.313,1.2,1.313 L,69659,1 V,2,0,338,1.2,1.313,0.05,1.313 P,0,68812,69922,A C,21,93220,94330,255,0,0,255,255,255 F,0,93220,94330,0.7,0 MX,0,93219,,321 L,93220,17 V,2,0,20,1.2,1.313,1.6,1.313 V,2,20,40,1.6,1.313,1.2,1.313 L,94066,1 V,2,0,338,1.2,1.313,0.05,1.313 P,0,93219,94329,A C,21,94576,95686,255,0,0,255,255,255 F,0,94576,95686,0.7,0 MX,0,94575,,291 L,94576,17 V,2,0,20,1.2,1.313,1.6,1.313 V,2,20,40,1.6,1.313,1.2,1.313 L,95422,1 V,2,0,338,1.2,1.313,0.05,1.313 P,0,94575,95685,A C,21,95932,97042,255,0,0,255,255,255 F,0,95932,97042,0.7,0 MX,0,95931,,127 L,95932,17 V,2,0,20,1.2,1.313,1.6,1.313 V,2,20,40,1.6,1.313,1.2,1.313 L,96778,1 V,2,0,338,1.2,1.313,0.05,1.313 P,0,95931,97041,A C,21,98643,99753,255,0,0,255,255,255 F,0,98643,99753,0.7,0 MX,0,98642,,376 L,98643,17 V,2,0,20,1.2,1.313,1.6,1.313 V,2,20,40,1.6,1.313,1.2,1.313 L,99489,1 V,2,0,338,1.2,1.313,0.05,1.313 P,0,98642,99752,A C,21,101355,102465,255,0,0,255,255,255 F,0,101355,102465,0.7,0 MX,0,101354,,276 L,101355,17 V,2,0,20,1.2,1.313,1.6,1.313 V,2,20,40,1.6,1.313,1.2,1.313 L,102201,1 V,2,0,338,1.2,1.313,0.05,1.313 P,0,101354,102464,A C,21,104067,105177,255,0,0,255,255,255 F,0,104067,105177,0.7,0 MX,0,104066,,355 L,104067,17 V,2,0,20,1.2,1.313,1.6,1.313 V,2,20,40,1.6,1.313,1.2,1.313 L,104913,1 V,2,0,338,1.2,1.313,0.05,1.313 P,0,104066,105176,A C,21,105423,106533,255,0,0,255,255,255 F,0,105423,106533,0.7,0 MX,0,105422,,167 L,105423,17 V,2,0,20,1.2,1.313,1.6,1.313 V,2,20,40,1.6,1.313,1.2,1.313 L,106269,1 V,2,0,338,1.2,1.313,0.05,1.313 P,0,105422,106532,A C,21,106779,107889,255,0,0,255,255,255 F,0,106779,107889,0.7,0 MX,0,106778,,422 L,106779,17 V,2,0,20,1.2,1.313,1.6,1.313 V,2,20,40,1.6,1.313,1.2,1.313 L,107625,1 V,2,0,338,1.2,1.313,0.05,1.313 P,0,106778,107888,A C,21,109491,110601,255,0,0,255,255,255 F,0,109491,110601,0.7,0 MX,0,109490,,361 L,109491,17 V,2,0,20,1.2,1.313,1.6,1.313 V,2,20,40,1.6,1.313,1.2,1.313 L,110337,1 V,2,0,338,1.2,1.313,0.05,1.313 P,0,109490,110600,A
Sprite,Foreground,Centre,"sb/sprites/hb.png",0,240 C,21,102372,103482,255,0,0,255,255,255 F,0,102372,103482,0.7,0 MX,0,102371,,77 L,102372,17 V,2,0,20,1.2,1.313,1.6,1.313 V,2,20,40,1.6,1.313,1.2,1.313 L,103218,1 V,2,0,338,1.2,1.313,0.05,1.313 P,0,102371,103481,A C,21,112203,113313,255,0,0,255,255,255 F,0,112203,113313,0.7,0 MX,0,112202,,312 L,112203,17 V,2,0,20,1.2,1.313,1.6,1.313 V,2,20,40,1.6,1.313,1.2,1.313 L,113049,1 V,2,0,338,1.2,1.313,0.05,1.313 P,0,112202,113312,A C,21,125762,126872,255,0,0,255,255,255 F,0,125762,126872,0.7,0 MX,0,125761,,129 L,125762,17 V,2,0,20,1.2,1.313,1.6,1.313 V,2,20,40,1.6,1.313,1.2,1.313 L,126608,1 V,2,0,338,1.2,1.313,0.05,1.313 P,0,125761,126871,A C,21,127118,128228,255,0,0,255,255,255 F,0,127118,128228,0.7,0 MX,0,127117,,434 L,127118,17 V,2,0,20,1.2,1.313,1.6,1.313 V,2,20,40,1.6,1.313,1.2,1.313 L,127964,1 V,2,0,338,1.2,1.313,0.05,1.313 P,0,127117,128227,A C,21,128474,129584,255,0,0,255,255,255 F,0,128474,129584,0.7,0 MX,0,128473,,469 L,128474,17 V,2,0,20,1.2,1.313,1.6,1.313 V,2,20,40,1.6,1.313,1.2,1.313 L,129320,1 V,2,0,338,1.2,1.313,0.05,1.313 P,0,128473,129583,A C,21,131186,132296,255,0,0,255,255,255 F,0,131186,132296,0.7,0 MX,0,131185,,111 L,131186,17 V,2,0,20,1.2,1.313,1.6,1.313 V,2,20,40,1.6,1.313,1.2,1.313 L,132032,1 V,2,0,338,1.2,1.313,0.05,1.313 P,0,131185,132295,A C,21,133898,135008,255,0,0,255,255,255 F,0,133898,135008,0.7,0 MX,0,133897,,328 L,133898,17 V,2,0,20,1.2,1.313,1.6,1.313 V,2,20,40,1.6,1.313,1.2,1.313 L,134744,1 V,2,0,338,1.2,1.313,0.05,1.313 P,0,133897,135007,A
Sprite,Foreground,Centre,"sb/sprites/hb.png",0,240 C,21,134915,136025,255,0,0,255,255,255 F,0,134915,136025,0.7,0 MX,0,134914,,174 L,134915,17 V,2,0,20,1.2,1.313,1.6,1.313 V,2,20,40,1.6,1.313,1.2,1.313 L,135761,1 V,2,0,338,1.2,1.313,0.05,1.313 P,0,134914,136024,A
//Storyboard Sound Samples

[TimingPoints]
15931,338.983050847458,4,2,1,10,1,0
15931,-200,4,2,1,10,0,0
17286,-200,4,2,1,40,0,0
28134,-200,4,2,1,50,0,0
34914,-200,4,2,1,50,0,0
37625,-200,4,2,1,60,0,0
38981,-166.666666666667,4,2,1,40,0,0
47117,-166.666666666667,4,2,1,50,0,0
47795,-166.666666666667,4,2,1,60,0,0
48473,-133.333333333333,4,2,1,60,0,0
48812,-133.333333333333,4,2,1,55,0,0
49151,-133.333333333333,4,2,1,60,0,0
49490,-133.333333333333,4,2,1,65,0,0
49829,-142.857142857143,4,2,1,80,0,1
50507,-90.9090909090909,4,2,1,80,0,1
51185,-142.857142857143,4,2,1,80,0,1
51863,-90.9090909090909,4,2,1,80,0,1
52541,-142.857142857143,4,2,1,80,0,1
53219,-100,4,2,1,80,0,1
60676,-142.857142857143,4,2,1,80,0,1
61354,-90.9090909090909,4,2,1,80,0,1
62032,-142.857142857143,4,2,1,80,0,1
62710,-90.9090909090909,4,2,1,80,0,1
63388,-142.857142857143,4,2,1,80,0,1
64066,-100,4,2,1,80,0,1
71185,-200,4,2,1,80,0,0
71524,-200,4,2,1,50,0,0
81015,-200,4,2,1,60,0,0
82371,-166.666666666667,4,2,1,40,0,0
90507,-166.666666666667,4,2,1,50,0,0
91185,-166.666666666667,4,2,1,60,0,0
91863,-133.333333333333,4,2,1,60,0,0
93219,-142.857142857143,4,2,1,80,0,1
93897,-90.9090909090909,4,2,1,80,0,1
94575,-142.857142857143,4,2,1,80,0,1
95253,-90.9090909090909,4,2,1,80,0,1
95931,-142.857142857143,4,2,1,80,0,1
96608,-100,4,2,1,80,0,1
104066,-142.857142857143,4,2,1,80,0,1
104744,-90.9090909090909,4,2,1,80,0,1
105422,-142.857142857143,4,2,1,80,0,1
106100,-90.9090909090909,4,2,1,80,0,1
106778,-142.857142857143,4,2,1,80,0,1
107456,-100,4,2,1,80,0,1
114914,-142.857142857143,4,2,1,60,0,0
120337,-142.857142857143,4,2,1,70,0,0
124405,-100,4,2,1,70,0,1
125761,-142.857142857143,4,2,1,80,0,1
126439,-90.9090909090909,4,2,1,80,0,1
127117,-142.857142857143,4,2,1,80,0,1
127795,-90.9090909090909,4,2,1,80,0,1
128473,-142.857142857143,4,2,1,80,0,1
129151,-100,4,2,1,80,0,1
136608,-142.857142857143,4,2,1,80,0,0
140337,-142.857142857143,4,2,1,60,0,0

[Colours]
Combo1 : 216,184,73
Combo2 : 56,114,141
Combo3 : 148,20,20
Combo4 : 192,192,192

[HitObjects]
398,55,17286,6,0,B|423:160|423:160|388:136,1,140,2|10,3:2|0:2,0:0:0:0:
311,93,18303,1,0,0:0:0:0:
230,149,18642,2,0,L|76:140,1,140,0|10,0:0|0:2,0:0:0:0:
90,140,19829,1,2,3:2:0:0:
61,179,19998,5,2,3:2:0:0:
61,179,20168,2,0,L|69:291,1,105,0|8,0:0|0:2,0:0:0:0:
256,344,21354,2,0,L|256:267,1,70,0|2,0:0|3:2,0:0:0:0:
325,204,22032,1,10,0:2:0:0:
414,244,22371,2,0,P|437:248|460:243,1,35,2|0,0:3|3:0,0:0:0:0:
485,214,22710,6,0,P|503:157|455:93,1,140,2|10,3:2|0:2,0:0:0:0:
368,59,23727,1,0,0:0:0:0:
289,117,24066,2,0,L|285:197,1,70,0|0,0:0|3:0,0:0:0:0:
269,233,24575,1,0,0:0:0:0:
229,261,24744,2,0,L|148:249,1,70,10|2,0:2|0:2,0:0:0:0:
111,241,25253,1,0,3:0:0:0:
111,241,25422,5,0,3:0:0:0:
255,108,26100,1,10,0:2:0:0:
430,195,26778,2,0,L|421:253,2,46.6666666666667,8|8|8,0:1|0:1|0:1,0:0:0:0:
447,131,27456,2,0,L|432:58,1,70,8|8,0:1|0:1,0:0:0:0:
393,33,27964,1,8,1:3:0:0:
393,33,28134,6,0,B|297:17|297:17|249:46,1,140,6|10,3:2|0:2,0:0:0:0:
178,93,29151,1,0,0:0:0:0:
96,147,29490,2,0,L|118:224,1,70,2|2,0:2|3:2,0:0:0:0:
144,261,29998,1,2,0:2:0:0:
144,261,30168,2,0,L|122:338,1,70,10|2,0:2|0:2,0:0:0:0:
158,371,30676,1,2,0:2:0:0:
158,371,30846,6,0,B|232:380|232:380|231:351,1,105,2|0,3:2|0:0,0:0:0:0:
229,300,31524,1,8,0:2:0:0:
223,202,31863,2,0,L|220:153,1,35,0|0,0:0|0:0,0:0:0:0:
191,127,32202,2,0,P|162:133|130:128,2,52.5,2|0|0,0:2|0:0|0:0,0:0:0:0:
218,86,32880,2,0,P|252:75|297:85,1,70,10|6,0:2|0:3,0:0:0:0:
330,109,33388,1,8,0:3:0:0:
330,109,33558,6,0,P|356:148|321:231,1,140,2|8,3:2|0:2,0:0:0:0:
325,228,34744,1,2,0:2:0:0:
343,273,34914,2,0,P|382:280|422:267,1,70,2|2,0:2|3:2,0:0:0:0:
445,238,35422,2,0,P|458:191|439:125,1,105,2|2,0:2|0:2,0:0:0:0:
423,93,36100,1,0,0:0:0:0:
375,79,36269,6,0,B|327:63|327:63|352:113|327:157,1,140,2|10,3:2|0:2,0:0:0:0:
299,242,37286,1,0,0:0:0:0:
260,332,37625,2,0,P|220:341|180:328,1,70,2|2,3:2|3:2,0:0:0:0:
150,307,38134,1,0,1:0:0:0:
150,307,38303,2,0,P|115:300|82:309,1,70,10|2,0:2|1:2,0:0:0:0:
38,330,38812,1,2,1:2:0:0:
38,330,38981,6,0,L|40:150,1,167.999994873047,6|4,3:2|1:3,0:0:0:0:
189,48,40168,1,0,0:0:0:0:
230,105,40337,2,0,P|263:96|300:105,2,62.9999980773926,4|4|0,1:3|1:3|0:0,0:0:0:0:
187,162,41015,2,0,P|178:204|195:255,1,83.9999974365235,4|4,1:3|1:3,0:0:0:0:
225,311,41524,1,4,1:3:0:0:
225,311,41693,6,0,L|401:303,1,167.999994873047,6|4,3:2|1:3,0:0:0:0:
392,303,43049,2,0,L|298:294,1,83.9999974365235,4|4,1:3|1:3,0:0:0:0:
258,242,43558,2,0,L|252:158,1,83.9999974365235,0|0,0:0|0:0,0:0:0:0:
251,86,44066,1,4,1:3:0:0:
389,49,44405,6,0,B|427:103|427:103|386:135|399:200,1,167.999994873047,6|4,3:2|1:3,0:0:0:0:
438,332,45422,1,4,1:3:0:0:
298,301,45761,2,0,P|239:316|168:298,2,125.999996154785,4|0|4,1:3|0:0|1:3,0:0:0:0:
417,222,47117,6,0,P|441:202|416:113,1,125.999996154785,6|4,3:2|1:3,0:0:0:0:
367,77,47795,2,0,L|282:73,1,83.9999974365235,4|4,1:3|1:3,0:0:0:0:
104,64,48473,1,2,0:2:0:0:
162,232,48812,1,2,0:2:0:0:
312,136,49151,1,2,0:2:0:0:
256,305,49490,1,2,0:2:0:0:
219,130,49829,6,0,P|242:72|320:34,1,146.999995513916,6|0,3:2|0:0,0:0:0:0:
314,34,50507,2,0,L|388:276,1,231.000007049561,10|0,0:2|0:0,0:0:0:0:
325,357,51185,6,0,P|260:342|185:369,1,146.999995513916,6|0,3:2|0:0,0:0:0:0:
186,368,51863,2,0,L|118:147,1,231.000007049561,10|0,0:2|0:0,0:0:0:0:
181,47,52541,6,0,P|129:27|46:54,1,146.999995513916,6|0,3:2|0:0,0:0:0:0:
118,147,53219,2,0,P|167:154|219:153,1,70,10|0,0:2|0:0,0:0:0:0:
282,228,53558,2,0,P|233:235|181:234,1,70,0|0,3:0|0:0,0:0:0:0:
268,130,53897,6,0,B|304:109|341:130|341:130|380:152|421:119,1,140,0|0,0:0|3:2,0:0:0:0:
489,51,54405,1,0,0:0:0:0:
494,190,54575,2,0,B|461:215|461:215|491:325,1,140,10|0,0:2|0:0,0:0:0:0:
280,190,55253,6,0,B|313:215|313:215|283:325,1,140,6|0,3:2|0:0,0:0:0:0:
184,250,55761,1,0,0:0:0:0:
80,308,55931,2,0,P|42:288|35:188,1,140,10|0,0:2|3:0,0:0:0:0:
138,152,56439,1,0,0:0:0:0:
250,112,56608,6,0,P|251:44|197:3,2,140,0|0|10,0:0|3:0|0:2,0:0:0:0:
138,152,57456,1,0,0:0:0:0:
229,228,57625,2,0,L|316:211,1,70,0|0,0:0|0:0,0:0:0:0:
395,145,57964,6,0,L|435:291,1,140,6|0,3:2|0:0,0:0:0:0:
322,330,58473,1,0,0:0:0:0:
297,214,58642,1,10,0:2:0:0:
209,295,58812,1,0,0:0:0:0:
322,330,58981,2,0,P|354:301|362:269,1,70,0|0,3:0|0:0,0:0:0:0:
277,192,59320,6,0,L|124:227,1,140,0|0,1:0|3:0,0:0:0:0:
46,149,59829,1,0,1:0:0:0:
112,50,59998,2,0,L|202:29,1,70,10|0,0:2|3:0,0:0:0:0:
283,93,60337,2,0,L|373:72,1,70,0|0,0:0|0:0,0:0:0:0:
454,136,60676,6,0,P|433:201|497:253,1,146.999995513916,6|0,3:2|0:0,0:0:0:0:
483,251,61354,2,0,P|393:246|380:364,1,231.000007049561,10|0,0:2|0:0,0:0:0:0:
273,298,62032,6,0,P|254:232|187:236,1,146.999995513916,6|0,3:2|0:0,0:0:0:0:
187,236,62710,2,0,P|222:181|95:122,1,231.000007049561,10|0,0:2|0:0,0:0:0:0:
180,16,63388,6,0,P|233:39|320:-1,1,146.999995513916,6|0,3:2|0:0,0:0:0:0:
430,7,64066,2,0,P|445:52|424:95,1,70,10|0,0:2|0:0,0:0:0:0:
364,166,64405,2,0,P|349:121|370:78,1,70,0|0,3:0|0:0,0:0:0:0:
462,152,64744,6,0,B|497:220|431:219|472:298,1,140,0|0,0:0|3:0,0:0:0:0:
372,360,65253,1,0,0:0:0:0:
267,307,65422,2,0,P|281:272|390:284,1,140,10|0,0:2|0:0,0:0:0:0:
231,173,66100,6,0,B|199:185|199:185|98:149,1,140,6|0,3:2|0:0,0:0:0:0:
201,87,66608,1,0,0:0:0:0:
99,24,66778,2,0,B|199:-11|199:-11|231:1,1,140,10|0,0:2|3:0,0:0:0:0:
314,87,67286,1,0,0:0:0:0:
396,0,67456,6,0,L|510:89,2,140,0|0|10,0:0|3:0|0:2,0:0:0:0:
314,87,68303,1,0,0:0:0:0:
413,154,68473,2,0,P|439:181|448:240,1,70,0|0,0:0|0:0,0:0:0:0:
356,285,68812,6,0,P|284:253|207:283,1,140,6|0,3:2|0:0,0:0:0:0:
154,362,69320,1,0,0:0:0:0:
64,284,69490,2,0,P|45:241|62:196,1,70,10|0,0:2|0:0,0:0:0:0:
150,157,69829,2,0,P|151:191|134:221,1,70,0|0,3:0|1:0,0:0:0:0:
57,131,70168,6,0,L|64:49,2,70,0|0|0,0:0|1:0|3:0,0:0:0:0:
150,157,70676,1,4,0:3:0:0:
218,59,70846,2,0,L|137:42,1,70,12|0,0:2|3:0,0:0:0:0:
63,24,71185,1,0,0:0:0:0:
324,40,71524,6,0,P|354:100|325:161,1,140,2|10,3:2|0:2,0:0:0:0:
241,214,72541,1,0,0:0:0:0:
152,171,72880,2,0,L|172:286,1,105,0|2,0:0|0:2,0:0:0:0:
197,315,73558,2,0,P|231:325|279:312,1,70,10|2,0:2|0:2,0:0:0:0:
311,306,74066,1,0,3:2:0:0:
311,306,74236,6,0,L|314:151,1,140,2|8,3:2|0:2,0:0:0:0:
152,53,75592,2,0,L|150:126,1,70,0|2,0:0|3:2,0:0:0:0:
211,199,76269,2,0,L|212:272,1,70,10|2,0:2|0:3,0:0:0:0:
193,314,76778,1,0,3:0:0:0:
193,314,76947,5,2,3:2:0:0:
9,243,77625,2,0,P|-2:210|5:167,1,70,10|0,0:2|0:0,0:0:0:0:
76,112,78303,2,0,P|112:116|158:106,1,70,0|0,0:0|3:0,0:0:0:0:
241,93,78981,2,0,L|225:172,1,70,10|2,0:2|0:2,0:0:0:0:
196,254,79659,5,0,3:0:0:0:
196,254,79829,2,0,B|240:250|240:250|256:262|256:262|311:256,1,105,0|10,0:0|0:2,0:0:0:0:
360,183,80676,2,0,P|365:158|362:135,1,35,0|0,0:0|1:0,0:0:0:0:
349,101,81015,2,0,P|315:111|269:105,1,70,0|0,0:0|3:0,0:0:0:0:
235,89,81524,1,0,0:0:0:0:
235,89,81693,2,0,P|202:100|167:100,1,70,8|0,0:2|1:0,0:0:0:0:
121,81,82202,1,0,1:0:0:0:
121,81,82371,6,0,L|132:261,1,167.999994873047,6|4,3:2|1:3,0:0:0:0:
260,360,83558,1,0,0:0:0:0:
314,314,83727,2,0,P|347:305|384:314,2,62.9999980773926,4|0|0,1:3|0:0|0:0,0:0:0:0:
260,360,84405,2,0,P|219:369|178:360,1,83.9999974365235,4|4,1:3|1:3,0:0:0:0:
119,319,84914,1,4,1:3:0:0:
119,319,85083,6,0,L|111:143,1,167.999994873047,6|4,3:2|1:3,0:0:0:0:
377,47,86439,2,0,L|283:38,1,83.9999974365235,4|4,1:3|1:3,0:0:0:0:
241,89,86948,2,0,L|247:173,1,83.9999974365235,0|0,0:0|0:0,0:0:0:0:
287,231,87456,1,4,1:3:0:0:
171,315,87795,6,0,B|133:261|133:261|174:229|161:164,1,167.999994873047,6|4,3:2|1:3,0:0:0:0:
256,61,88812,1,4,1:3:0:0:
385,120,89151,2,0,P|400:179|382:250,1,125.999996154785,4|0,1:3|0:0,0:0:0:0:
356,306,89829,2,0,L|258:293,1,83.9999974365235,4|4,1:3|1:3,0:0:0:0:
130,281,90507,6,0,P|104:226|117:157,1,125.999996154785,6|4,3:2|1:3,0:0:0:0:
161,110,91185,2,0,P|202:113|246:103,1,83.9999974365235,4|4,1:3|1:3,0:0:0:0:
400,17,91863,1,2,0:2:0:0:
297,162,92202,1,2,0:2:0:0:
174,32,92541,1,2,0:2:0:0:
200,208,92880,1,2,0:2:0:0:
257,65,93219,6,0,P|310:59|388:115,1,146.999995513916,6|0,3:2|0:0,0:0:0:0:
384,109,93897,2,0,L|330:340,1,231.000007049561,10|0,0:2|0:0,0:0:0:0:
227,382,94575,6,0,P|174:388|96:332,1,146.999995513916,6|0,3:2|0:0,0:0:0:0:
100,338,95253,2,0,L|154:107,1,231.000007049561,10|0,0:2|0:0,0:0:0:0:
63,37,95931,6,0,P|128:0|210:3,1,146.999995513916,6|0,3:2|0:0,0:0:0:0:
321,46,96608,2,0,L|334:114,1,70,10|0,0:2|0:0,0:0:0:0:
232,177,96947,2,0,L|245:245,1,70,0|0,3:0|0:0,0:0:0:0:
143,308,97286,2,0,P|84:293|31:224,1,140,0|0,0:0|3:0,0:0:0:0:
147,192,97795,1,0,0:0:0:0:
38,146,97964,2,0,P|80:91|146:72,1,140,10|0,0:2|0:0,0:0:0:0:
312,244,98642,6,0,P|378:224|420:170,1,140,6|0,3:2|0:0,0:0:0:0:
441,52,99151,1,0,0:0:0:0:
499,155,99320,2,0,L|501:311,1,140,10|0,0:2|3:0,0:0:0:0:
409,372,99829,1,0,0:0:0:0:
309,308,99998,6,0,P|306:253|369:186,2,140,0|0|10,0:0|3:0|0:2,0:0:0:0:
206,248,100846,1,0,0:0:0:0:
255,140,101015,2,0,P|286:106|337:94,1,70,0|0,0:0|0:0,0:0:0:0:
212,25,101354,6,0,L|69:16,1,140,6|0,3:2|0:0,0:0:0:0:
13,121,101863,1,0,0:0:0:0:
130,140,102032,1,10,0:2:0:0:
54,232,102202,1,0,0:0:0:0:
13,121,102371,2,0,P|52:89|100:91,1,70,0|0,3:0|0:0,0:0:0:0:
188,65,102710,6,0,P|222:116|208:206,1,140,0|0,1:0|3:0,0:0:0:0:
174,304,103219,1,0,1:0:0:0:
274,241,103388,2,0,P|333:231|372:242,1,70,10|0,0:2|3:0,0:0:0:0:
449,179,103727,2,0,P|391:161|351:168,1,70,0|0,0:0|1:0,0:0:0:0:
291,85,104066,6,0,P|268:44|341:2,1,146.999995513916,6|0,3:2|0:0,0:0:0:0:
337,0,104744,2,0,P|235:0|106:39,1,231.000007049561,10|0,0:2|0:0,0:0:0:0:
103,161,105422,6,0,P|106:207|15:207,1,146.999995513916,6|0,3:2|0:0,0:0:0:0:
24,222,106100,2,0,P|116:265|250:284,1,231.000007049561,10|0,0:2|0:0,0:0:0:0:
358,220,106778,6,0,P|352:153|418:141,1,146.999995513916,6|0,3:2|0:0,0:0:0:0:
498,231,107456,2,0,P|506:264|495:297,1,70,10|0,0:2|0:0,0:0:0:0:
406,377,107795,2,0,P|395:344|403:310,1,70,0|0,3:0|0:0,0:0:0:0:
297,256,108134,2,0,P|238:240|150:260,1,140,0|0,0:0|3:0,0:0:0:0:
54,306,108642,1,0,0:0:0:0:
93,193,108812,2,0,L|155:63,1,140,10|0,0:2|0:0,0:0:0:0:
297,256,109490,6,0,L|343:124,1,140,6|0,3:2|0:0,0:0:0:0:
271,29,109998,1,0,0:0:0:0:
388,6,110168,2,0,P|437:47|469:143,1,140,10|0,0:2|3:0,0:0:0:0:
391,208,110676,1,0,0:0:0:0:
508,232,110846,6,0,B|518:265|518:265|467:380,2,140,0|0|10,0:0|3:0|0:2,0:0:0:0:
391,208,111693,1,0,0:0:0:0:
297,281,111863,2,0,P|251:288|198:273,1,70,0|0,0:0|0:0,0:0:0:0:
248,167,112202,6,0,P|294:160|347:175,1,70,6|0,3:2|0:0,0:0:0:0:
422,106,112541,2,0,P|376:99|323:114,1,70,0|0,0:0|0:0,0:0:0:0:
242,146,112880,1,10,0:2:0:0:
181,44,113049,1,0,0:0:0:0:
300,43,113219,1,0,3:0:0:0:
242,146,113388,1,0,1:0:0:0:
181,44,113558,6,0,P|155:82|146:122,1,70,0|0,0:0|1:0,0:0:0:0:
46,166,113897,2,0,P|72:204|81:244,1,70,0|4,3:0|0:3,0:0:0:0:
139,328,114236,1,12,0:2:0:0:
166,213,114405,1,0,3:0:0:0:
242,305,114575,2,0,P|298:293|334:303,1,70,0|0,0:0|0:0,0:0:0:0:
376,183,114914,6,0,P|421:233|428:327,1,146.999995513916,6|0,0:2|0:0,0:0:0:0:
432,309,115592,1,0,0:0:0:0:
230,52,116269,6,0,P|185:102|178:196,1,146.999995513916,0|0,0:0|0:0,0:0:0:0:
173,178,116947,1,0,0:0:0:0:
466,16,117625,6,0,L|508:86,2,73.4999977569581,6|0|0,3:2|0:0|0:0,0:0:0:0:
390,51,118303,2,0,L|348:121,2,73.4999977569581,0|0|0,0:0|0:0|0:0,0:0:0:0:
437,120,118981,2,0,L|507:260,1,146.999995513916,0|0,0:0|0:0,0:0:0:0:
502,251,119659,1,0,0:0:0:0:
188,357,120337,6,0,P|127:319|127:281,1,97.9999970092774,6|0,3:2|0:0,0:0:0:0:
169,228,120846,1,0,0:0:0:0:
215,158,121015,2,0,P|196:115|150:100,1,97.9999970092774,0|0,0:0|3:0,0:0:0:0:
66,100,121524,2,0,P|21:115|2:159,1,97.9999970092774,0|0,0:0|0:0,0:0:0:0:
3,242,122032,2,0,L|3:311,1,48.9999985046387,0|0,3:0|0:0,0:0:0:0:
59,353,122371,1,10,0:2:0:0:
105,283,122541,1,0,0:0:0:0:
148,354,122710,2,0,L|204:353,1,48.9999985046387,0|0,0:0|0:0,0:0:0:0:
275,323,123049,6,0,L|233:253,2,73.4999977569581,6|0|0,3:2|0:0|0:0,0:0:0:0:
351,288,123727,2,0,L|413:194,1,97.9999970092774,14|0,0:2|3:0,0:0:0:0:
375,128,124236,1,0,0:0:0:0:
469,56,124405,6,0,L|497:139,2,70,0|0|0,1:0|0:0|3:0,0:0:0:0:
375,128,124914,1,0,1:0:0:0:
305,32,125083,2,0,P|261:39|236:62,1,70,10|0,0:2|3:0,0:0:0:0:
182,158,125422,1,0,0:0:0:0:
104,68,125592,1,0,1:0:0:0:
65,180,125761,6,0,P|69:239|156:283,1,146.999995513916,6|0,3:2|0:0,0:0:0:0:
137,284,126439,2,0,P|243:265|291:368,1,231.000007049561,10|0,0:2|0:0,0:0:0:0:
370,313,127117,6,0,P|416:306|476:226,1,146.999995513916,6|0,3:2|0:0,0:0:0:0:
476,232,127795,2,0,P|414:197|482:90,1,231.000007049561,10|0,0:2|0:0,0:0:0:0:
405,28,128473,6,0,P|367:55|268:41,1,146.999995513916,6|0,3:2|0:0,0:0:0:0:
162,0,129151,2,0,P|140:37|137:74,1,70,10|0,0:2|0:0,0:0:0:0:
237,128,129490,1,0,3:0:0:0:
131,182,129659,1,0,0:0:0:0:
228,251,129829,6,0,P|284:252|323:238,1,70,0|0,0:0|0:0,0:0:0:0:
395,181,130168,1,0,3:0:0:0:
450,285,130337,1,0,0:0:0:0:
350,350,130507,2,0,P|294:351|255:337,1,70,10|0,0:2|0:0,0:0:0:0:
166,315,130846,1,0,0:0:0:0:
47,109,131185,6,0,L|35:183,2,70,6|0|0,3:2|0:0|0:0,0:0:0:0:
143,38,131693,1,0,0:0:0:0:
201,142,131863,2,0,P|245:160|361:159,1,140,10|0,0:2|3:0,0:0:0:0:
431,92,132371,1,0,0:0:0:0:
512,180,132541,6,0,P|512:249|489:315,1,140,0|0,0:0|3:0,0:0:0:0:
378,359,133049,1,0,0:0:0:0:
268,312,133219,2,0,L|328:273,1,70,10|0,0:2|0:0,0:0:0:0:
430,215,133558,2,0,L|366:181,1,70,0|0,0:0|0:0,0:0:0:0:
264,123,133897,6,0,P|207:164|194:240,1,140,6|0,3:2|0:0,0:0:0:0:
110,315,134405,1,0,0:0:0:0:
77,200,134575,1,10,0:2:0:0:
192,229,134744,1,0,1:0:0:0:
110,315,134914,2,0,P|65:287|58:249,1,70,0|0,3:0|1:0,0:0:0:0:
7,167,135253,6,0,P|42:128|80:128,1,70,0|0,0:0|1:0,0:0:0:0:
171,90,135592,1,0,3:0:0:0:
78,17,135761,1,4,0:3:0:0:
197,9,135931,2,0,L|285:12,1,70,12|0,0:2|3:0,0:0:0:0:
385,25,136269,2,0,L|347:84,1,70,0|0,0:0|0:0,0:0:0:0:
361,167,136608,6,0,P|423:160|486:229,1,146.999995513916,6|0,3:2|0:0,0:0:0:0:
482,214,137286,1,0,0:0:0:0:
174,337,137964,6,0,P|112:344|49:275,1,146.999995513916,6|0,0:2|0:0,0:0:0:0:
52,289,138642,1,0,0:0:0:0:
