osu file format v14

[General]
AudioFilename: audio.mp3
AudioLeadIn: 0
PreviewTime: 91668
Countdown: 0
SampleSet: Soft
StackLeniency: 0.2
Mode: 0
LetterboxInBreaks: 0
WidescreenStoryboard: 1

[Editor]
Bookmarks: 49704,71399,114789,125637,153941
DistanceSpacing: 1.1
BeatDivisor: 4
GridSize: 32
TimelineZoom: 1

[Metadata]
Title:RISE (ft. The Glitch Mob, Mako, and The Word Alive)
TitleUnicode:RISE (ft. The Glitch Mob, Mako, and The Word Alive)
Artist:League of Legends
ArtistUnicode:League of Legends
Creator:Smokeman
Version:Ambition
Source:League of Legends
Tags:league of legends World Worlds Championship 2017 2018 riot games faker perkz uzi jarvan IV ryze SKT TPA Samsung Galaxy SSG
BeatmapID:1794162
BeatmapSetID:858498

[Difficulty]
HPDrainRate:8
CircleSize:3.9
OverallDifficulty:8.2
ApproachRate:9.1
SliderMultiplier:3
SliderTickRate:1

[Events]
//Background and Video events
Video,0,"video.avi"
0,0,"BG RISE.png",0,0
//Break Periods
2,115004,124164
2,146021,148118
//Storyboard Layer 0 (Background)
//Storyboard Layer 1 (Fail)
//Storyboard Layer 2 (Pass)
//Storyboard Layer 3 (Foreground)
//Storyboard Sound Samples

[TimingPoints]
6330,677.966101694915,4,2,1,30,1,0
6330,-100,4,2,1,30,0,0
11753,-100,4,2,1,30,0,0
12092,-100,4,2,1,30,0,0
12431,-100,4,2,1,30,0,0
12770,-100,4,2,1,30,0,0
13109,-100,4,2,1,30,0,0
13448,-100,4,2,1,30,0,0
13787,-100,4,2,1,30,0,0
14126,-100,4,2,1,30,0,0
14465,-100,4,2,1,30,0,0
15143,-399.999999999997,4,2,1,30,0,0
15821,-100,4,2,1,30,0,0
17177,-100,4,2,96,30,0,0
17855,-100,4,2,1,30,0,0
26668,-111.111111111111,4,2,2,30,0,0
28024,-100,4,2,96,45,0,0
28702,-100,4,2,1,45,0,0
38872,-166.666666666667,4,2,1,45,0,0
47346,-142.857142857143,4,2,1,45,0,0
47685,-125,4,2,1,45,0,0
48024,-111.111111111111,4,2,1,45,0,0
48363,-71.4285714285715,4,2,1,45,0,0
48702,-83.3333333333334,4,2,1,45,0,0
49041,-100,4,2,1,45,0,0
49380,-125,4,2,1,45,0,0
49719,-500,4,2,96,60,0,0
50397,-33.3333333333333,4,2,1,60,0,0
51075,-500,4,2,96,60,0,0
51753,-33.3333333333333,4,2,1,60,0,0
52431,-500,4,2,97,60,0,0
53109,-50,4,2,1,60,0,0
53448,-50,4,2,97,60,0,0
54465,-50,4,2,1,60,0,0
55143,-100,4,2,98,60,0,0
55821,-40,4,2,1,60,0,0
56160,-40,4,2,98,60,0,0
57177,-40,4,2,1,60,0,0
57855,-40,4,2,99,60,0,0
59211,-55.5555555555556,4,2,1,60,0,0
59550,-62.5,4,2,77,60,0,0
59889,-71.4285714285714,4,2,1,60,0,0
60058,-71.4285714285714,4,2,77,60,0,0
60567,-500,4,2,96,60,0,0
61245,-33.3333333333333,4,2,1,60,0,0
61923,-500,4,2,96,60,0,0
62601,-33.3333333333333,4,2,1,60,0,0
63279,-500,4,2,97,60,0,0
63957,-50,4,2,1,60,0,0
64296,-50,4,2,97,60,0,0
65313,-50,4,2,1,60,0,0
65991,-100,4,2,98,60,0,0
66668,-40,4,2,1,60,0,0
67007,-40,4,2,98,60,0,0
68024,-40,4,2,1,60,0,0
68702,-40,4,2,99,60,0,0
69719,-40,4,2,90,60,0,0
69889,-40,4,2,3,60,0,0
70058,-62.5,4,2,3,60,0,0
70397,-71.4285714285714,4,2,1,60,0,0
70736,-83.3333333333333,4,2,1,60,0,0
70906,-83.3333333333333,4,2,90,45,0,0
71075,-83.3333333333333,4,2,90,45,0,0
71414,-100,4,2,96,45,0,0
72092,-100,4,2,1,45,0,0
74126,-100,4,2,96,45,0,0
74804,-100,4,2,1,45,0,0
76838,-100,4,2,96,45,0,0
77516,-100,4,2,1,45,0,0
80736,-100,4,2,3,45,0,0
80906,-100,4,2,3,45,0,0
81245,-100,4,2,1,45,0,0
81923,-100,4,2,3,45,0,0
82262,-142.857142857143,4,2,2,45,0,0
91753,-71.4285714285714,4,2,2,45,0,0
92092,-83.3333333333333,4,2,2,45,0,0
92431,-100,4,2,2,45,0,0
92770,-125,4,2,2,45,0,0
93109,-500,4,2,96,60,0,0
93787,-33.3333333333333,4,2,1,60,0,0
94465,-500,4,2,96,60,0,0
95143,-33.3333333333333,4,2,1,60,0,0
95821,-500,4,2,97,60,0,0
96499,-50,4,2,1,60,0,0
96838,-50,4,2,97,60,0,0
97855,-50,4,2,1,60,0,0
98533,-100,4,2,98,60,0,0
99211,-40,4,2,1,60,0,0
99550,-40,4,2,98,60,0,0
100567,-40,4,2,1,60,0,0
101245,-40,4,2,99,60,0,0
102601,-55.5555555555556,4,2,1,60,0,0
102940,-62.5,4,2,77,60,0,0
103279,-71.4285714285714,4,2,1,60,0,0
103448,-71.4285714285714,4,2,77,60,0,0
103957,-500,4,2,96,60,0,0
104635,-33.3333333333333,4,2,1,60,0,0
105313,-500,4,2,96,60,0,0
105991,-33.3333333333333,4,2,1,60,0,0
106668,-500,4,2,97,60,0,0
107346,-50,4,2,1,60,0,0
107685,-50,4,2,97,60,0,0
108702,-50,4,2,1,60,0,0
109380,-100,4,2,98,60,0,0
110058,-40,4,2,1,60,0,0
110397,-40,4,2,98,60,0,0
111414,-40,4,2,1,60,0,0
112092,-40,4,2,99,60,0,0
112770,-40,4,2,90,60,0,0
113279,-45.4545454545455,4,2,90,60,0,0
113448,-62.5,4,2,1,60,0,0
113787,-71.4285714285714,4,2,77,60,0,0
113957,-71.4285714285714,4,2,1,60,0,0
114126,-83.3333333333333,4,2,1,60,0,0
114296,-83.3333333333333,4,2,77,60,0,0
114465,-100,4,2,1,60,0,0
114804,-200,4,2,4,45,0,0
114974,-200,4,2,1,30,0,0
124748,-200,4,2,1,30,0,0
125482,-200,4,2,1,45,0,0
136499,-181.818181818182,4,2,1,45,0,0
141923,-166.666666666667,4,2,1,45,0,0
144296,-166.666666666667,4,2,1,45,0,0
144635,-153.846153846154,4,2,1,60,0,0
144974,-153.846153846154,4,2,1,60,0,0
145313,-153.846153846154,4,2,1,60,0,0
145652,-153.846153846154,4,2,1,60,0,0
145991,-100,4,2,6,30,0,0
147346,-100,4,2,6,30,0,0
148702,677.966101694915,4,2,96,75,1,1
148702,-50,4,2,96,75,0,1
149379,-28.5714285714286,4,2,1,75,0,1
149549,-28.5714285714286,4,2,1,55,0,1
150057,-50,4,2,96,75,0,1
150735,-28.5714285714286,4,2,1,75,0,1
150905,-28.5714285714286,4,2,1,55,0,1
151413,-50,4,2,97,75,0,1
152091,-38.4615384615385,4,2,1,75,0,1
152430,-38.4615384615385,4,2,97,75,0,1
152600,-50,4,2,97,75,0,1
153447,-50,4,2,1,75,0,1
153786,-200,4,2,1,75,0,1
154125,-500,4,2,98,75,0,1
154803,-40,4,2,1,75,0,1
155142,-40,4,2,98,75,0,1
156159,-40,4,2,1,75,0,1
156837,-35.7142857142857,4,2,99,75,0,1
157515,-40,4,2,99,75,0,1
158193,-50,4,2,1,75,0,1
158532,-55.5555555555556,4,2,77,75,0,1
158702,-62.5,4,2,1,75,0,1
159040,-62.5,4,2,77,75,0,1
159210,-62.5,4,2,1,75,0,1
159549,-50,4,2,96,75,0,1
160227,-28.5714285714286,4,2,1,75,0,1
160396,-28.5714285714286,4,2,1,55,0,1
160905,-50,4,2,96,75,0,1
161583,-28.5714285714286,4,2,1,75,0,1
161752,-28.5714285714286,4,2,1,55,0,1
162261,-50,4,2,97,75,0,1
162939,-38.4615384615385,4,2,1,75,0,1
163278,-38.4615384615385,4,2,97,75,0,1
163617,-50,4,2,97,75,0,1
164295,-50,4,2,1,75,0,1
164634,-200,4,2,1,75,0,1
164973,-500,4,2,98,75,0,1
165651,-40,4,2,1,75,0,1
165990,-40,4,2,98,75,0,1
167007,-40,4,2,1,75,0,1
167346,-40,4,2,99,75,0,1
167685,-35.7142857142857,4,2,99,75,0,1
168363,-40,4,2,99,75,0,1
169040,-40,4,2,1,75,0,1
169888,-40,4,2,77,75,0,1
170057,-40,4,2,1,75,0,1
170396,-125,4,2,96,60,0,0
173108,-125,4,2,97,60,0,0
175820,-125,4,2,98,60,0,0
178193,-125,4,2,99,60,0,0
178532,-111.111111111111,4,2,99,60,0,0
179210,-100,4,2,99,60,0,0
179888,-90.9090909090909,4,2,99,60,0,0
180227,-83.3333333333333,4,2,90,60,0,0
180566,-71.4285714285714,4,2,90,60,0,0
180905,-62.5,4,2,90,60,0,0
181244,-50,4,2,96,75,0,1
181922,-28.5714285714286,4,2,1,75,0,1
182600,-50,4,2,96,75,0,1
183278,-28.5714285714286,4,2,1,75,0,1
183956,-55.5555555555556,4,2,97,75,0,1
184634,-55.5555555555556,4,2,1,75,0,1
184973,-55.5555555555556,4,2,97,75,0,1
185990,-55.5555555555556,4,2,1,75,0,1
186668,-250,4,2,98,75,0,1
187346,-40,4,2,1,75,0,1
187685,-40,4,2,98,75,0,1
188702,-40,4,2,1,75,0,1
189040,-40,4,2,99,75,0,1
190057,-50,4,2,99,75,0,1
190735,-50,4,2,1,75,0,1
191074,-50,4,2,77,75,0,1
191244,-50,4,2,1,75,0,1
191752,-50,4,2,77,75,0,1
192091,-100,4,2,96,60,0,0
194634,-100,4,2,96,50,0,0

[Colours]
Combo1 : 193,106,117
Combo2 : 230,227,179
Combo3 : 174,200,121
Combo4 : 121,174,210

[HitObjects]
20,336,6330,6,0,L|99:326,1,75
168,315,6668,2,0,L|247:305,1,75,0|0,0:0|0:0,0:0:0:0:
315,294,7007,2,0,L|394:284,1,75,0|0,0:0|0:0,0:0:0:0:
461,272,7346,2,0,L|540:262,1,75,0|0,0:0|0:0,0:0:0:0:
491,360,7685,6,0,L|411:350,1,75,0|0,0:0|0:0,0:0:0:0:
344,339,8024,2,0,L|264:329,1,75
197,318,8363,2,0,L|117:308,1,75
51,296,8702,2,0,L|-28:286,1,75,0|0,0:0|0:0,0:0:0:0:
276,329,9041,6,0,P|313:323|349:314,1,75,0|0,0:0|0:0,0:0:0:0:
417,281,9380,2,0,P|447:259|474:233,1,75,0|0,0:0|0:0,0:0:0:0:
204,322,9719,6,0,P|168:310|133:296,1,75,0|0,0:0|0:0,0:0:0:0:
70,254,10058,2,0,P|43:228|20:198,1,75,0|0,0:0|0:0,0:0:0:0:
341,300,10397,6,0,P|371:277|398:251,1,75,0|0,0:0|0:0,0:0:0:0:
440,188,10736,2,0,P|455:154|466:118,1,75,0|0,0:0|0:0,0:0:0:0:
117,215,11075,6,0,P|108:179|103:142,1,75,0|0,0:0|0:0,0:0:0:0:
130,0,11414,1,0,0:0:0:0:
106,70,11584,1,0,0:0:0:0:
149,278,11753,6,0,L|223:287,1,75,0|0,0:0|0:0,0:0:0:0:
372,269,12092,2,0,L|297:278,1,75,0|0,0:0|0:0,0:0:0:0:
163,331,12431,2,0,L|231:301,1,75,0|0,0:0|0:0,0:0:0:0:
357,215,12770,2,0,L|296:260,1,75,0|0,0:0|0:0,0:0:0:0:
202,370,13109,2,0,L|246:310,1,75,0|0,0:0|0:0,0:0:0:0:
318,175,13448,2,0,L|288:244,1,75,0|0,0:0|0:0,0:0:0:0:
255,384,13787,2,0,L|264:309,1,75,0|0,0:0|0:0,0:0:0:0:
263,160,14126,1,0,0:0:0:0:
271,234,14296,1,0,0:0:0:0:
445,341,14465,6,0,P|455:301|449:266,1,75,0|0,0:0|0:0,0:0:0:0:
506,221,14804,2,0,P|486:184|457:163,1,75,0|0,0:0|0:0,0:0:0:0:
467,92,15143,6,0,P|427:79|392:82,1,75,0|0,0:0|0:0,0:0:0:0:
314,159,17177,2,0,L|330:321,1,150,2|0,0:0|0:0,0:0:0:0:
303,77,17855,1,8,0:0:0:0:
401,324,18533,6,0,P|335:357|263:343,1,150,0|0,0:0|0:0,0:0:0:0:
303,77,19211,1,8,0:0:0:0:
401,324,19719,5,2,0:0:0:0:
329,308,19889,2,0,B|288:313|261:337|261:337|226:322|188:323,1,150,2|0,0:0|0:0,0:0:0:0:
0,192,20567,1,8,0:0:0:0:
252,254,21245,6,0,B|271:231|280:182|265:169,1,75,0|0,0:0|0:0,0:0:0:0:
153,165,21584,2,0,B|147:194|163:241|183:244,1,75,2|0,0:0|0:0,0:0:0:0:
329,308,21923,2,0,P|327:270|315:235,1,75,8|0,0:0|0:0,0:0:0:0:
188,323,22262,1,4,0:0:0:0:
278,364,22431,1,2,0:0:0:0:
416,319,22601,6,0,L|401:169,1,150,2|0,0:0|0:0,0:0:0:0:
416,20,23279,6,0,L|401:169,1,150,8|0,0:0|0:0,0:0:0:0:
264,217,23957,6,0,P|338:209|401:169,1,150,0|2,0:0|0:0,0:0:0:0:
264,217,24635,2,0,L|279:366,1,150,8|0,0:0|0:0,0:0:0:0:
420,351,25143,5,2,0:0:0:0:
512,262,25313,2,0,P|467:202|400:169,1,150,2|0,0:0|0:0,0:0:0:0:
114,241,25991,1,8,0:0:0:0:
45,283,26668,5,8,0:0:0:0:
114,241,26894,5,8,0:0:0:0:
209,272,27120,5,8,0:0:0:0:
319,227,27346,5,8,0:0:0:0:
447,292,27685,5,8,0:0:0:0:
319,227,27855,1,8,0:0:0:0:
215,370,28024,6,0,B|274:412|321:324|276:281,1,150,2|0,0:0|0:0,0:0:0:0:
0,320,28702,1,8,0:0:0:0:
364,289,29380,6,0,B|424:234|394:160|358:157,1,150,0|2,0:0|0:0,0:0:0:0:
216,244,29889,1,0,0:0:0:0:
282,286,30058,1,8,0:0:0:0:
213,117,30397,1,0,0:0:0:0:
168,182,30567,1,0,0:0:0:0:
114,244,30736,6,0,B|55:286|8:198|53:155,1,150,2|0,0:0|0:0,0:0:0:0:
512,320,31414,1,8,0:0:0:0:
127,138,32092,6,0,B|159:96|240:127|266:168,1,150,0|2,0:0|0:0,0:0:0:0:
416,354,32770,1,8,0:0:0:0:
281,259,33109,1,4,0:0:0:0:
347,216,33279,1,2,0:0:0:0:
428,233,33448,6,0,B|487:275|534:187|489:144,1,150,2|0,0:0|0:0,0:0:0:0:
0,320,34126,1,8,0:0:0:0:
282,284,34635,5,0,0:0:0:0:
186,202,34804,2,0,B|130:184|71:173|23:240,1,150,0|2,0:0|0:0,0:0:0:0:
113,288,35313,1,0,0:0:0:0:
268,190,35482,2,0,B|233:159|164:137|101:155,1,150,8|2,0:0|0:0,0:0:0:0:
299,279,35991,1,0,0:0:0:0:
353,72,36160,2,0,B|333:30|322:6|238:58|273:118,1,150,2|0,0:0|0:0,0:0:0:0:
512,320,36838,1,8,0:0:0:0:
256,384,37516,5,2,0:0:0:0:
284,310,37685,1,0,0:0:0:0:
231,232,37855,1,2,0:0:0:0:
288,148,38024,1,0,0:0:0:0:
278,306,38194,5,8,0:0:0:0:
219,220,38364,1,0,0:0:0:0:
282,127,38533,1,2,0:0:0:0:
233,9,38703,1,0,0:0:0:0:
278,306,38872,6,0,B|232:310|208:323|208:323|193:334|193:334|174:326|174:326|147:321|102:328,1,179.999994506836,2|0,0:0|0:0,0:0:0:0:
0,288,40058,1,0,0:0:0:0:
60,243,40228,2,0,B|85:233|131:225|163:228,1,59.9999981689454,2|0,0:0|0:0,0:0:0:0:
189,253,40680,1,0,0:0:0:0:
111,226,40906,1,0,0:0:0:0:
37,171,41245,1,2,0:0:0:0:
189,253,41414,1,2,0:0:0:0:
278,306,41584,6,0,B|319:299|346:304|346:304|365:312|365:312|380:301|380:301|404:288|450:284,1,179.999994506836,2|0,0:0|0:0,0:0:0:0:
472,201,42940,2,0,B|459:193|393:202|382:213,1,89.9999972534181,2|0,0:0|0:0,0:0:0:0:
164,285,43448,2,0,B|151:277|85:286|74:297,1,89.9999972534181,2|0,0:0|0:0,0:0:0:0:
271,302,44296,6,0,P|316:236|245:202,1,179.999994506836,2|0,0:0|0:0,0:0:0:0:
77,295,45652,2,0,B|88:302|154:294|164:285,1,89.9999972534181,2|0,0:0|0:0,0:0:0:0:
147,185,46160,2,0,B|139:182|110:199|109:206,1,44.999998626709,2|0,0:0|0:0,0:0:0:0:
0,288,46668,1,2,0:0:0:0:
256,377,47007,6,0,P|271:341|273:296,1,44.999998626709,2|2,0:0|0:0,0:0:0:0:
366,324,47346,2,0,P|336:298|294:282,1,52.4999983978272,2|2,0:0|0:0,0:0:0:0:
348,202,47685,2,0,P|314:222|286:257,1,60,2|2,0:0|0:0,0:0:0:0:
228,174,48024,2,0,P|237:211|261:249,1,67.4999979400635,2|2,0:0|0:0,0:0:0:0:
443,320,48363,6,0,B|464:305|477:281|477:281|485:257|486:230,1,104.999996795654,0|0,0:0|0:0,0:0:0:0:
417,60,48702,2,0,B|434:73|446:93|446:93|452:114|454:137,1,89.9999972534181,0|0,0:0|0:0,0:0:0:0:
362,269,49041,2,0,B|379:263|394:251|394:251|405:236|413:219,1,75,0|0,0:0|0:0,0:0:0:0:
331,116,49380,2,0,B|345:117|358:125|358:125|369:135|378:148,1,60,0|0,0:0|0:0,0:0:0:0:
197,206,49719,6,0,L|143:215,1,45,2|0,0:0|0:0,0:0:0:0:
276,281,50397,6,0,B|296:268|325:273|325:273|351:262|351:262|348:254|356:251|356:251|283:209|269:177|269:177|262:180|256:174|256:174|160:189|160:189|153:201|146:202|146:202|130:210|134:260|102:281|94:305|94:305|101:265|101:250|92:240|56:220|53:212|53:206|90:177|94:171|91:163|39:142|36:134|64:73,1,675.000025749207,8|0,0:0|0:0,0:0:0:0:
94,30,51075,6,0,L|150:39,1,45,2|0,0:0|0:0,0:0:0:0:
242,87,51753,6,0,B|295:49|357:67|357:67|370:52|391:44|391:44|411:51|434:46|434:46|454:42|476:23|476:23|470:47|454:58|454:58|451:75|462:88|462:88|462:109|450:121|450:121|428:155|436:192|436:192|416:223|421:270|421:270|391:233|379:230|353:263|344:260|285:237|271:198,1,675.000025749207,8|0,0:0|0:0,0:0:0:0:
511,171,52431,6,0,L|557:165,1,45,2|0,0:0|0:0,0:0:0:0:
473,369,53109,6,0,B|502:357|502:357|458:341|458:341|412:345|412:345|375:331|375:331|314:339|314:339|269:328|269:328|301:317,1,300,8|2,0:0|0:0,0:0:0:0:
423,261,53618,1,0,0:0:0:0:
199,190,53787,2,0,B|248:235|248:235|331:259,1,150,0|0,0:0|0:0,0:0:0:0:
511,194,54126,1,2,0:0:0:0:
423,261,54296,1,0,0:0:0:0:
168,115,54465,1,8,0:0:0:0:
379,200,55143,5,2,0:0:0:0:
0,352,55821,6,0,P|32:261|299:263,1,375,8|2,0:0|0:0,0:0:0:0:
436,341,56329,2,0,P|519:310|367:225,1,375,0|0,0:0|0:0,0:0:0:0:
226,347,56838,2,0,P|336:339|352:224,1,187.5,2|0,0:0|0:0,0:0:0:0:
273,39,57177,1,8,0:0:0:0:
373,294,57346,1,0,0:0:0:0:
266,19,57516,2,0,B|243:2|217:1|191:8|177:10|180:40|168:44|147:44|141:22|126:18|109:18|64:41,1,187.5,0|0,0:0|0:0,0:0:0:0:
11,130,57855,6,0,B|31:109|38:105|46:100|91:107|97:115|101:122|83:142|63:164|64:170|65:175|113:206|119:207|126:208|183:197|183:177|172:149|158:130|177:107|183:105|190:103|246:103|251:107|257:112|302:155|307:159|312:163|289:178|282:179|245:210|251:226|310:267|321:262|328:259|356:278|363:268|367:255|418:262|412:248|409:232|429:228|428:202,1,562.5,2|2,0:0|0:0,0:0:0:0:
384,0,58533,2,0,L|360:185,1,187.5,8|0,0:0|0:0,0:0:0:0:
328,371,58872,1,2,0:0:0:0:
10,267,59211,6,0,B|63:255|63:255|188:297,1,134.999995880127,2|0,0:0|0:0,0:0:0:0:
396,310,59550,2,0,B|360:268|360:268|235:226,1,120,2|0,0:0|0:0,0:0:0:0:
57,340,59889,2,0,B|103:323|103:323|139:281,2,104.999996795654,2|2|0,0:0|0:0|0:0,0:0:0:0:
478,205,60567,6,0,L|468:249,1,45,2|0,0:0|0:0,0:0:0:0:
499,132,61245,6,0,B|516:94|488:20|416:0|416:0|390:55|425:123|466:149|466:149|396:103|325:108|359:170|317:177|240:115|240:115|204:121|229:183|122:135,1,675.000025749207,8|0,0:0|0:0,0:0:0:0:
251,231,61923,6,0,L|262:275,1,45,2|0,0:0|0:0,0:0:0:0:
174,152,62601,6,0,B|74:140|28:222|70:267|86:304|86:304|119:279|197:279|176:185|120:127|113:113|79:73|52:58|52:58|91:8|177:24,1,675.000025749207,8|0,0:0|0:0,0:0:0:0:
333,59,63279,6,0,L|290:49,1,45,2|0,0:0|0:0,0:0:0:0:
466,175,63957,6,0,B|482:203|482:203|436:211|436:211|391:200|391:200|352:207|352:207|294:188|294:188|247:191|247:191|264:160,1,300,8|2,0:0|0:0,0:0:0:0:
362,128,64466,1,0,0:0:0:0:
264,345,64635,2,0,B|209:291|209:291|284:269,1,150,0|0,0:0|0:0,0:0:0:0:
472,251,64974,1,2,0:0:0:0:
392,379,65144,1,0,0:0:0:0:
348,41,65313,1,8,0:0:0:0:
132,200,65991,5,2,0:0:0:0:
512,352,66668,6,0,B|488:187|297:144|237:238,1,375,8|2,0:0|0:0,0:0:0:0:
89,384,67177,2,0,L|14:-20,1,375,0|0,0:0|0:0,0:0:0:0:
306,96,67686,2,0,P|298:206|183:222,1,187.5,2|0,0:0|0:0,0:0:0:0:
70,132,68025,1,8,0:0:0:0:
242,40,68194,1,0,0:0:0:0:
127,308,68363,2,0,P|144:187|191:97,1,187.5,0|0,0:0|0:0,0:0:0:0:
328,0,68703,6,0,B|356:1|364:4|373:7|397:46|394:56|391:63|365:62|335:61|331:66|328:70|335:126|338:132|342:138|387:174|402:161|416:135|422:112|452:112|457:115|463:119|499:162|499:169|499:176|495:238|496:245|496:251|471:261|464:239|417:230|408:245|415:317|426:322|432:331|436:359|448:358|461:353|488:396|497:378|501:362|512:386|537:361,1,562.5,2|2,0:0|0:0,0:0:0:0:
225,332,69380,2,0,P|283:256|266:156,1,187.5,8|0,0:0|0:0,0:0:0:0:
337,375,69719,1,2,0:0:0:0:
506,304,70059,6,0,B|460:293|460:293|351:330,1,120,0|8,0:0|0:0,0:0:0:0:
273,169,70397,2,0,B|319:177|319:177|404:253,1,104.999996795654,2|0,0:0|0:0,0:0:0:0:
196,279,70736,2,0,B|235:252|235:252|348:245,1,89.9999972534181,8|2,0:0|0:0,0:0:0:0:
390,317,71076,1,0,0:0:0:0:
256,384,71414,6,0,B|231:363|188:372|183:362|183:362|174:347|128:365|85:320,1,150,2|0,0:0|0:0,0:0:0:0:
256,224,72092,1,8,0:0:0:0:
115,343,72770,6,0,P|66:287|60:214,1,150,0|2,0:0|0:0,0:0:0:0:
110,157,73279,1,0,0:0:0:0:
256,128,73448,1,8,0:0:0:0:
115,343,73956,5,2,0:0:0:0:
61,215,74126,2,0,B|45:176|15:156|15:156|20:119|10:82,1,150,2|0,0:0|0:0,0:0:0:0:
256,32,74804,1,8,0:0:0:0:
317,243,75482,6,0,B|336:220|345:171|330:158,1,75,0|0,0:0|0:0,0:0:0:0:
414,170,75821,2,0,B|412:140|385:98|365:98,1,75,2|0,0:0|0:0,0:0:0:0:
396,269,76160,2,0,P|394:231|382:196,1,75,8|0,0:0|0:0,0:0:0:0:
326,322,76499,1,4,0:0:0:0:
452,354,76668,1,2,0:0:0:0:
465,358,76753,1,2,0:0:0:0:
477,362,76838,6,0,L|492:212,1,150,2|0,0:0|0:0,0:0:0:0:
326,322,77516,6,0,L|311:173,1,150,8|0,0:0|0:0,0:0:0:0:
190,357,78194,6,0,P|157:290|98:244,1,150,0|2,0:0|0:0,0:0:0:0:
42,299,78702,1,0,0:0:0:0:
107,168,78872,2,0,L|122:19,1,150,8|0,0:0|0:0,0:0:0:0:
256,224,79380,5,0,0:0:0:0:
405,168,79550,2,0,P|406:93|373:25,1,150,2|0,0:0|0:0,0:0:0:0:
256,128,80058,1,2,0:0:0:0:
261,140,80143,1,2,0:0:0:0:
266,152,80228,1,8,0:0:0:0:
266,152,80736,1,8,0:0:0:0:
210,311,80906,5,0,0:0:0:0:
318,235,81075,1,8,0:0:0:0:
149,178,81245,2,0,P|116:146|90:131,1,75,2|0,0:0|0:0,0:0:0:0:
256,0,81584,5,8,0:0:0:0:
210,311,81923,1,8,0:0:0:0:
246,83,82093,1,0,0:0:0:0:
314,346,82262,6,0,B|332:293|405:251|477:258,1,157.499995193482,2|0,0:0|0:0,0:0:0:0:
512,288,82940,1,2,0:0:0:0:
465,127,83279,1,0,0:0:0:0:
337,213,83618,1,2,0:0:0:0:
264,197,83787,1,0,0:0:0:0:
191,181,83957,1,0,0:0:0:0:
467,127,84296,5,2,0:0:0:0:
191,181,84635,1,0,0:0:0:0:
264,197,84805,1,0,0:0:0:0:
356,363,84974,6,0,B|380:302|361:238|337:213,1,157.499995193482,2|0,0:0|0:0,0:0:0:0:
265,231,85652,1,2,0:0:0:0:
47,127,85991,1,0,0:0:0:0:
114,332,86329,2,0,L|126:257,1,52.4999983978272,2|0,0:0|0:0,0:0:0:0:
168,160,86668,2,0,L|159:211,1,52.4999983978272
23,197,87007,2,0,L|74:205,1,52.4999983978272,2|0,0:0|0:0,0:0:0:0:
265,231,87346,1,0,0:0:0:0:
448,191,87685,6,0,P|410:132|315:143,1,157.499995193482,2|0,0:0|0:0,0:0:0:0:
256,96,88363,1,2,0:0:0:0:
445,55,88702,1,0,0:0:0:0:
337,213,89041,1,2,0:0:0:0:
264,197,89210,1,0,0:0:0:0:
191,181,89380,1,0,0:0:0:0:
67,55,89719,1,2,0:0:0:0:
258,96,90058,1,0,0:0:0:0:
133,369,90397,5,2,0:0:0:0:
135,294,90567,1,2,0:0:0:0:
185,223,90736,1,2,0:0:0:0:
273,189,90906,1,2,0:0:0:0:
25,222,91075,5,2,0:0:0:0:
84,160,91245,1,2,0:0:0:0:
182,141,91414,1,2,0:0:0:0:
282,181,91584,1,2,0:0:0:0:
18,54,91753,6,0,P|65:31|116:24,1,104.999996795654,0|0,0:0|0:0,0:0:0:0:
239,67,92092,2,0,P|275:92|302:128,1,89.9999972534181,0|0,0:0|0:0,0:0:0:0:
318,249,92431,2,0,P|306:292|281:329,1,75,0|0,0:0|0:0,0:0:0:0:
175,370,92770,2,0,P|130:369|87:355,1,60,0|0,0:0|0:0,0:0:0:0:
0,192,93109,6,0,L|54:192,1,45,2|0,0:0|0:0,0:0:0:0:
173,237,93787,6,0,B|194:197|277:202|307:286|307:286|261:126|401:9|519:80|587:156|503:296|352:211,1,675.000025749207,8|0,0:0|0:0,0:0:0:0:
194,128,94465,6,0,L|247:134,1,45,2|0,0:0|0:0,0:0:0:0:
436,242,95143,6,0,B|511:243|542:172|541:163|512:81|496:78|458:72|338:18|273:62|424:150|361:229|243:148|186:49|202:27|226:-9|349:-77|463:-83|485:37|409:146,1,675.000025749207,8|0,0:0|0:0,0:0:0:0:
352,280,95821,6,0,L|307:285,1,45,2|0,0:0|0:0,0:0:0:0:
154,337,96499,6,0,B|210:354|210:354|260:287|260:287|195:220|195:220|141:262,1,300,8|2,0:0|0:0,0:0:0:0:
67,310,97008,1,0,0:0:0:0:
9,92,97177,2,0,B|-24:88|-24:88|16:208,1,150,0|0,0:0|0:0,0:0:0:0:
209,353,97516,1,2,0:0:0:0:
67,310,97686,1,0,0:0:0:0:
157,32,97855,1,8,0:0:0:0:
333,248,98533,5,2,0:0:0:0:
0,227,99211,6,0,B|62:309|176:257|147:196|254:149|326:240,1,375,8|2,0:0|0:0,0:0:0:0:
501,82,99719,2,0,B|486:37|376:-56|265:112|326:240,1,375,0|0,0:0|0:0,0:0:0:0:
125,80,100228,2,0,P|179:90|300:207,1,187.5,2|0,0:0|0:0,0:0:0:0:
376,349,100567,1,8,0:0:0:0:
260,39,100736,1,0,0:0:0:0:
383,366,100906,2,0,B|475:355|497:262|473:231|386:252,1,187.5,0|0,0:0|0:0,0:0:0:0:
257,323,101245,6,0,B|168:376|-73:376|-149:341|-48:228|16:191|149:167,1,562.5,2|2,0:0|0:0,0:0:0:0:
400,116,101923,2,0,P|330:187|238:244,1,187.5,8|0,0:0|0:0,0:0:0:0:
75,277,102262,1,2,0:0:0:0:
63,55,102601,6,0,B|99:94|99:94|126:224,1,134.999995880127,2|0,0:0|0:0,0:0:0:0:
216,23,102940,2,0,B|225:76|225:76|176:199,1,120,2|0,0:0|0:0,0:0:0:0:
361,79,103279,2,0,B|339:128|339:128|232:205,2,104.999996795654,2|2|0,0:0|0:0|0:0,0:0:0:0:
304,377,103957,6,0,P|313:357|327:338,1,45,2|0,0:0|0:0,0:0:0:0:
372,160,104635,6,0,B|375:212|398:262|443:312|443:312|375:231|325:231|311:227|297:222|284:218|251:305|225:299|204:295|185:202|91:242|75:306|65:316|65:316|75:318|104:341|168:322|192:281,1,675.000025749207,8|0,0:0|0:0,0:0:0:0:
219,192,105313,6,0,P|210:172|196:153,1,45,2|0,0:0|0:0,0:0:0:0:
2,39,105991,6,0,B|56:36|151:80|151:80|163:39|146:7|146:7|96:43|65:88|63:147|63:147|171:21|344:103,1,675.000025749207,8|0,0:0|0:0,0:0:0:0:
461,137,106669,6,0,L|418:127,1,45,2|0,0:0|0:0,0:0:0:0:
460,266,107346,2,0,B|422:257|422:257|410:262|410:262|333:244|333:244|345:237|345:237|323:232|323:232|308:238|308:238|188:211,1,300,8|2,0:0|0:0,0:0:0:0:
53,352,107856,1,0,0:0:0:0:
296,335,108024,2,0,B|319:319|319:319|188:289,1,150,0|0,0:0|0:0,0:0:0:0:
10,228,108364,1,2,0:0:0:0:
53,352,108534,1,0,0:0:0:0:
347,196,108703,1,8,0:0:0:0:
121,307,109381,5,2,0:0:0:0:
438,383,110058,2,0,B|348:309|381:164|466:157|466:157|507:195|500:246|444:270,1,375,8|2,0:0|0:0,0:0:0:0:
218,130,110567,2,0,B|254:24|370:-30|453:19|453:19|455:70|415:102|387:90,1,375,0|0,0:0|0:0,0:0:0:0:
40,166,111075,2,0,P|54:73|100:-5,1,187.5,2|0,0:0|0:0,0:0:0:0:
209,331,111414,1,8,0:0:0:0:
26,157,111584,1,0,0:0:0:0:
218,343,111753,2,0,P|309:319|384:267,1,187.5,0|0,0:0|0:0,0:0:0:0:
292,68,112092,6,0,B|220:70|119:175|337:187|146:241|98:375|97:152|43:217|-8:283|-87:379|68:402|107:295,1,562.5,2|2,0:0|0:0,0:0:0:0:
469,107,112770,2,0,P|394:116|281:209,1,187.5,8|0,0:0|0:0,0:0:0:0:
230,351,113109,1,2,0:0:0:0:
512,293,113279,6,0,P|448:251|302:250,1,165.000005035401,8|0,0:0|0:0,0:0:0:0:
108,295,113618,1,2,0:0:0:0:
176,95,113787,2,0,L|189:230,1,104.999996795654,2|2,0:0|0:0,0:0:0:0:
230,351,114126,1,8,0:0:0:0:
177,186,114296,1,2,0:0:0:0:
299,32,114465,2,0,L|287:147,1,75,2|2,0:0|0:0,0:0:0:0:
272,268,114804,5,4,0:0:0:0:
487,231,124748,6,0,L|496:305,2,50,0|0|0,0:0|0:0|0:0,0:0:0:0:
512,254,125652,6,0,P|360:260|210:277,1,300,4|0,0:0|0:0,0:0:0:0:
0,288,128363,6,0,P|150:308|298:338,1,300,0|0,0:0|0:0,0:0:0:0:
25,265,130397,6,0,L|17:336,2,56.25,0|0|0,0:0|0:0|0:0,0:0:0:0:
0,185,131075,6,0,P|147:218|292:260,1,300,2|0,0:0|0:0,0:0:0:0:
481,175,133109,6,0,L|490:246,2,56.25,0|0|0,0:0|0:0|0:0,0:0:0:0:
512,185,133787,6,0,P|367:230|227:285,1,300,2|0,0:0|0:0,0:0:0:0:
31,175,135595,6,0,L|22:246,2,50,0|0|0,0:0|0:0|0:0,0:0:0:0:
21,86,136499,6,0,P|97:116|173:149,1,165.000005035401,4|0,0:0|0:0,0:0:0:0:
491,86,137855,2,0,P|417:123|345:162,1,165.000005035401,4|0,0:0|0:0,0:0:0:0:
240,301,139211,1,2,0:0:0:0:
120,187,139889,6,0,P|157:208|191:230,1,82.5000025177003,4|0,0:0|0:0,0:0:0:0:
382,176,140567,2,0,P|350:202|320:230,1,82.5000025177003,4|0,0:0|0:0,0:0:0:0:
162,67,141245,2,0,P|189:98|213:131,1,82.5000025177003,4|0,0:0|0:0,0:0:0:0:
266,372,141923,5,6,0:0:0:0:
207,315,142262,1,4,0:0:0:0:
304,266,142601,1,4,0:0:0:0:
149,212,142940,1,4,0:0:0:0:
370,172,143279,1,4,0:0:0:0:
92,124,143618,1,4,0:0:0:0:
433,66,143957,1,4,0:0:0:0:
33,3,144296,1,4,0:0:0:0:
266,372,144635,6,0,P|249:346|211:310,1,48.7499977684022,4|4,0:0|0:0,0:0:0:0:
390,208,144974,6,0,P|374:227|362:248,1,48.7499977684022,4|4,0:0|0:0,0:0:0:0:
139,200,145313,6,0,P|122:182|104:167,1,48.7499977684022,4|4,0:0|0:0,0:0:0:0:
433,66,145652,6,0,P|445:44|453:22,1,48.7499977684022,4|4,0:0|0:0,0:0:0:0:
18,253,148702,6,0,P|217:155|438:177,1,450,2|0,0:0|0:0,0:0:0:0:
384,55,149379,5,8,0:0:0:0:
3,162,149549,1,2,0:0:0:0:
7,146,149718,1,2,0:0:0:0:
11,132,149888,1,2,0:0:0:0:
439,178,150057,6,0,B|471:218|470:270|457:313|457:313|437:235|409:186|384:137|327:100|232:82,1,450,2|0,0:0|0:0,0:0:0:0:
95,137,150735,5,8,0:0:0:0:
476,30,150905,1,2,0:0:0:0:
472,16,151075,1,2,0:0:0:0:
468,0,151244,1,2,0:0:0:0:
240,229,151413,6,0,B|302:264|301:341|301:341|234:418|140:375|140:375|108:307|151:240,1,450,2|0,0:0|0:0,0:0:0:0:
222,111,152091,6,0,P|156:-21|130:126,1,389.999982147218,8|2,0:0|0:0,0:0:0:0:
334,351,152600,1,0,0:0:0:0:
35,197,152769,2,0,L|192:179,1,150,0|0,0:0|0:0,0:0:0:0:
432,153,153108,1,2,0:0:0:0:
383,252,153278,1,0,0:0:0:0:
0,120,153447,1,8,0:0:0:0:
184,180,153786,6,0,L|188:247,1,37.5,0|0,0:0|0:0,0:0:0:0:
383,252,154125,2,0,L|386:307,1,45,2|0,0:0|0:0,0:0:0:0:
131,357,154803,6,0,B|44:278|119:177|123:164|157:244|240:94|121:36|61:68|32:126|100:168,1,375,8|2,0:0|0:0,0:0:0:0:
202,275,155312,2,0,P|351:231|240:122,1,375,0|0,0:0|0:0,0:0:0:0:
0,258,155820,2,0,P|52:331|171:303,1,187.5,2|0,0:0|0:0,0:0:0:0:
401,209,156159,1,8,0:0:0:0:
68,127,156329,1,0,0:0:0:0:
369,328,156498,2,0,P|459:331|512:258,1,187.5
295,18,156837,6,0,B|224:-47|99:66|178:213|274:179|272:173|269:167|391:249|331:359|301:389|254:402|184:389|162:318|195:261|223:268,1,629.999980773926,2|2,0:0|0:0,0:0:0:0:
469,71,157515,2,0,P|432:156|375:231,1,187.5,8|0,0:0|0:0,0:0:0:0:
123,24,157854,2,0,P|178:98|214:185,1,187.5,2|0,0:0|0:0,0:0:0:0:
2,278,158193,6,0,P|78:286|148:311,1,150,2|2,0:0|0:0,0:0:0:0:
351,218,158532,2,0,P|277:239|212:275,1,134.999995880127,2|2,0:0|0:0,0:0:0:0:
24,158,158871,2,0,P|97:179|162:215,1,120,2|2,0:0|0:0,0:0:0:0:
236,78,159210,1,2,0:0:0:0:
364,348,159549,6,0,B|536:308|587:9|416:32|375:85,1,450,2|0,0:0|0:0,0:0:0:0:
330,238,160227,5,8,0:0:0:0:
49,94,160396,1,2,0:0:0:0:
44,83,160566,1,2,0:0:0:0:
39,72,160735,1,2,0:0:0:0:
431,141,160905,6,0,P|281:126|9:274,1,450,2|0,0:0|0:0,0:0:0:0:
236,354,161583,5,8,0:0:0:0:
51,60,161752,1,2,0:0:0:0:
46,49,161922,1,2,0:0:0:0:
41,38,162091,1,2,0:0:0:0:
151,383,162261,6,0,B|273:374|374:329|374:329|464:256|519:148,1,450,2|0,0:0|0:0,0:0:0:0:
449,0,162939,6,0,B|292:9|163:66|163:66|49:159|-19:298,1,584.999973220826,8|0,0:0|0:0,0:0:0:0:
488,313,163617,6,0,B|485:273|470:241|470:241|447:212|412:194,1,150,0|0,0:0|0:0,0:0:0:0:
201,272,163956,1,2,0:0:0:0:
331,321,164125,1,0,0:0:0:0:
500,64,164295,1,8,0:0:0:0:
263,135,164634,6,0,L|259:202,1,37.5,0|0,0:0|0:0,0:0:0:0:
64,207,164973,2,0,L|67:262,1,45,2|0,0:0|0:0,0:0:0:0:
192,348,165651,6,0,B|281:363|420:361|501:332|506:309|502:302|491:289|482:283|400:279,1,375,8|2,0:0|0:0,0:0:0:0:
87,182,166159,2,0,B|43:179|34:184|22:196|12:194|20:226|98:262|237:276|327:269,1,375,0|0,0:0|0:0,0:0:0:0:
512,102,166668,2,0,B|532:97|543:74|543:74|522:68|468:67|425:83|384:101,1,187.5,2|0,0:0|0:0,0:0:0:0:
98,334,167007,1,8,0:0:0:0:
438,187,167176,1,0,0:0:0:0:
130,28,167346,2,0,B|71:32|10:120|7:169,1,187.5,2|0,0:0|0:0,0:0:0:0:
451,267,167685,6,0,P|235:92|97:333,1,629.999980773926,8|0,0:0|0:0,0:0:0:0:
451,85,168363,2,0,B|428:30|326:0|278:11,1,187.5,8|0,0:0|0:0,0:0:0:0:
8,157,168702,2,0,L|220:119,1,187.5,2|0,0:0|0:0,0:0:0:0:
439,342,169040,5,8,0:0:0:0:
452,255,169210,1,2,0:0:0:0:
336,310,169379,5,10,0:0:0:0:
326,245,169549,1,2,0:0:0:0:
219,307,169718,5,8,0:0:0:0:
203,267,169888,1,2,0:0:0:0:
106,342,170057,5,8,0:0:0:0:
87,317,170227,1,2,0:0:0:0:
279,384,170396,5,2,0:0:0:0:
439,342,173108,1,2,0:0:0:0:
86,316,175820,5,2,0:0:0:0:
167,265,176498,2,0,P|226:269|278:298,1,120,0|2,0:0|0:0,0:0:0:0:
327,375,177007,2,0,P|379:346|438:341,1,120,0|0,0:0|0:0,0:0:0:0:
506,274,177515,2,0,L|489:179,1,60,2|0,0:0|0:0,0:0:0:0:
389,157,177854,1,0,0:0:0:0:
512,222,178024,1,0,0:0:0:0:
372,149,178193,2,0,L|361:208,1,60,2|0,0:0|0:0,0:0:0:0:
327,375,178532,6,0,P|267:341|198:348,1,134.999995880127,0|0,0:0|0:0,0:0:0:0:
58,231,179210,1,8,0:0:0:0:
372,149,179549,1,2,0:0:0:0:
236,316,179888,1,0,0:0:0:0:
220,243,180057,1,0,0:0:0:0:
204,170,180227,1,2,0:0:0:0:
379,369,180566,5,8,0:0:0:0:
434,311,180735,1,2,0:0:0:0:
463,224,180905,1,8,0:0:0:0:
449,132,181074,1,0,0:0:0:0:
338,38,181244,6,0,B|155:48|15:93|15:93|83:87|133:122,1,450,2|0,0:0|0:0,0:0:0:0:
193,280,181922,2,0,B|212:304|194:368|132:395|25:387|-34:335|-22:204|71:135|168:147|214:155|269:194|270:200|271:210|256:337|344:333|397:319|448:283|482:240|472:176|433:136|384:123|354:118|340:123,1,787.500007510185,8|0,0:0|0:0,0:0:0:0:
16,93,182600,6,0,B|199:83|339:38|339:38|281:64|252:131,1,450,2|0,0:0|0:0,0:0:0:0:
339,337,183278,2,0,B|398:384|535:360|542:276|529:235|462:178|399:171|336:182|274:214|211:248|216:255|224:265|123:382|44:355|11:318|-3:160|113:182|199:237,1,787.500007510185,8|0,0:0|0:0,0:0:0:0:
414,112,183956,6,0,L|383:291,2,134.999995880127,2|0|0,0:0|0:0|0:0,0:0:0:0:
432,29,184464,1,0,0:0:0:0:
320,145,184634,6,0,L|203:284,2,134.999995880127,8|0|2,0:0|0:0|0:0,0:0:0:0:
446,10,185142,1,0,0:0:0:0:
201,112,185312,6,0,P|118:120|26:85,1,134.999995880127,0|0,0:0|0:0,0:0:0:0:
0,305,185651,2,0,P|63:283|116:242,1,134.999995880127,2|0,0:0|0:0,0:0:0:0:
256,12,185990,1,8,0:0:0:0:
255,273,186668,6,0,L|260:377,1,90,2|0,0:0|0:0,0:0:0:0:
403,384,187346,6,0,B|473:313|499:224|499:224|505:117|445:50,1,375,8|2,0:0|0:0,0:0:0:0:
223,184,187854,2,0,B|308:147|405:190|405:190|382:304|286:348,1,375,0|0,0:0|0:0,0:0:0:0:
47,379,188363,2,0,B|55:283|143:223|143:223,1,187.5,2|0,0:0|0:0,0:0:0:0:
430,176,188702,1,8,0:0:0:0:
171,97,188871,1,0,0:0:0:0:
274,362,189040,2,0,B|341:293|330:188|330:188,1,187.5,0|0,0:0|0:0,0:0:0:0:
114,25,189379,6,0,B|58:80|53:130|61:183|99:213|145:229|212:217|284:198|308:127|236:63|344:-14|466:-49|544:0|568:38|560:122|501:194|426:198,1,750,2|8,0:0|0:0,0:0:0:0:
274,362,190396,5,2,0:0:0:0:
108,314,190735,2,0,P|154:297|340:283,1,150,2|0,0:0|0:0,0:0:0:0:
242,196,191074,2,0,P|167:206|96:230,1,150,2|0,0:0|0:0,0:0:0:0:
349,351,191413,6,0,P|423:340|494:316,1,150,8|2,0:0|0:0,0:0:0:0:
483,233,191752,2,0,P|437:250|251:264,1,150,2|0,0:0|0:0,0:0:0:0:
13,217,192091,1,2,0:0:0:0:
108,314,192769,6,0,L|124:64,1,225,0|0,0:0|0:0,0:0:0:0:
133,14,193447,1,2,0:0:0:0:
393,224,194125,6,0,L|378:0,1,225
