osu file format v14

[General]
AudioFilename: audio.mp3
AudioLeadIn: 0
PreviewTime: 91725
Countdown: 0
SampleSet: Soft
StackLeniency: 0.3
Mode: 0
LetterboxInBreaks: 0
WidescreenStoryboard: 0

[Editor]
Bookmarks: 6357,17204,28051,38899,49746,70085,82289,93136,114831,124831,146018,148729,170424,181272,192119,194831
DistanceSpacing: 1.4
BeatDivisor: 4
GridSize: 16
TimelineZoom: 1.8

[Metadata]
Title:RISE (ft. The Glitch Mob, Mako, and The Word Alive)
TitleUnicode:RISE (ft. The Glitch Mob, Mako, and The Word Alive)
Artist:League of Legends
ArtistUnicode:League of Legends
Creator:DeviousPanda
Version:Ascension
Source:Leauge of Legends
Tags:
BeatmapID:1789071
BeatmapSetID:856341

[Difficulty]
HPDrainRate:3.5
CircleSize:3.8
OverallDifficulty:8
ApproachRate:9.3
SliderMultiplier:1.4
SliderTickRate:1

[Events]
//Background and Video events
0,0,"bg.jpg",0,0
//Break Periods
2,115031,124277
//Storyboard Layer 0 (Background)
//Storyboard Layer 1 (Fail)
//Storyboard Layer 2 (Pass)
//Storyboard Layer 3 (Foreground)
//Storyboard Sound Samples

[TimingPoints]
6357,338.983050847458,4,2,1,35,1,0
15170,-400,4,2,1,35,0,0
17204,-40,4,2,1,50,0,0
17797,-40,4,2,1,5,0,0
17882,-400,4,2,1,70,0,0
18475,-400,4,2,1,5,0,0
18560,-40,4,2,1,50,0,0
19238,-400,4,2,1,70,0,0
19662,-400,4,2,1,5,0,0
19746,-40,4,2,1,50,0,0
19831,-40,4,2,1,5,0,0
19916,-40,4,2,1,50,0,0
20509,-40,4,2,1,5,0,0
20594,-400,4,2,1,70,0,0
21187,-400,4,2,1,5,0,0
21272,-40,4,2,1,50,0,0
21865,-40,4,2,1,5,0,0
21950,-400,4,2,1,70,0,0
22204,-400,4,2,1,5,0,0
22289,-40,4,2,1,50,0,0
22373,-40,4,2,1,5,0,0
22458,-40,4,2,1,50,0,0
22543,-40,4,2,1,5,0,0
22628,-40,4,2,1,50,0,0
23221,-40,4,2,1,5,0,0
23306,-400,4,2,1,70,0,0
23899,-400,4,2,1,5,0,0
23984,-40,4,2,1,50,0,0
24577,-40,4,2,1,5,0,0
24662,-400,4,2,1,70,0,0
24916,-400,4,2,1,5,0,0
25001,-400,4,2,1,70,0,0
25170,-40,4,2,1,50,0,0
25255,-40,4,2,1,5,0,0
25340,-40,4,2,1,50,0,0
25933,-40,4,2,1,5,0,0
26018,-400,4,2,1,70,0,0
26611,-400,4,2,1,5,0,0
26695,-400,4,2,1,70,0,0
28051,-40,4,2,1,50,0,0
28645,-40,4,2,1,5,0,0
28729,-400,4,2,1,70,0,0
29153,-400,4,2,1,5,0,0
29238,-400,4,2,1,70,0,0
30763,-40,4,2,1,50,0,0
31357,-40,4,2,1,5,0,0
31441,-400,4,2,1,70,0,0
32034,-400,4,2,1,5,0,0
32119,-400,4,2,1,70,0,0
32458,-40,4,2,1,50,0,0
32712,-40,4,2,1,5,0,0
32797,-400,4,2,1,70,0,0
33051,-400,4,2,1,5,0,0
33136,-400,4,2,1,70,0,0
33221,-400,4,2,1,5,0,0
33306,-400,4,2,1,70,0,0
33390,-400,4,2,1,5,0,0
33475,-40,4,2,1,50,0,0
34153,-400,4,2,1,70,0,0
34831,-40,4,2,1,50,0,0
35085,-40,4,2,1,5,0,0
35170,-40,4,2,1,50,0,0
35424,-40,4,2,1,5,0,0
35509,-400,4,2,1,70,0,0
36102,-400,4,2,1,5,0,0
36187,-40,4,2,1,50,0,0
36865,-400,4,2,1,70,0,0
38899,-66.6666666666667,4,2,1,40,0,0
39577,-100,4,2,1,40,0,0
41611,-66.6666666666667,4,2,1,40,0,0
42289,-100,4,2,1,40,0,0
44323,-66.6666666666667,4,2,1,40,0,0
45001,-100,4,2,1,40,0,0
47119,-100,4,2,1,5,0,0
47204,-100,4,2,1,40,0,0
47289,-100,4,2,1,5,0,0
47373,-111.111111111111,4,2,1,40,0,0
47458,-100,4,2,1,5,0,0
47543,-111.111111111111,4,2,1,40,0,0
47628,-100,4,2,1,5,0,0
47712,-125,4,2,1,40,0,0
47797,-100,4,2,1,5,0,0
47882,-125,4,2,1,40,0,0
47967,-100,4,2,1,5,0,0
48051,-142.857142857143,4,2,1,40,0,0
48136,-100,4,2,1,5,0,0
48221,-142.857142857143,4,2,1,40,0,0
48306,-100,4,2,1,5,0,0
48390,-200,4,2,1,40,0,0
48645,-200,4,2,1,5,0,0
48729,-250,4,2,1,40,0,0
48984,-250,4,2,1,5,0,0
49068,-333.333333333333,4,2,1,40,0,0
49323,-333.333333333333,4,2,1,5,0,0
49407,-1000,4,2,1,40,0,0
49662,-1000,4,2,1,5,0,0
49746,-33.3333333333333,4,2,1,70,0,1
50340,-33.3333333333333,4,2,1,5,0,1
50424,-1000,4,2,1,90,0,1
51018,-1000,4,2,1,5,0,1
51102,-33.3333333333333,4,2,1,70,0,1
51695,-33.3333333333333,4,2,1,5,0,1
51780,-1000,4,2,1,90,0,1
52373,-1000,4,2,1,5,0,1
52458,-33.3333333333333,4,2,1,70,0,1
53136,-400,4,2,1,90,0,1
53221,-1000,4,2,1,5,0,1
53306,-400,4,2,1,90,0,1
53390,-1000,4,2,1,5,0,1
53475,-33.3333333333333,4,2,1,70,0,1
53560,-33.3333333333333,4,2,1,5,0,1
53645,-33.3333333333333,4,2,1,70,0,1
53729,-33.3333333333333,4,2,1,5,0,1
53814,-33.3333333333333,4,2,1,70,0,1
54068,-33.3333333333333,4,2,1,5,0,1
54153,-33.3333333333333,4,2,1,70,0,1
54238,-33.3333333333333,4,2,1,5,0,1
54323,-33.3333333333333,4,2,1,70,0,1
54407,-33.3333333333333,4,2,1,5,0,1
54492,-1000,4,2,1,90,0,1
55085,-1000,4,2,1,5,0,1
55170,-33.3333333333333,4,2,1,70,0,1
55763,-33.3333333333333,4,2,1,5,0,1
55848,-1000,4,2,1,90,0,1
56102,-1000,4,2,1,5,0,1
56187,-33.3333333333333,4,2,1,70,0,1
56780,-33.3333333333333,4,2,1,5,0,1
56865,-33.3333333333333,4,2,1,70,0,1
57119,-33.3333333333333,4,2,1,5,0,1
57204,-1000,4,2,1,90,0,1
57797,-1000,4,2,1,5,0,1
57882,-33.3333333333333,4,2,1,70,0,1
58560,-1000,4,2,1,90,0,1
58814,-1000,4,2,1,5,0,1
58899,-33.3333333333333,4,2,1,70,0,1
59153,-33.3333333333333,4,2,1,5,0,1
59238,-33.3333333333333,4,2,1,70,0,1
59323,-33.3333333333333,4,2,1,5,0,1
59407,-33.3333333333333,4,2,1,70,0,1
59492,-33.3333333333333,4,2,1,5,0,1
59577,-33.3333333333333,4,2,1,70,0,1
59662,-33.3333333333333,4,2,1,5,0,1
59746,-33.3333333333333,4,2,1,70,0,1
59831,-33.3333333333333,4,2,1,5,0,1
59916,-400,4,2,1,90,0,1
60001,-1000,4,2,1,5,0,1
60085,-400,4,2,1,90,0,1
60170,-1000,4,2,1,5,0,1
60255,-400,4,2,1,90,0,1
60340,-1000,4,2,1,5,0,1
60424,-400,4,2,1,90,0,1
60509,-1000,4,2,1,5,0,1
60594,-33.3333333333333,4,2,1,70,0,1
61187,-33.3333333333333,4,2,1,5,0,1
61272,-1000,4,2,1,90,0,1
61865,-1000,4,2,1,5,0,1
61950,-33.3333333333333,4,2,1,70,0,1
62543,-33.3333333333333,4,2,1,5,0,1
62628,-1000,4,2,1,90,0,1
63221,-1000,4,2,1,5,0,1
63306,-33.3333333333333,4,2,1,70,0,1
63984,-400,4,2,1,90,0,1
64068,-1000,4,2,1,5,0,1
64153,-400,4,2,1,90,0,1
64238,-1000,4,2,1,5,0,1
64323,-33.3333333333333,4,2,1,70,0,1
64407,-33.3333333333333,4,2,1,5,0,1
64492,-33.3333333333333,4,2,1,70,0,1
64577,-33.3333333333333,4,2,1,5,0,1
64662,-33.3333333333333,4,2,1,70,0,1
64916,-33.3333333333333,4,2,1,5,0,1
65001,-33.3333333333333,4,2,1,70,0,1
65085,-33.3333333333333,4,2,1,5,0,1
65170,-33.3333333333333,4,2,1,70,0,1
65255,-33.3333333333333,4,2,1,5,0,1
65340,-1000,4,2,1,90,0,1
65933,-1000,4,2,1,5,0,1
66018,-33.3333333333333,4,2,1,70,0,1
66611,-33.3333333333333,4,2,1,5,0,1
66695,-1000,4,2,1,90,0,1
66950,-1000,4,2,1,5,0,1
67034,-33.3333333333333,4,2,1,70,0,1
67628,-33.3333333333333,4,2,1,5,0,1
67712,-33.3333333333333,4,2,1,70,0,1
67967,-33.3333333333333,4,2,1,5,0,1
68051,-1000,4,2,1,90,0,1
68645,-1000,4,2,1,5,0,1
68729,-33.3333333333333,4,2,1,70,0,1
69407,-1000,4,2,1,90,0,1
70001,-1000,4,2,1,5,0,1
70085,-66.6666666666667,4,2,1,50,0,0
70170,-66.6666666666667,4,2,1,5,0,0
70255,-200,4,2,1,70,0,0
70340,-400,4,2,1,5,0,0
70424,-200,4,2,1,70,0,0
70848,-200,4,2,1,5,0,0
70933,-200,4,2,1,70,0,0
71357,-200,4,2,1,5,0,0
71441,-50,4,2,1,50,0,0
71526,-50,4,2,1,5,0,0
71611,-50,4,2,1,50,0,0
71696,-50,4,2,1,5,0,0
71780,-50,4,2,1,50,0,0
71865,-50,4,2,1,5,0,0
71950,-50,4,2,1,50,0,0
72035,-50,4,2,1,5,0,0
72119,-400,4,2,1,70,0,0
72712,-400,4,2,1,5,0,0
72797,-400,4,2,1,70,0,0
73136,-40,4,2,1,50,0,0
73390,-40,4,2,1,5,0,0
73475,-400,4,2,1,70,0,0
73899,-400,4,2,1,5,0,0
73984,-40,4,2,1,50,0,0
74068,-40,4,2,1,5,0,0
74153,-50,4,2,1,50,0,0
74238,-50,4,2,1,5,0,0
74323,-50,4,2,1,50,0,0
74408,-50,4,2,1,5,0,0
74492,-50,4,2,1,50,0,0
74577,-50,4,2,1,5,0,0
74662,-50,4,2,1,50,0,0
74747,-50,4,2,1,5,0,0
74831,-400,4,2,1,70,0,0
75424,-400,4,2,1,5,0,0
75509,-400,4,2,1,70,0,0
75848,-40,4,2,1,50,0,0
76102,-40,4,2,1,5,0,0
76187,-400,4,2,1,70,0,0
76441,-400,4,2,1,5,0,0
76526,-40,4,2,1,50,0,0
76611,-40,4,2,1,5,0,0
76696,-400,4,2,1,70,0,0
76865,-50,4,2,1,50,0,0
76950,-50,4,2,1,5,0,0
77035,-50,4,2,1,50,0,0
77120,-50,4,2,1,5,0,0
77204,-50,4,2,1,50,0,0
77289,-50,4,2,1,5,0,0
77374,-50,4,2,1,50,0,0
77459,-50,4,2,1,5,0,0
77543,-400,4,2,1,70,0,0
78136,-400,4,2,1,5,0,0
78221,-40,4,2,1,50,0,0
78560,-40,4,2,1,50,0,0
78814,-40,4,2,1,5,0,0
78899,-400,4,2,1,50,0,0
79323,-40,4,2,1,5,0,0
79407,-400,4,2,1,50,0,0
79577,-50,4,2,1,50,0,0
79662,-50,4,2,1,5,0,0
79746,-50,4,2,1,50,0,0
79831,-50,4,2,1,5,0,0
79916,-50,4,2,1,50,0,0
80001,-50,4,2,1,5,0,0
80085,-50,4,2,1,50,0,0
80255,-400,4,2,1,70,0,0
82289,-66.6666666666667,4,2,1,40,0,0
82967,-100,4,2,1,40,0,0
84323,-66.6666666666667,4,2,1,40,0,0
85001,-100,4,2,1,40,0,0
87712,-66.6666666666667,4,2,1,40,0,0
88390,-100,4,2,1,40,0,0
90509,-100,4,2,1,5,0,0
90594,-100,4,2,1,40,0,0
90679,-100,4,2,1,5,0,0
90763,-111.111111111111,4,2,1,40,0,0
90848,-100,4,2,1,5,0,0
90933,-111.111111111111,4,2,1,40,0,0
91018,-100,4,2,1,5,0,0
91102,-125,4,2,1,40,0,0
91187,-100,4,2,1,5,0,0
91272,-125,4,2,1,40,0,0
91357,-100,4,2,1,5,0,0
91441,-142.857142857143,4,2,1,40,0,0
91526,-100,4,2,1,5,0,0
91611,-142.857142857143,4,2,1,40,0,0
91696,-100,4,2,1,5,0,0
91780,-200,4,2,1,40,0,0
92035,-200,4,2,1,5,0,0
92119,-250,4,2,1,40,0,0
92374,-250,4,2,1,5,0,0
92458,-333.333333333333,4,2,1,40,0,0
92713,-333.333333333333,4,2,1,5,0,0
92797,-1000,4,2,1,40,0,0
93052,-1000,4,2,1,5,0,0
93136,-33.3333333333333,4,2,1,70,0,1
93730,-33.3333333333333,4,2,1,5,0,1
93814,-1000,4,2,1,90,0,1
94408,-1000,4,2,1,5,0,1
94492,-33.3333333333333,4,2,1,70,0,1
95085,-33.3333333333333,4,2,1,5,0,1
95170,-1000,4,2,1,90,0,1
95763,-1000,4,2,1,5,0,1
95848,-33.3333333333333,4,2,1,70,0,1
96526,-400,4,2,1,90,0,1
96611,-1000,4,2,1,5,0,1
96695,-400,4,2,1,90,0,1
96780,-1000,4,2,1,5,0,1
96865,-33.3333333333333,4,2,1,70,0,1
96950,-33.3333333333333,4,2,1,5,0,1
97035,-33.3333333333333,4,2,1,70,0,1
97119,-33.3333333333333,4,2,1,5,0,1
97204,-33.3333333333333,4,2,1,70,0,1
97458,-33.3333333333333,4,2,1,5,0,1
97543,-33.3333333333333,4,2,1,70,0,1
97628,-33.3333333333333,4,2,1,5,0,1
97713,-33.3333333333333,4,2,1,70,0,1
97797,-33.3333333333333,4,2,1,5,0,1
97882,-1000,4,2,1,90,0,1
98475,-1000,4,2,1,5,0,1
98560,-33.3333333333333,4,2,1,70,0,1
99153,-33.3333333333333,4,2,1,5,0,1
99238,-1000,4,2,1,90,0,1
99492,-1000,4,2,1,5,0,1
99577,-33.3333333333333,4,2,1,70,0,1
100170,-33.3333333333333,4,2,1,5,0,1
100255,-33.3333333333333,4,2,1,70,0,1
100509,-33.3333333333333,4,2,1,5,0,1
100594,-1000,4,2,1,90,0,1
101187,-1000,4,2,1,5,0,1
101272,-33.3333333333333,4,2,1,70,0,1
101950,-1000,4,2,1,90,0,1
102204,-1000,4,2,1,5,0,1
102289,-33.3333333333333,4,2,1,70,0,1
102543,-33.3333333333333,4,2,1,5,0,1
102628,-33.3333333333333,4,2,1,70,0,1
102713,-33.3333333333333,4,2,1,5,0,1
102797,-33.3333333333333,4,2,1,70,0,1
102882,-33.3333333333333,4,2,1,5,0,1
102967,-33.3333333333333,4,2,1,70,0,1
103052,-33.3333333333333,4,2,1,5,0,1
103136,-33.3333333333333,4,2,1,70,0,1
103221,-33.3333333333333,4,2,1,5,0,1
103306,-400,4,2,1,90,0,1
103391,-1000,4,2,1,5,0,1
103475,-400,4,2,1,90,0,1
103560,-1000,4,2,1,5,0,1
103645,-400,4,2,1,90,0,1
103730,-1000,4,2,1,5,0,1
103814,-400,4,2,1,90,0,1
103899,-1000,4,2,1,5,0,1
103984,-33.3333333333333,4,2,1,70,0,1
104577,-33.3333333333333,4,2,1,5,0,1
104662,-1000,4,2,1,90,0,1
105255,-1000,4,2,1,5,0,1
105340,-33.3333333333333,4,2,1,70,0,1
105933,-33.3333333333333,4,2,1,5,0,1
106018,-1000,4,2,1,90,0,1
106611,-1000,4,2,1,5,0,1
106695,-33.3333333333333,4,2,1,70,0,1
107373,-400,4,2,1,90,0,1
107458,-1000,4,2,1,5,0,1
107543,-400,4,2,1,90,0,1
107628,-1000,4,2,1,5,0,1
107712,-33.3333333333333,4,2,1,70,0,1
107797,-33.3333333333333,4,2,1,5,0,1
107882,-33.3333333333333,4,2,1,70,0,1
107967,-33.3333333333333,4,2,1,5,0,1
108052,-33.3333333333333,4,2,1,70,0,1
108306,-33.3333333333333,4,2,1,5,0,1
108391,-33.3333333333333,4,2,1,70,0,1
108475,-33.3333333333333,4,2,1,5,0,1
108560,-33.3333333333333,4,2,1,70,0,1
108645,-33.3333333333333,4,2,1,5,0,1
108729,-1000,4,2,1,90,0,1
109323,-1000,4,2,1,5,0,1
109407,-33.3333333333333,4,2,1,70,0,1
110001,-33.3333333333333,4,2,1,5,0,1
110085,-1000,4,2,1,90,0,1
110340,-1000,4,2,1,5,0,1
110424,-33.3333333333333,4,2,1,70,0,1
111018,-33.3333333333333,4,2,1,5,0,1
111102,-33.3333333333333,4,2,1,70,0,1
111357,-33.3333333333333,4,2,1,5,0,1
111441,-1000,4,2,1,90,0,1
112035,-1000,4,2,1,5,0,1
112119,-33.3333333333333,4,2,1,70,0,1
112797,-400,4,2,1,90,0,1
113051,-400,4,2,1,5,0,1
113136,-33.3333333333333,4,2,1,70,0,1
113221,-33.3333333333333,4,2,1,5,0,1
113306,-400,4,2,1,90,0,1
113560,-400,4,2,1,5,0,1
113645,-33.3333333333333,4,2,1,70,0,1
113729,-33.3333333333333,4,2,1,5,0,1
113814,-33.3333333333333,4,2,1,70,0,1
113899,-33.3333333333333,4,2,1,5,0,1
113984,-33.3333333333333,4,2,1,70,0,1
114068,-33.3333333333333,4,2,1,5,0,1
114153,-400,4,2,1,90,0,1
114238,-400,4,2,1,5,0,1
114323,-33.3333333333333,4,2,1,70,0,1
114831,-66.6666666666667,4,2,1,5,0,0
124831,-66.6666666666667,4,2,1,40,0,0
125001,-400,4,2,1,40,0,0
125679,-100,4,2,1,40,0,0
136526,-66.6666666666667,4,2,1,40,0,0
144662,-66.6666666666667,4,2,1,40,0,0
144746,-66.6666666666667,4,2,1,5,0,0
144831,-66.6666666666667,4,2,1,40,0,0
144916,-66.6666666666667,4,2,1,5,0,0
145000,-80,4,2,1,40,0,0
145085,-100,4,2,1,5,0,0
145170,-80,4,2,1,40,0,0
145255,-100,4,2,1,5,0,0
145339,-100,4,2,1,40,0,0
145424,-100,4,2,1,5,0,0
145509,-100,4,2,1,40,0,0
145594,-100,4,2,1,5,0,0
145678,-133.333333333333,4,2,1,40,0,0
145763,-100,4,2,1,5,0,0
145848,-133.333333333333,4,2,1,40,0,0
145933,-100,4,2,1,5,0,0
146017,-200,4,2,1,40,0,0
147373,-200,4,2,1,40,0,0
147628,-200,4,2,1,5,0,0
147712,-250,4,2,1,40,0,0
147967,-250,4,2,1,5,0,0
148051,-333.333333333333,4,2,1,40,0,0
148306,-333.333333333333,4,2,1,5,0,0
148390,-1000,4,2,1,40,0,0
148645,-1000,4,2,1,5,0,0
148729,-28.5714285714286,4,2,1,80,0,1
149407,-1000,4,2,1,100,0,1
150085,-28.5714285714286,4,2,1,80,0,1
150763,-1000,4,2,1,100,0,1
151441,-28.5714285714286,4,2,1,80,0,1
152119,-400,4,2,1,100,0,1
152458,-28.5714285714286,4,2,1,80,0,1
153475,-1000,4,2,1,100,0,1
154153,-28.5714285714286,4,2,1,80,0,1
154831,-1000,4,2,1,100,0,1
155170,-28.5714285714286,4,2,1,80,0,1
156187,-1000,4,2,1,100,0,1
156865,-28.5714285714286,4,2,1,80,0,1
157373,-28.5714285714286,4,2,1,80,0,1
157543,-1000,4,2,1,100,0,1
157882,-28.5714285714286,4,2,1,80,0,1
158899,-400,4,2,1,100,0,1
159577,-28.5714285714286,4,2,1,80,0,1
160255,-1000,4,2,1,100,0,1
160933,-28.5714285714286,4,2,1,80,0,1
161611,-1000,4,2,1,100,0,1
162289,-28.5714285714286,4,2,1,80,0,1
162967,-400,4,2,1,100,0,1
163306,-28.5714285714286,4,2,1,80,0,1
164323,-1000,4,2,1,100,0,1
165001,-28.5714285714286,4,2,1,80,0,1
165679,-1000,4,2,1,100,0,1
166018,-28.5714285714286,4,2,1,80,0,1
167034,-1000,4,2,1,100,0,1
167712,-28.5714285714286,4,2,1,80,0,1
168390,-1000,4,2,1,100,0,1
168729,-28.5714285714286,4,2,1,80,0,1
169746,-400,4,2,1,100,0,1
170424,-66.6666666666667,4,2,1,40,0,0
171102,-400,4,2,1,40,0,0
173136,-66.6666666666667,4,2,1,40,0,0
176865,-50,4,2,1,40,0,0
177882,-400,4,2,1,60,0,0
178560,-50,4,2,1,40,0,0
178899,-40,4,2,1,50,0,0
179238,-400,4,2,1,70,0,0
179577,-36.3636363636364,4,2,1,60,0,0
180594,-400,4,2,1,70,0,0
180933,-36.3636363636364,4,2,1,60,0,0
181272,-33.3333333333333,4,2,1,70,0,1
181866,-33.3333333333333,4,2,1,5,0,1
181950,-1000,4,2,1,90,0,1
182544,-1000,4,2,1,5,0,1
182628,-33.3333333333333,4,2,1,70,0,1
183221,-33.3333333333333,4,2,1,5,0,1
183306,-1000,4,2,1,90,0,1
183899,-1000,4,2,1,5,0,1
183984,-33.3333333333333,4,2,1,70,0,1
184662,-1000,4,2,1,90,0,1
185001,-33.3333333333333,4,2,1,70,0,1
186018,-1000,4,2,1,90,0,1
186611,-1000,4,2,1,5,0,1
186695,-33.3333333333333,4,2,1,70,0,1
187289,-33.3333333333333,4,2,1,5,0,1
187373,-1000,4,2,1,90,0,1
187628,-1000,4,2,1,5,0,1
187712,-33.3333333333333,4,2,1,70,0,1
188306,-33.3333333333333,4,2,1,5,0,1
188391,-33.3333333333333,4,2,1,70,0,1
188645,-33.3333333333333,4,2,1,5,0,1
188729,-1000,4,2,1,90,0,1
189323,-1000,4,2,1,5,0,1
189407,-33.3333333333333,4,2,1,70,0,1
190085,-400,4,2,1,90,0,1
190424,-33.3333333333333,4,2,1,70,0,1
191441,-400,4,2,1,90,0,1
192119,-30.7692307692308,4,2,1,40,0,0
192797,-666.666666666667,4,2,1,40,0,0
193475,-57.1428571428571,4,2,1,40,0,0
194153,-1000,4,2,1,40,0,0
194831,-1000,4,2,1,5,0,0

[HitObjects]
16,375,6356,6,0,P|32:354|77:335,1,70
12,330,6695,2,0,P|36:319|84:325,1,70
220,310,7034,6,0,P|204:289|159:270,1,70
224,265,7373,2,0,P|199:254|151:260,1,70
47,194,7712,6,0,P|63:173|108:154,1,70
43,149,8051,2,0,P|67:138|115:144,1,70
201,81,8390,6,0,P|185:60|140:41,1,70
205,36,8729,2,0,P|180:25|132:31,1,70
268,179,9068,6,0,P|271:152|300:113,1,70
242,142,9407,2,0,P|258:121|302:102,1,70
476,186,9746,6,0,P|460:165|415:145,1,70
480,140,10085,2,0,P|455:129|407:135,1,70
347,312,10424,6,0,P|336:287|342:239,1,70
305,292,10763,2,0,P|308:265|337:226,1,70
465,331,11102,6,0,P|461:304|432:265,1,70
332,230,11441,1,0,0:0:0:0:
463,196,11611,1,0,0:0:0:0:
382,384,11780,6,0,L|298:372,1,70
399,375,12119,2,0,L|315:363,1,70
144,348,12458,6,0,L|228:336,1,70
127,339,12797,2,0,L|211:327,1,70
356,229,13136,6,0,L|272:217,1,70
373,220,13475,2,0,L|289:208,1,70
185,107,13814,6,0,L|269:95,1,70
380,72,14153,1,0,0:0:0:0:
298,31,14323,1,0,0:0:0:0:
373,220,14492,6,0,P|399:188|400:145,1,70
419,217,14831,2,0,P|425:176|404:138,1,70,0|0,2:0|2:0,2:0:0:0:
298,31,15170,6,0,L|241:27,1,52.5,8|0,0:0|0:0,0:0:0:0:
226,37,15848,5,0,0:0:0:0:
262,109,16187,5,0,0:0:0:0:
217,176,16526,5,0,0:0:0:0:
253,248,16865,5,0,0:0:0:0:
199,359,17204,6,0,B|161:354|161:354|112:342|122:278|171:279|171:279|388:303|388:303|477:304|489:188|401:170|401:170|314:162,1,612.5,0|0,1:0|0:0,0:0:0:0:
222,203,17882,2,0,L|285:210,1,61.25,8|0,0:0|0:0,0:0:0:0:
381,91,18560,6,0,B|217:71|217:71|161:60|177:-16|235:-6|235:-6|343:5,1,350,0|0,1:0|0:0,0:0:0:0:
454,11,19068,1,0,0:0:0:0:
321,158,19238,2,0,L|278:154,1,43.75,8|0,0:0|0:0,0:0:0:0:
98,188,19746,6,0,L|206:200,1,87.5,0|0,1:0|0:0,0:0:0:0:
466,113,19916,2,0,B|456:54|456:54|436:-19|335:-8|334:67|334:67|362:295|362:295|367:349|296:355|286:308|286:308|278:239,1,612.5,0|0,1:0|0:0,0:0:0:0:
429,189,20594,2,0,L|437:254,1,61.25,8|0,0:0|0:0,0:0:0:0:
453,263,21272,5,0,0:0:0:0:
279,106,21611,2,0,P|286:227|343:138,1,262.5,0|0,1:0|0:0,0:0:0:0:
399,87,21950,2,0,P|395:105|396:120,1,26.25,8|0,0:0|0:0,0:0:0:0:
494,183,22289,6,0,B|536:163|536:163|478:133,1,87.5,0|0,1:0|0:0,0:0:0:0:
343,268,22458,2,0,B|307:250|307:250|349:230,1,87.5,0|0,1:0|0:0,0:0:0:0:
508,273,22628,6,0,B|515:316|515:316|517:362|455:370|442:328|442:328|400:85|400:85|380:6|264:24|270:106|270:106|279:172,1,612.5,0|0,1:0|0:0,0:0:0:0:
343,268,23306,2,0,L|333:207,1,61.25,8|0,0:0|0:0,0:0:0:0:
323,194,23984,1,0,0:0:0:0:
138,199,24323,6,0,B|103:193|103:193|51:175|72:104|127:115|127:115|287:141,1,262.5,0|0,1:0|0:0,0:0:0:0:
323,194,24662,2,0,L|290:189,1,26.25,8|0,0:0|0:0,0:0:0:0:
287,182,25001,1,0,0:0:0:0:
136,15,25170,6,0,L|257:33,1,87.5,0|0,1:0|0:0,0:0:0:0:
261,298,25340,2,0,B|326:310|326:310|376:315|390:249|343:233|343:233|84:183|84:183|12:167|29:78|91:81|91:81|134:87,1,612.5,0|0,1:0|0:0,0:0:0:0:
230,39,26018,2,0,L|163:29,1,61.25,8|0,0:0|0:0,0:0:0:0:
160,15,26695,5,12,1:0:0:0:
11,254,26921,5,12,1:0:0:0:
293,264,27147,5,12,1:0:0:0:
160,15,27373,5,12,1:0:0:0:
160,15,27712,5,0,1:0:0:0:
140,148,27882,1,0,1:0:0:0:
115,290,28051,2,0,B|253:277|253:277|274:241|274:241|418:228|418:228|379:323|379:323|521:313|521:313|451:263,1,612.5,0|0,1:0|0:0,0:0:0:0:
308,162,28729,2,0,L|357:158,1,43.75,8|0,0:0|0:0,0:0:0:0:
367,146,29238,1,0,0:0:0:0:
266,44,29407,5,4,0:0:0:0:
314,306,29662,1,4,0:0:0:0:
504,119,29916,1,4,0:0:0:0:
181,214,30085,6,0,L|141:210,1,35,8|0,0:0|0:0,0:0:0:0:
95,151,30594,1,0,0:0:0:0:
275,339,30763,6,0,B|221:289|221:289|284:297|284:297|300:288|300:288|398:296|398:296|505:212|505:212|227:187,1,612.5,0|0,1:0|0:0,0:0:0:0:
158,129,31441,2,0,L|221:136,1,61.25,8|0,0:0|0:0,0:0:0:0:
236,129,32119,1,0,0:0:0:0:
493,126,32458,6,0,B|449:51|449:51|421:306,1,262.5,0|0,1:0|0:0,0:0:0:0:
377,312,32797,2,0,L|381:282,1,26.25,8|0,0:0|0:0,0:0:0:0:
305,85,33136,6,0,L|306:97,1,8.75,0|0,1:0|0:0,0:0:0:0:
308,234,33306,2,0,L|307:225,1,8.75,0|0,1:0|0:0,0:0:0:0:
95,151,33475,6,0,B|52:193|52:193|243:159|243:159|112:78,1,350,0|0,1:0|0:0,0:0:0:0:
100,63,33984,1,0,0:0:0:0:
109,264,34153,6,0,L|145:258,1,35,8|0,0:0|0:0,0:0:0:0:
212,297,34662,1,0,0:0:0:0:
363,73,34831,6,0,P|268:80|362:159,1,262.5
474,304,35170,2,0,B|535:267|535:267|295:246,1,262.5,0|0,1:0|0:0,0:0:0:0:
212,297,35509,2,0,L|273:303,1,61.25,8|0,0:0|0:0,0:0:0:0:
203,172,36187,6,0,B|235:213|235:213|-22:190|-22:190|17:247,1,350,0|0,1:0|0:0,0:0:0:0:
42,287,36695,1,0,0:0:0:0:
75,102,36865,2,0,L|128:107,1,52.5,8|0,0:0|0:0,0:0:0:0:
200,77,37543,5,0,1:0:0:0:
163,290,37712,1,0,1:0:0:0:
148,306,37797,1,0,1:0:0:0:
133,323,37882,1,8,0:0:0:0:
366,216,38051,1,0,1:0:0:0:
45,159,38221,5,4,2:0:0:0:
311,382,38475,1,4,0:0:0:0:
371,40,38729,1,4,0:0:0:0:
89,235,38899,6,0,B|138:210|138:210|301:240,1,210.000008010865,12|8,0:0|0:0,0:0:0:0:
366,216,39407,1,0,0:0:0:0:
220,141,39577,2,0,L|125:122,1,70,14|0,0:0|0:0,0:0:0:0:
221,303,39916,2,0,L|301:319,1,70,8|0,0:0|0:0,0:0:0:0:
487,238,40255,5,8,0:0:0:0:
404,103,40424,1,0,0:0:0:0:
409,87,40509,1,0,0:0:0:0:
414,71,40594,1,8,0:0:0:0:
380,0,40763,1,0,0:0:0:0:
250,105,40933,6,0,L|266:195,1,70,12|0,0:0|0:0,0:0:0:0:
229,242,41272,1,8,0:0:0:0:
374,171,41441,1,0,0:0:0:0:
123,108,41611,6,0,B|89:151|89:151|123:315,1,210.000008010865,8|8,0:0|0:0,0:0:0:0:
86,373,42119,1,0,0:0:0:0:
20,207,42289,2,0,L|0:106,1,70,14|0,0:0|0:0,0:0:0:0:
188,251,42628,2,0,L|201:319,1,70,8|0,0:0|0:0,0:0:0:0:
420,127,42967,5,8,0:0:0:0:
319,65,43136,1,0,0:0:0:0:
316,184,43306,1,8,0:0:0:0:
321,174,43645,1,8,0:0:0:0:
327,164,43984,6,0,L|325:136,6,17.5,8|0|0|0|0|0|0,0:0|0:0|0:0|0:0|0:0|0:0|0:0,0:0:0:0:
425,275,44323,6,0,B|377:243|377:243|211:272,1,210.000008010865,12|8,1:2|0:0,0:0:0:0:
157,238,44831,1,0,0:0:0:0:
321,174,45001,2,0,L|412:157,1,70,10|0,0:0|0:0,0:0:0:0:
357,327,45340,2,0,L|288:339,1,70,8|0,0:0|0:0,0:0:0:0:
114,221,45679,5,8,0:0:0:0:
31,287,45848,1,0,0:0:0:0:
129,326,46018,1,8,0:0:0:0:
121,320,46357,1,8,0:0:0:0:
112,313,46695,6,0,L|90:317,6,17.5,8|0|0|0|0|0|0,0:0|0:0|0:0|0:0|0:0|0:0|0:0,0:0:0:0:
227,354,47034,6,0,P|242:330|240:297,1,35,8|0,1:2|0:0,0:0:0:0:
385,231,47204,2,0,P|371:206|342:191,1,35,8|0,0:0|0:0,0:0:0:0:
337,323,47373,6,0,P|337:294|321:269,1,31.4999990386963,8|0,0:0|0:0,0:0:0:0:
389,132,47543,2,0,P|365:117|337:117,1,31.4999990386963,8|0,0:0|0:0,0:0:0:0:
395,232,47712,6,0,P|381:207|361:195,1,28,8|0,0:0|0:0,0:0:0:0:
348,76,47882,2,0,P|319:75|302:84,1,28,8|0,0:0|0:0,0:0:0:0:
400,130,48051,6,0,P|375:115|358:114,1,24.4999992523194,8|0,0:0|0:0,0:0:0:0:
296,54,48221,2,0,P|271:67|265:78,1,24.4999992523194,8|0,0:0|0:0,0:0:0:0:
460,186,48390,6,0,L|527:182,1,52.5,0|0,1:0|0:0,0:0:0:0:
272,224,48729,6,0,L|315:221,1,42,0|0,1:0|0:0,0:0:0:0:
142,200,49068,6,0,L|181:197,1,31.4999990386963,0|0,1:0|0:0,0:0:0:0:
73,239,49407,6,0,L|63:240,1,10.5,0|0,1:0|0:0,0:0:0:0:
166,308,49746,6,0,B|171:382|246:412|334:351|286:268|286:268|229:183|311:-7|546:104|482:250|482:250|480:231|475:216,1,735.000028038026,0|0,1:3|0:0,0:0:0:0:
382,211,50424,2,0,L|383:185,1,24.5,8|0,1:2|0:0,0:0:0:0:
329,68,51102,6,0,B|324:-6|249:-36|161:25|209:108|209:108|263:189|184:383|-51:272|13:126|13:126|15:145|20:160,1,735.000028038026,0|0,1:3|0:0,0:0:0:0:
113,165,51780,2,0,L|112:140,1,24.5,8|0,1:2|0:0,0:0:0:0:
410,271,52458,6,0,B|500:190|500:190|162:210,1,420.000016021729,0|0,1:3|1:0,0:0:0:0:
41,220,52967,1,0,1:0:0:0:
193,127,53136,6,0,L|195:141,1,8.75,8|0,0:0|0:0,0:0:0:0:
143,289,53306,2,0,L|145:276,1,8.75,8|0,0:0|0:0,0:0:0:0:
269,33,53475,6,0,L|286:154,1,105.000004005432,0|0,1:0|0:0,0:0:0:0:
213,374,53645,2,0,L|230:253,1,105.000004005432,0|0,1:0|0:0,0:0:0:0:
416,154,53814,6,0,B|462:158|462:158|518:168|506:240|452:234|452:234|307:219,1,315.000012016297,0|0,1:3|0:0,0:0:0:0:
193,110,54153,6,0,P|182:140|211:213,1,105.000004005432,0|0,1:0|0:0,0:0:0:0:
303,329,54323,2,0,P|282:304|204:293,1,105.000004005432,0|0,1:0|0:0,0:0:0:0:
58,314,54492,6,0,P|70:313|83:306,1,24.5,8|0,1:2|0:0,0:0:0:0:
100,75,55170,6,0,B|58:82|58:82|9:94|15:163|71:160|71:160|387:112|387:112|485:93|506:219|417:234|417:234|372:240,1,735.000028038026,0|0,1:3|0:0,0:0:0:0:
266,209,55848,2,0,L|277:208,1,10.5,8|0,1:2|0:0,0:0:0:0:
306,298,56187,6,0,B|306:323|306:323|303:376|218:374|228:304|228:304|244:58|244:58|241:4|203:-57|25:-53|48:150|167:141,1,735.000028038026,0|0,1:3|0:0,0:0:0:0:
325,221,56865,2,0,B|377:217|377:217|423:203|412:137|357:142|357:142|117:163,1,315.000012016297,0|0,1:3|0:0,0:0:0:0:
102,231,57204,2,0,L|127:229,1,24.5,8|0,1:2|0:0,0:0:0:0:
350,142,57882,6,0,B|353:102|353:102|348:52|278:50|269:99|269:99|258:284|258:284|245:347|174:335,1,420.000016021729,0|0,1:3|1:0,0:0:0:0:
102,231,58390,1,0,1:0:0:0:
355,246,58560,2,0,L|356:234,1,10.5,8|0,1:2|0:0,0:0:0:0:
105,126,58899,6,0,B|52:122|52:122|12:127|6:179|46:193|46:193|212:206,1,315.000012016297,0|0,1:3|0:0,0:0:0:0:
497,75,59238,6,0,L|362:64,1,105.000004005432,0|0,1:0|0:0,0:0:0:0:
181,40,59407,2,0,L|316:29,1,105.000004005432,0|0,1:0|0:0,0:0:0:0:
476,157,59577,6,0,L|341:146,1,105.000004005432,0|0,1:0|0:0,0:0:0:0:
203,122,59746,2,0,L|338:111,1,105.000004005432,0|0,1:0|0:0,0:0:0:0:
414,230,59916,6,0,L|400:229,1,8.75,8|0,1:2|0:0,0:0:0:0:
252,201,60085,2,0,L|266:200,1,8.75,0|0,1:0|0:0,0:0:0:0:
377,308,60255,6,0,L|363:307,1,8.75,0|0,1:0|0:0,0:0:0:0:
275,281,60424,2,0,L|289:280,1,8.75,0|0,1:0|0:0,0:0:0:0:
71,278,60594,6,0,B|30:344|84:395|145:397|193:333|162:270|162:270|122:201|81:88|173:-17|326:3|366:181|223:210,1,735.000028038026,0|0,1:3|0:0,0:0:0:0:
55,162,61272,2,0,P|53:148|55:137,1,24.5,8|0,1:2|0:0,0:0:0:0:
432,278,61950,6,0,B|473:344|419:395|358:397|310:333|341:270|341:270|381:201|422:88|330:-17|177:3|137:181|280:210,1,735.000028038026,0|0,1:3|0:0,0:0:0:0:
448,162,62628,2,0,P|450:148|448:137,1,24.5,8|0,1:2|0:0,0:0:0:0:
122,40,63306,6,0,B|40:85|40:85|382:77,1,420.000016021729,0|0,1:2|1:3,0:0:0:0:
499,75,63814,1,0,1:3:0:0:
152,170,63984,6,0,L|168:169,1,8.75,8|0,1:2|0:0,0:0:0:0:
327,193,64153,2,0,L|311:192,1,8.75,8|0,0:0|0:0,0:0:0:0:
77,265,64323,6,0,L|190:252,1,105.000004005432,0|0,1:3|0:0,0:0:0:0:
429,313,64492,2,0,L|320:299,1,105.000004005432,0|0,1:3|0:0,0:0:0:0:
162,65,64662,6,0,B|159:27|159:27|158:-18|223:-24|232:21|232:21|246:199,1,315.000012016297,0|0,1:3|0:0,0:0:0:0:
246,384,65001,6,0,P|230:347|292:270,1,105.000004005432,0|0,1:3|0:0,0:0:0:0:
331,146,65170,2,0,P|306:178|209:163,1,105.000004005432,0|0,1:3|0:0,0:0:0:0:
83,192,65340,6,0,P|92:190|108:194,1,24.5,8|0,1:2|0:0,0:0:0:0:
251,288,66018,6,0,B|254:336|254:336|263:381|333:380|333:324|333:324|310:82|310:82|298:-39|465:-48|473:69|473:69|485:198,1,735.000028038026,0|0,1:3|0:0,0:0:0:0:
408,215,66695,2,0,L|407:205,1,10.5,8|0,1:2|0:0,0:0:0:0:
237,161,67034,6,0,B|181:165|181:165|123:171|122:257|185:259|185:259|437:244|437:244|526:245|532:372|437:381|437:381|345:385,1,735.000028038026,0|0,1:3|0:0,0:0:0:0:
309,119,67712,2,0,B|305:79|305:79|314:29|377:17|397:72|397:72|414:285,1,315.000012016297,0|0,1:3|0:0,0:0:0:0:
364,313,68051,2,0,L|362:287,1,24.5,8|0,1:2|0:0,0:0:0:0:
192,49,68729,6,0,B|98:54|98:54|47:64|53:128|100:131|100:131|376:115,1,420.000016021729,0|0,1:3|1:3,0:0:0:0:
480,110,69238,1,0,1:3:0:0:
218,209,69407,2,0,L|192:211,1,24.5,8|0,1:2|0:0,0:0:0:0:
336,384,70085,6,0,P|345:357|343:332,1,52.5000020027161,0|0,1:0|0:0,0:0:0:0:
299,244,70255,2,0,P|298:255|302:266,1,17.5,8|0,1:2|0:0,0:0:0:0:
476,300,70424,5,4,0:0:0:0:
462,297,70509,1,4,0:0:0:0:
446,295,70594,1,4,0:0:0:0:
430,292,70679,1,4,0:0:0:0:
415,289,70763,2,0,P|414:274|422:262,1,17.5,12|0,1:2|0:0,0:0:0:0:
492,89,70933,2,0,P|479:138|441:163,1,87.5,0|0,1:0|0:0,0:0:0:0:
220,17,71441,6,0,L|314:11,1,70,4|0,1:0|0:0,0:0:0:0:
419,92,71611,2,0,L|325:87,1,70,4|0,0:0|0:0,0:0:0:0:
411,84,71780,2,0,L|317:78,1,70,4|0,0:0|0:0,0:0:0:0:
403,75,71950,2,0,L|309:69,1,70,4|0,0:0|0:0,0:0:0:0:
170,195,72119,6,0,L|233:190,1,61.25,8|0,0:0|0:0,0:0:0:0:
249,199,72797,1,0,0:0:0:0:
434,284,73136,6,0,B|438:324|438:324|435:367|376:374|363:333|363:333|349:180,1,262.5,0|0,1:0|0:0,0:0:0:0:
410,82,73475,2,0,L|415:132,1,43.75,8|0,0:0|0:0,0:0:0:0:
255,286,73984,6,0,L|248:186,1,87.5,0|0,1:0|0:0,0:0:0:0:
285,0,74153,2,0,P|323:35|313:99,1,70,4|0,1:0|0:0,0:0:0:0:
166,197,74323,2,0,P|177:145|238:122,1,70,4|0,0:0|0:0,0:0:0:0:
152,180,74492,2,0,P|175:133|240:126,1,70,4|0,0:0|0:0,0:0:0:0:
142,159,74662,2,0,P|177:119|241:130,1,70,4|0,0:0|0:0,0:0:0:0:
455,197,74831,6,0,P|423:212|396:210,1,61.25,8|0,0:0|0:0,0:0:0:0:
382,200,75509,1,0,0:0:0:0:
221,45,75848,6,0,B|222:12|222:12|228:-35|294:-34|298:11|298:11|290:141,1,262.5,0|0,1:0|0:0,0:0:0:0:
237,258,76187,2,0,P|239:228|239:228,1,26.25,8|0,0:0|0:0,0:0:0:0:
375,24,76526,6,0,L|367:131,1,87.5,0|0,1:0|0:0,0:0:0:0:
114,143,76695,1,0,1:0:0:0:
128,148,76780,1,0,1:0:0:0:
144,153,76865,2,0,P|188:148|219:121,1,70,4|0,1:0|0:0,0:0:0:0:
56,0,77034,2,0,P|38:40|46:80,1,70,4|0,0:0|0:0,0:0:0:0:
37,10,77204,2,0,P|30:53|48:90,1,70,4|0,0:0|0:0,0:0:0:0:
22,24,77373,2,0,P|26:68|53:99,1,70,4|0,0:0|0:0,0:0:0:0:
282,41,77543,6,0,L|216:45,1,61.25,8|0,0:0|0:0,0:0:0:0:
207,35,78221,1,0,0:0:0:0:
181,221,78560,6,0,B|177:264|177:264|163:307|99:298|104:247|104:247|118:89,1,262.5,0|0,1:0|0:0,0:0:0:0:
67,5,78899,2,0,L|62:50,1,43.75,8|0,0:0|0:0,0:0:0:0:
42,70,79407,1,0,0:0:0:0:
220,142,79577,6,0,L|297:136,1,70,4|0,1:0|0:0,0:0:0:0:
455,191,79746,2,0,L|378:185,1,70,4|0,0:0|0:0,0:0:0:0:
447,183,79916,2,0,L|370:177,1,70,4|0,0:0|0:0,0:0:0:0:
148,225,80085,5,0,1:0:0:0:
143,238,80170,1,0,1:0:0:0:
138,251,80255,2,0,L|193:247,1,52.5,8|0,0:0|0:0,0:0:0:0:
256,293,80933,5,0,1:0:0:0:
199,89,81102,1,0,1:0:0:0:
206,69,81187,1,0,1:0:0:0:
213,49,81272,1,8,0:0:0:0:
50,240,81441,1,0,1:0:0:0:
336,152,81611,5,4,0:0:0:0:
51,79,81865,1,4,0:0:0:0:
129,360,82119,1,4,0:0:0:0:
286,75,82289,6,0,B|251:122|251:122|279:292,1,210.000008010865,12|8,0:0|0:0,0:0:0:0:
211,346,82797,1,0,0:0:0:0:
187,232,82967,2,0,L|174:149,1,70,10|0,0:0|0:0,0:0:0:0:
356,228,83306,2,0,L|366:297,1,70,8|0,0:0|0:0,0:0:0:0:
313,384,83645,5,8,0:0:0:0:
461,338,83814,1,0,0:0:0:0:
484,342,83899,1,0,0:0:0:0:
506,347,83984,1,8,0:0:0:0:
434,219,84153,1,0,0:0:0:0:
506,53,84323,6,0,B|444:25|444:25|289:53,1,210.000008010865,12|8,0:0|0:0,0:0:0:0:
209,0,84831,1,0,0:0:0:0:
355,126,85001,2,0,L|440:109,1,70,10|0,0:0|0:0,0:0:0:0:
366,297,85340,2,0,L|297:310,1,70,8|0,0:0|0:0,0:0:0:0:
126,241,85679,2,0,B|218:226,1,70,8|0,0:0|0:0,0:0:0:0:
241,167,86018,1,8,0:0:0:0:
144,82,86187,1,0,0:0:0:0:
41,334,86357,5,8,0:0:0:0:
164,361,86526,1,0,0:0:0:0:
126,241,86695,1,8,0:0:0:0:
125,253,87034,1,8,0:0:0:0:
124,265,87373,6,0,L|126:286,6,17.5,8|0|0|0|0|0|0,0:0|0:0|0:0|0:0|0:0|0:0|0:0,0:0:0:0:
16,157,87712,6,0,B|54:189|54:189|223:165,1,210.000008010865,8|8,1:2|0:0,0:0:0:0:
307,234,88221,1,0,0:0:0:0:
124,265,88390,2,0,L|42:277,1,70,10|0,0:0|0:0,0:0:0:0:
139,88,88729,2,0,L|208:77,1,70,8|0,0:0|0:0,0:0:0:0:
449,61,89068,5,8,0:0:0:0:
451,184,89238,1,0,0:0:0:0:
343,124,89407,1,8,0:0:0:0:
353,121,89746,1,8,0:0:0:0:
364,119,90085,6,0,L|390:122,6,17.5,8|0|0|0|0|0|0,0:0|0:0|0:0|0:0|0:0|0:0|0:0,0:0:0:0:
174,111,90424,6,0,P|191:99|212:94,1,35,8|0,1:2|0:0,0:0:0:0:
309,10,90594,2,0,P|329:8|350:14,1,35,8|0,0:0|0:0,0:0:0:0:
252,171,90763,6,0,P|271:163|293:164,1,31.4999990386963,8|0,0:0|0:0,0:0:0:0:
364,119,90933,2,0,P|384:122|402:133,1,31.4999990386963,8|0,0:0|0:0,0:0:0:0:
306,237,91102,6,0,P|319:235|333:239,1,28,8|0,0:0|0:0,0:0:0:0:
407,222,91272,2,0,P|419:227|429:238,1,28,8|0,0:0|0:0,0:0:0:0:
343,313,91441,6,0,P|355:315|365:321,1,24.4999992523194,8|0,0:0|0:0,0:0:0:0:
410,314,91611,2,0,P|419:321|425:332,1,24.4999992523194,8|0,0:0|0:0,0:0:0:0:
233,384,91780,6,0,L|242:331,1,52.5,0|0,1:0|0:0,0:0:0:0:
225,216,92119,6,0,L|232:172,1,42,0|0,1:0|0:0,0:0:0:0:
300,108,92458,6,0,L|305:73,1,31.4999990386963,0|0,1:0|0:0,0:0:0:0:
265,6,92797,6,0,L|263:16,1,10.5,0|0,1:0|0:0,0:0:0:0:
98,122,93136,6,0,B|91:178|17:214|-105:117|15:-76|186:-2|198:105|198:105|216:186|298:233|366:186|366:186|312:192|280:144,1,735.000028038026,0|0,1:3|0:0,0:0:0:0:
352,104,93814,2,0,P|349:93|349:80,1,24.5,8|0,1:2|0:0,0:0:0:0:
440,294,94492,6,0,B|447:350|521:386|643:289|523:96|352:170|340:277|340:277|322:358|240:405|171:358|171:358|226:364|258:316,1,735.000028038026,0|0,1:3|0:0,0:0:0:0:
186,276,95170,2,0,P|189:265|189:252,1,24.5,8|0,1:2|0:0,0:0:0:0:
93,71,95848,6,0,B|8:113|8:113|343:140,1,420.000016021729,0|0,1:3|1:3,0:0:0:0:
494,155,96357,1,0,1:3:0:0:
285,57,96526,6,0,L|270:56,1,8.75,8|0,1:2|0:0,0:0:0:0:
296,212,96695,2,0,L|304:212,1,8.75,8|0,0:0|0:0,0:0:0:0:
470,47,96865,6,0,L|336:34,1,105.000004005432,0|0,1:3|0:0,0:0:0:0:
133,145,97034,2,0,L|237:155,1,105.000004005432,0|0,1:3|0:0,0:0:0:0:
429,306,97204,6,0,B|481:303|481:303|534:297|533:224|482:219|482:219|269:233,1,315.000012016297,0|0,1:3|0:0,0:0:0:0:
176,350,97543,6,0,P|221:330|245:251,1,105.000004005432,0|0,1:3|0:0,0:0:0:0:
52,113,97712,2,0,P|46:161|103:222,1,105.000004005432,0|0,1:3|0:0,0:0:0:0:
296,104,97882,6,0,P|285:93|276:90,1,24.5,8|0,1:2|0:0,0:0:0:0:
133,145,98560,6,0,B|72:153|72:153|16:161|19:233|76:233|76:233|393:196|393:196|471:196|482:302|393:313|393:313|292:326,1,735.000028038026,0|0,1:3|2:0,2:0:0:0:
230,294,99238,2,0,L|242:293,1,10.5,8|0,1:2|0:0,0:0:0:0:
328,115,99577,6,0,B|382:50|291:-68|168:5|184:117|184:117|211:333|211:333|216:391|146:393|138:349|138:349|124:218,1,735.000028038026,0|0,1:3|0:0,0:0:0:0:
374,192,100255,2,0,B|431:198|431:198|487:216|469:295|407:282|407:282|229:256,1,315.000012016297,0|0,1:3|0:0,0:0:0:0:
130,272,100594,2,0,L|156:276,1,24.5,8|0,1:2|0:0,0:0:0:0:
201,92,101272,6,0,B|95:81|95:81|41:74|26:148|82:159|82:159|286:183,1,420.000016021729,0|0,1:3|1:3,0:0:0:0:
460,199,101780,1,0,1:3:0:0:
185,251,101950,2,0,L|175:250,1,10.5,8|0,1:2|0:0,0:0:0:0:
0,82,102289,6,0,B|6:46|6:46|23:-11|100:5|88:63|88:63|53:248,1,315.000012016297,0|0,1:3|0:0,0:0:0:0:
201,354,102628,6,0,L|180:222,1,105.000004005432,0|0,1:3|0:0,0:0:0:0:
265,29,102797,2,0,L|244:161,1,105.000004005432,0|0,1:3|0:0,0:0:0:0:
283,333,102967,6,0,L|262:201,1,105.000004005432,0|0,1:3|0:0,0:0:0:0:
345,63,103136,2,0,L|324:195,1,105.000004005432,0|0,1:3|0:0,0:0:0:0:
358,286,103306,6,0,L|355:271,1,8.75,8|0,1:2|0:1,0:0:0:0:
413,120,103475,2,0,L|410:135,1,8.75,0|0,1:3|0:0,0:0:0:0:
434,249,103645,6,0,L|431:234,1,8.75,0|0,1:3|0:0,0:0:0:0:
487,159,103814,2,0,L|484:174,1,8.75,0|0,1:3|0:0,0:0:0:0:
381,378,103984,6,0,B|401:284|311:245|237:274|237:274|66:345|-21:113|96:-5|301:33|254:178,1,735.000028038026,0|0,1:3|0:0,0:0:0:0:
345,183,104662,2,0,P|341:171|342:158,1,24.5,8|0,1:2|0:0,0:0:0:0:
137,378,105340,6,0,B|117:284|207:245|281:274|281:274|452:345|539:113|422:-5|217:33|264:178,1,735.000028038026,0|0,1:3|0:0,0:0:0:0:
173,183,106018,2,0,P|177:171|176:158,1,24.5,8|0,1:2|0:0,0:0:0:0:
111,14,106695,6,0,B|20:62|20:62|426:38,1,420.000016021729,0|0,1:3|1:3,0:0:0:0:
506,32,107204,1,0,1:3:0:0:
280,169,107373,6,0,L|266:167,1,8.75,8|0,1:2|0:0,0:0:0:0:
165,205,107543,2,0,L|173:203,1,8.75,8|0,0:0|0:0,0:0:0:0:
391,270,107712,6,0,L|263:247,1,105.000004005432,0|0,1:3|0:0,0:0:0:0:
94,307,107882,2,0,L|222:284,1,105.000004005432,0|0,1:3|0:0,0:0:0:0:
512,257,108051,6,0,B|519:298|519:298|522:359|441:374|426:307|426:307|402:136,1,315.000012016297,0|0,1:3|0:0,0:0:0:0:
414,8,108390,6,0,P|413:62|366:109,1,105.000004005432,0|0,1:3|0:0,0:0:0:0:
235,205,108560,2,0,P|281:178|346:194,1,105.000004005432,0|0,1:3|0:0,0:0:0:0:
512,257,108729,6,0,P|499:250|492:243,1,24.5,8|0,1:2|0:0,0:0:0:0:
383,100,109407,6,0,B|392:36|392:36|392:-21|315:-28|307:34|307:34|277:286|277:286|253:391|97:378|115:211|216:211,1,735.000028038026,0|0,1:3|0:0,0:0:0:0:
361,220,110085,2,0,L|360:232,1,10.5,8|0,1:2|0:0,0:0:0:0:
421,348,110424,6,0,B|422:348|422:348|532:374|559:229|444:212|444:212|183:177|183:177|118:160|134:70|207:78|207:78|267:85,1,735.000028038026,0|0,1:3|0:0,0:0:0:0:
308,274,111102,2,0,B|177:257|177:257|110:251|101:338|163:344|163:344|230:353,1,315.000012016297,0|0,1:3|0:0,0:0:0:0:
314,384,111441,2,0,L|288:381,1,24.5,8|0,1:2|0:0,0:0:0:0:
95,149,112119,6,0,B|313:174|313:174|368:176|378:95|314:89|314:89|190:77,1,420.000016021729,0|0,1:3|1:3,0:0:0:0:
34,60,112628,1,0,1:3:0:0:
194,246,112797,2,0,L|223:250,1,26.25,8|0,1:2|0:0,0:0:0:0:
406,314,113136,6,0,L|260:292,1,105.000004005432,0|0,1:3|0:0,0:0:0:0:
95,306,113306,2,0,L|124:310,1,26.25,8|0,1:2|0:0,0:0:0:0:
388,170,113645,6,0,P|330:175|281:216,1,105.000004005432,0|0,1:3|0:0,0:0:0:0:
206,371,113814,2,0,P|230:318|219:255,1,105.000004005432,0|0,1:3|0:0,0:0:0:0:
134,75,113984,2,0,P|167:122|227:144,1,105.000004005432,0|0,1:3|0:0,0:0:0:0:
480,150,114153,6,0,L|464:152,1,8.75,8|0,1:2|0:0,0:0:0:0:
166,211,114323,2,0,B|99:292|147:421|301:415|344:304|299:212|299:212|276:166|282:79|396:80|409:157|376:195,1,630.000024032594,0|0,1:3|0:0,0:0:0:0:
16,287,124831,5,0,0:0:0:0:
24,300,125001,2,0,L|77:290,1,52.5
157,324,125679,6,0,P|211:326|272:397,1,140,4|0,0:0|0:0,0:0:0:0:
174,221,126187,1,0,0:0:0:0:
181,244,126357,2,0,P|152:289|60:307,1,140,4|0,0:0|0:0,0:0:0:0:
222,342,126865,1,0,0:0:0:0:
236,326,127034,2,0,P|207:300|195:271,1,70,4|0,0:0|0:0,0:0:0:0:
239,162,127373,1,0,0:0:0:0:
288,254,127543,2,0,L|126:231,1,140,4|0,0:0|0:0,0:0:0:0:
26,178,128051,2,0,P|82:179|133:137,1,105,4|0,0:0|0:0,0:0:0:0:
127,126,128390,6,0,P|83:165|88:260,1,140,4|0,0:0|0:0,0:0:0:0:
148,312,128899,1,0,0:0:0:0:
163,294,129068,2,0,L|240:283,1,70,4|0,0:0|0:0,0:0:0:0:
404,266,129407,2,0,L|327:255,1,70,4|0,0:0|0:0,0:0:0:0:
201,135,129746,1,4,0:0:0:0:
199,151,129916,1,0,0:0:0:0:
197,166,130085,1,0,0:0:0:0:
195,181,130255,1,0,0:0:0:0:
193,196,130424,6,0,P|252:192|292:148,1,105,4|0,0:0|0:0,0:0:0:0:
293,122,130763,2,0,P|262:71|193:62,1,105,4|0,0:0|0:0,0:0:0:0:
189,67,131102,6,0,P|156:137|182:203,1,140,4|0,0:0|0:0,0:0:0:0:
197,311,131611,1,0,0:0:0:0:
202,288,131780,2,0,P|150:227|82:218,1,140,4|0,0:0|0:0,0:0:0:0:
0,170,132289,1,0,0:0:0:0:
19,170,132458,2,0,P|51:155|72:116,1,70,4|0,0:0|0:0,0:0:0:0:
245,81,132797,6,0,L|-4:100,1,245,4|0,0:0|0:0,0:0:0:0:
58,57,133475,2,0,L|170:65,1,105,4|0,0:0|0:0,0:0:0:0:
177,55,133814,5,12,0:0:0:0:
334,1,134153,1,4,0:0:0:0:
341,25,134323,1,4,0:0:0:0:
347,47,134492,2,0,L|260:32,1,70,4|0,0:0|0:0,0:0:0:0:
409,135,134831,2,0,L|496:120,1,70,4|0,0:0|0:0,0:0:0:0:
323,268,135170,5,12,0:0:0:0:
282,160,135340,1,4,0:0:0:0:
209,250,135509,1,4,0:0:0:0:
218,245,135848,1,4,0:0:0:0:
227,240,136187,1,4,0:0:0:0:
66,92,136526,6,0,P|17:108|87:214,1,210.000008010865,12|4,0:0|0:0,0:0:0:0:
132,188,137034,1,4,0:0:0:0:
227,240,137204,6,0,P|180:219|59:317,1,210.000008010865,12|4,0:0|0:0,0:0:0:0:
82,371,137712,1,4,0:0:0:0:
282,339,137882,6,0,L|248:121,1,210.000008010865,12|4,0:0|0:0,0:0:0:0:
276,59,138390,1,4,0:0:0:0:
138,282,138560,6,0,L|172:64,1,210.000008010865,12|4,0:0|0:0,0:0:0:0:
144,2,139068,1,4,0:0:0:0:
327,121,139238,6,0,L|461:106,1,105.000004005432,8|4,0:0|0:0,0:0:0:0:
486,51,139577,1,4,0:0:0:0:
456,188,139746,1,4,0:0:0:0:
276,47,139916,2,0,P|241:86|243:144,1,105.000004005432,12|4,0:0|0:0,0:0:0:0:
230,65,140255,2,0,P|218:115|249:165,1,105.000004005432,4|4,0:0|0:0,0:0:0:0:
393,296,140594,5,12,0:0:0:0:
288,318,140763,1,4,0:0:0:0:
321,216,140933,1,4,0:0:0:0:
321,229,141272,1,12,0:0:0:0:
321,242,141611,1,4,0:0:0:0:
494,379,141950,6,0,L|479:250,1,105.000004005432,12|4,0:0|0:0,0:0:0:0:
399,189,142289,1,4,0:0:0:0:
512,133,142458,1,4,0:0:0:0:
399,299,142628,2,0,P|319:260|332:122,1,210.000008010865,12|4,0:0|0:0,0:0:0:0:
371,100,143136,1,4,0:0:0:0:
211,22,143306,2,0,L|224:139,1,105.000004005432,12|4,0:0|0:0,0:0:0:0:
145,340,143645,6,0,P|184:276|162:189,1,157.500006008148,4|0,0:0|0:0,0:0:0:0:
100,166,143984,1,12,0:0:0:0:
61,369,144153,1,4,0:0:0:0:
257,302,144323,1,4,0:0:0:0:
263,312,144662,6,0,P|271:282|256:243,1,52.5000020027161,8|0,0:0|0:0,0:0:0:0:
168,0,144831,2,0,P|189:21|231:28,1,52.5000020027161,8|0,0:0|0:0,0:0:0:0:
394,223,145001,6,0,P|385:193|353:166,1,43.75,8|0,2:0|2:0,2:0:0:0:
175,135,145170,2,0,P|205:143|244:127,1,43.75,8|0,2:0|2:0,2:0:0:0:
390,104,145340,6,0,P|363:88|330:90,1,35,8|0,2:0|2:0,2:0:0:0:
256,213,145509,2,0,P|282:197|296:166,1,35,8|0,2:0|2:0,2:0:0:0:
334,50,145679,6,0,P|309:55|289:66,1,26.2500010013581,8|0,0:0|0:0,0:0:0:0:
322,196,145848,2,0,P|328:173|327:157,1,26.2500010013581,8|0,0:0|0:0,0:0:0:0:
317,150,146018,5,4,0:0:0:0:
81,195,147373,6,0,B|110:183|110:183|137:193,1,52.5,0|0,1:0|0:0,0:0:0:0:
224,272,147712,6,0,B|243:279|243:279|268:270,1,42,0|0,1:0|0:0,0:0:0:0:
323,199,148051,6,0,B|342:193|342:193|353:199,1,31.4999990386963,0|0,1:0|0:0,0:0:0:0:
415,262,148390,6,0,B|410:263|410:263|404:262,1,10.5,0|0,1:0|0:0,0:0:0:0:
362,111,148729,6,0,B|319:16|488:-56|553:67|529:166|430:180|430:180|154:215|154:215|81:229|75:335|167:357|215:286,1,857.500008177757,0|0,1:3|0:0,0:0:0:0:
181,131,149407,2,0,L|183:106,1,24.5,8|0,1:2|0:0,0:0:0:0:
280,249,150085,6,0,B|237:344|406:416|471:293|447:194|348:180|348:180|72:145|72:145|-1:131|-7:25|85:3|133:74,1,857.500008177757,0|0,1:3|0:0,0:0:0:0:
101,254,150763,2,0,L|99:229,1,24.5,8|0,1:2|0:0,0:0:0:0:
340,142,151441,6,0,B|420:92|420:92|205:77|205:77|281:147,1,367.500003504753,0|0,1:3|0:0,0:0:0:0:
379,10,151780,6,0,L|216:1,1,122.500001168251,0|0,1:3|0:0,0:0:0:0:
0,69,151950,2,0,L|163:60,1,122.500001168251,0|0,1:3|0:0,0:0:0:0:
401,207,152119,6,0,L|389:206,1,8.75,8|0,1:2|0:0,0:0:0:0:
210,235,152289,2,0,L|222:234,1,8.75,8|0,1:2|0:0,0:0:0:0:
511,294,152458,6,0,L|348:285,1,122.500001168251,0|0,1:3|0:0,0:0:0:0:
105,327,152628,2,0,L|268:318,1,122.500001168251,0|0,1:3|0:0,0:0:0:0:
365,125,152797,6,0,B|422:80|366:-12|280:36|284:98|284:98|304:320,1,367.500003504753,0|0,1:3|0:0,0:0:0:0:
447,382,153136,6,0,B|440:323|440:323|373:276,1,122.500001168251,0|0,1:3|0:0,0:0:0:0:
105,327,153306,2,0,B|159:350|159:350|233:316,1,122.500001168251,0|0,1:3|0:0,0:0:0:0:
299,52,153475,6,0,B|290:63|290:63|289:75,1,24.5,8|0,1:2|0:0,0:0:0:0:
402,262,154153,6,0,B|426:287|493:291|539:227|493:153|425:163|425:163|89:207|89:207|-15:215|-32:77|71:62|71:62|143:54,1,857.500008177757,0|0,1:3|0:0,0:0:0:0:
278,72,154831,2,0,L|266:74,1,10.5,8|0,1:2|0:0,0:0:0:0:
199,266,155170,6,0,B|190:336|190:336|184:390|257:401|266:344|266:344|305:74|305:74|325:-43|485:-20|463:101|463:101|438:267,1,857.500008177757,0|0,1:3|0:0,0:0:0:0:
188,77,155848,2,0,B|117:84|117:84|48:91|59:186|129:176|129:176|284:159,1,367.500003504753,0|0,1:3|0:0,0:0:0:0:
386,80,156187,2,0,L|362:82,1,24.5,8|0,1:2|0:0,0:0:0:0:
121,178,156865,6,0,B|325:155|325:155|387:150|392:229|333:236|333:236|285:241,1,367.500003504753,0|0,1:3|0:0,0:0:0:0:
418,363,157204,6,0,P|413:305|461:237,1,122.500001168251,0|0,1:3|0:0,0:0:0:0:
361,82,157373,2,0,P|413:107|448:182,1,122.500001168251,0|0,1:3|0:0,0:0:0:0:
243,303,157543,2,0,L|241:291,1,10.5,8|0,1:2|0:0,0:0:0:0:
185,145,157882,6,0,B|201:320|201:320|200:391|101:393|97:318|97:318|93:255,1,367.500003504753,0|0,1:3|0:0,0:0:0:0:
167,63,158221,6,0,L|332:81,1,122.500001168251,0|0,1:3|0:0,0:0:0:0:
508,25,158390,2,0,L|343:43,1,122.500001168251,0|0,1:3|0:0,0:0:0:0:
185,145,158560,6,0,L|350:163,1,122.500001168251,0|0,1:3|0:0,0:0:0:0:
491,105,158729,2,0,L|326:123,1,122.500001168251,0|0,1:3|0:0,0:0:0:0:
243,238,158899,6,0,L|252:239,1,8.75,0|0,1:3|0:0,0:0:0:0:
436,192,159068,2,0,L|427:193,1,8.75,8|0,1:2|0:0,0:0:0:0:
186,307,159238,6,0,L|195:308,1,8.75,0|0,1:3|0:0,0:0:0:0:
482,266,159407,2,0,L|473:267,1,8.75,0|0,1:3|0:0,0:0:0:0:
281,323,159577,6,0,B|287:361|287:361|304:402|362:393|363:345|363:345|310:59|310:59|299:-44|426:-63|452:19|452:19|461:63|461:63|464:113|397:119|388:73|388:73|380:23,1,857.500008177757,0|0,1:3|0:0,0:0:0:0:
209,78,160255,2,0,L|211:54,1,24.5,8|0,1:2|0:0,0:0:0:0:
231,323,160933,6,0,B|225:361|225:361|208:402|150:393|149:345|149:345|202:59|202:59|213:-44|86:-63|60:19|60:19|51:63|51:63|48:113|115:119|124:73|124:73|132:23,1,857.500008177757,0|0,1:3|0:0,0:0:0:0:
303,78,161611,2,0,L|301:54,1,24.5,8|0,1:2|0:0,0:0:0:0:
229,181,162289,6,0,B|194:222|194:222|443:186|443:186|390:154,1,367.500003504753,0|0,1:3|0:0,0:0:0:0:
163,314,162628,6,0,L|322:289,1,122.500001168251,0|0,1:3|0:0,0:0:0:0:
512,345,162797,2,0,L|353:320,1,122.500001168251,0|0,1:3|0:0,0:0:0:0:
135,151,162967,6,0,L|150:150,1,8.75,8|0,1:2|0:0,0:0:0:0:
304,122,163136,2,0,L|289:121,1,8.75,0|0,1:3|0:0,0:0:0:0:
32,90,163306,6,0,L|191:65,1,122.500001168251,0|0,1:3|0:0,0:0:0:0:
389,214,163475,2,0,L|230:189,1,122.500001168251,0|0,1:3|0:0,0:0:0:0:
42,295,163645,6,0,B|35:346|35:346|41:395|103:396|114:348|114:348|143:69,1,367.500003504753,0|0,1:3|0:0,0:0:0:0:
24,0,163984,6,0,B|4:57|4:57|59:117,1,122.500001168251,0|0,1:3|0:0,0:0:0:0:
335,90,164153,2,0,B|295:44|295:44|216:61,1,122.500001168251,0|0,1:3|0:0,0:0:0:0:
200,328,164323,6,0,L|197:303,1,24.5,8|0,1:2|0:0,0:0:0:0:
99,44,165001,6,0,B|70:4|3:20|-32:99|29:152|94:135|94:135|388:72|388:72|483:58|542:183|428:277|340:209|344:152,1,857.500008177757,0|0,1:3|0:0,0:0:0:0:
228,28,165679,2,0,L|240:25,1,10.5,8|0,1:2|0:0,0:0:0:0:
234,200,166018,6,0,B|210:342|210:342|190:409|103:389|105:329|105:329|139:115|139:115|159:14|55:-44|-33:9|-60:106|34:156,1,857.500008177757,0|0,1:3|0:0,0:0:0:0:
300,133,166695,2,0,B|350:124|350:124|419:109|398:30|338:38|338:38|94:78,1,367.500003504753,0|0,1:3|0:0,0:0:0:0:
0,224,167034,2,0,L|25:220,1,24.5,8|0,1:2|0:0,0:0:0:0:
336,241,167712,6,0,B|108:268|108:268|29:280|14:175|93:166|93:166|176:156,1,490.000004673004,0|0,1:3|1:3,0:0:0:0:
439,130,168221,1,0,1:3:0:0:
252,336,168390,2,0,L|242:337,1,10.5,8|0,1:2|0:0,0:0:0:0:
76,137,168729,6,0,B|82:88|82:88|91:17|185:23|183:89|183:89|163:291,1,367.500003504753,0|0,1:3|0:0,0:0:0:0:
288,294,169068,2,0,B|282:343|282:343|273:414|179:408|181:342|181:342|201:140,1,367.500003504753,0|0,1:3|0:0,0:0:0:0:
259,57,169407,6,0,P|330:27|399:57,1,122.500001168251,0|0,1:3|0:0,0:0:0:0:
485,196,169577,2,0,P|475:119|414:74,1,122.500001168251,0|0,1:3|0:0,0:0:0:0:
254,147,169746,6,0,P|258:143|261:136,1,8.75,8|0,1:2|0:0,0:0:0:0:
395,224,169916,2,0,P|400:222|408:223,1,8.75,0|0,1:3|0:0,0:0:0:0:
270,271,170085,5,4,1:0:0:0:
276,262,170170,1,4,0:0:0:0:
282,254,170255,1,4,0:0:0:0:
290,244,170340,1,4,0:0:0:0:
297,233,170424,5,0,1:3:0:0:
297,233,171102,2,0,L|288:171,1,61.25,8|0,0:0|0:0,0:0:0:0:
167,329,171780,5,0,1:3:0:0:
167,329,172458,2,0,L|176:267,1,61.25,8|0,0:0|0:0,0:0:0:0:
350,96,173136,6,0,P|286:137|195:114,2,157.500006008148,0|0|0,1:3|0:0|0:0,0:0:0:0:
81,160,173814,2,0,P|148:194|174:285,2,157.500006008148,0|0|0,1:3|0:0|0:0,0:0:0:0:
322,359,174492,2,0,P|273:253|404:292,1,315.000012016297,0|0,1:3|0:0,0:0:0:0:
403,283,175848,6,0,B|361:351|361:351|384:103,1,315.000012016297,0|0,1:3|0:0,0:0:0:0:
361,43,176526,1,8,0:0:0:0:
183,305,176865,6,0,B|249:390|249:390|218:49,1,420,0|0,1:3|0:0,0:0:0:0:
148,30,177543,2,0,B|181:-17|181:-17|195:165,1,210,0|0,1:3|0:0,0:0:0:0:
45,208,177882,6,0,L|94:203,1,43.75,8|0,1:2|0:0,0:0:0:0:
99,190,178390,1,0,0:0:0:0:
380,262,178560,6,0,L|128:238,1,210,0|0,1:3|0:0,0:0:0:0:
31,291,178899,2,0,B|94:269|94:269|299:289,1,262.5,0|0,1:3|0:0,0:0:0:0:
476,366,179238,6,0,L|445:362,1,26.25,8|0,1:2|0:0,0:0:0:0:
194,127,179577,6,0,B|226:167|226:167|291:173,1,96.2500009179115,0|0,1:3|0:0,0:0:0:0:
445,138,179746,2,0,B|394:145|394:145|356:199,1,96.2500009179115,0|0,1:3|0:0,0:0:0:0:
310,350,179916,2,0,B|328:302|328:302|301:242,1,96.2500009179115,0|0,1:3|0:0,0:0:0:0:
105,17,180085,6,0,L|116:122,1,96.2500009179115,0|0,1:3|0:0,0:0:0:0:
187,298,180255,2,0,B|180:352|180:352|166:391|106:380|110:334|110:334|131:165,1,288.750002753735,0|0,1:3|0:0,0:0:0:0:
339,60,180594,6,0,L|352:58,1,8.75,8|0,1:2|0:0,0:0:0:0:
459,107,180763,2,0,L|446:105,1,8.75,0|0,1:3|0:0,0:0:0:0:
196,158,180933,6,0,L|323:149,1,96.2500009179115,0|0,1:3|0:0,0:0:0:0:
494,222,181102,2,0,L|367:213,1,96.2500009179115,0|0,1:3|0:0,0:0:0:0:
198,268,181272,6,0,B|146:331|205:433|304:429|372:374|376:269|294:232|294:232|76:247|76:247|8:247|-14:182|7:148,1,735.000028038026,0|0,1:3|0:0,0:0:0:0:
61,79,181950,2,0,P|67:67|67:54,1,24.5,8|0,1:2|0:0,0:0:0:0:
296,211,182628,6,0,B|347:274|289:376|190:372|122:317|118:212|199:175|199:175|417:190|417:190|485:190|508:125|486:91,1,735.000028038026,0|0,1:3|0:0,0:0:0:0:
433,22,183306,2,0,P|427:10|427:-3,1,24.5,8|0,1:2|0:0,0:0:0:0:
217,165,183984,6,0,B|159:169|159:169|108:169|97:95|155:86|155:86|382:72,2,315.000012016297,0|0|0,1:3|0:0|0:0,0:0:0:0:
433,22,184662,2,0,L|421:23,1,10.5,8|0,1:2|0:0,0:0:0:0:
298,237,185001,6,0,B|301:296|301:296|308:346|383:347|383:288|383:288|366:61,1,315.000012016297,0|0,1:3|0:0,0:0:0:0:
218,49,185340,6,0,L|223:168,1,105.000004005432,0|0,1:3|0:0,0:0:0:0:
137,338,185509,2,0,L|141:233,1,105.000004005432,0|0,1:3|0:0,0:0:0:0:
294,0,185679,6,0,L|299:119,1,105.000004005432,0|0,1:3|0:0,0:0:0:0:
61,289,185848,2,0,L|65:184,1,105.000004005432,0|0,1:3|0:0,0:0:0:0:
370,213,186018,6,0,B|346:211,1,24.5,8|0,1:2|0:0,0:0:0:0:
217,121,186695,6,0,B|145:125|145:125|95:128|93:196|144:199|144:199|394:184|394:184|480:176|492:296|398:298|398:298|228:307,1,735.000028038026,0|0,1:3|0:0,0:0:0:0:
148,277,187373,2,0,L|160:276,1,10.5,8|0,1:2|0:0,0:0:0:0:
310,158,187712,6,0,B|300:74|300:74|279:-5|169:14|171:91|171:91|188:302|188:302|192:377|98:429|9:336|84:263,1,735.000028038026,0|0,1:3|0:0,0:0:0:0:
378,215,188390,2,0,B|450:226|450:226|502:243|483:308|439:304|439:304|292:279,1,315.000012016297,0|0,1:3|0:0,0:0:0:0:
75,152,188729,2,0,B|101:156,1,24.5,8|0,1:2|0:0,0:0:0:0:
407,94,189407,6,0,B|400:35|400:35|389:-39|272:-38|274:51|274:51|292:302,1,420.000016021729,0|0,1:3|1:3,0:0:0:0:
296,384,189916,1,0,1:3:0:0:
177,156,190085,2,0,L|175:128,1,26.25,8|0,1:2|0:0,0:0:0:0:
8,113,190424,6,0,B|5:74|5:74|10:29|79:23|83:81|83:81|105:340|104:336,1,315.000012016297,0|0,1:3|0:0,0:0:0:0:
195,351,190763,6,0,P|206:297|278:253,1,105.000004005432,0|0,1:3|0:0,0:0:0:0:
453,244,190933,2,0,P|400:261|326:221,1,105.000004005432,0|0,1:3|0:0,0:0:0:0:
270,34,191102,6,0,P|334:128|189:92,1,315.000012016297,0|0,1:3|0:0,0:0:0:0:
22,53,191441,6,0,L|35:52,1,8.75,8|0,1:2|0:0,0:0:0:0:
263,109,191611,2,0,L|250:108,1,8.75,0|0,1:3|0:0,0:0:0:0:
134,230,191780,5,0,0:0:0:0:
134,248,191865,1,0,0:0:0:0:
135,264,191950,1,0,0:0:0:0:
135,281,192034,1,0,0:0:0:0:
136,296,192119,6,0,B|89:342|26:320|2:255|40:181|113:196|113:196|373:269|373:269|454:282|493:204|480:143|377:101|345:190,1,796.250022780896,0|0,1:3|0:0,0:0:0:0:
267,357,192797,6,0,L|260:319,1,36.749998878479,8|0,1:2|0:0,0:0:0:0:
184,94,193475,6,0,B|138:47|160:-16|225:-46|299:-2|284:71|284:71|240:249,1,428.750004088879,0|0,1:0|0:0,0:0:0:0:
128,323,194153,6,0,L|135:296,1,28,8|8,1:2|0:0,0:0:0:0:
