osu file format v14

[General]
AudioFilename: audio.mp3
AudioLeadIn: 0
PreviewTime: 130048
Countdown: 0
SampleSet: Normal
StackLeniency: 0.4
Mode: 0
LetterboxInBreaks: 0
WidescreenStoryboard: 1

[Editor]
Bookmarks: 7168,22528,37888,53248,68608,83968,99328,114688,130048,145408,160768
DistanceSpacing: 2.3
BeatDivisor: 4
GridSize: 4
TimelineZoom: 2.4

[Metadata]
Title:Piercing Light (Mako Remix)
TitleUnicode:Piercing Light (Mako Remix)
Artist:League of Legends
ArtistUnicode:League of Legends
Creator:Diasios
Version:Challenger
Source:League of Legends
Tags:LoL Riot Games Rito Season 4 World Championship Warsongs Album Lucian Purifier Grizscald Dubstep EDM Cut Version -Nya- Cyllinus xxheroxx
BeatmapID:944093
BeatmapSetID:419015

[Difficulty]
HPDrainRate:7
CircleSize:6
OverallDifficulty:8.5
ApproachRate:9
SliderMultiplier:1.8
SliderTickRate:1

[Events]
//Background and Video events
0,0,"BG.jpg",0,0
//Break Periods
//Storyboard Layer 0 (Background)
//Storyboard Layer 1 (Fail)
//Storyboard Layer 2 (Pass)
//Storyboard Layer 3 (Foreground)
//Storyboard Sound Samples

[TimingPoints]
7168,480,4,1,3,30,1,0
7168,-166.666666666667,4,1,3,30,0,0
22528,-142.857142857143,4,1,3,30,0,0
37888,-125,4,1,3,30,0,0
53248,-111.111111111111,4,1,3,30,0,0
68488,-111.111111111111,4,1,0,5,0,0
68608,-83.3333333333333,4,1,1,45,0,1
68728,-83.3333333333333,4,1,1,45,0,0
70048,-133.333333333333,4,1,1,45,0,0
70288,-83.3333333333333,4,1,1,45,0,0
71968,-133.333333333333,4,1,1,45,0,0
72208,-83.3333333333333,4,1,1,45,0,0
73888,-133.333333333333,4,1,1,45,0,0
74128,-83.3333333333333,4,1,1,45,0,0
75808,-133.333333333333,4,1,1,45,0,0
76048,-83.3333333333333,4,1,1,45,0,0
77728,-133.333333333333,4,1,1,45,0,0
77968,-83.3333333333333,4,1,1,45,0,0
79648,-133.333333333333,4,1,1,45,0,0
79888,-83.3333333333333,4,1,1,45,0,0
81568,-133.333333333333,4,1,1,45,0,0
81808,-83.3333333333333,4,1,1,45,0,0
83488,-133.333333333333,4,1,1,45,0,0
83728,-83.3333333333333,4,1,1,45,0,0
85408,-133.333333333333,4,1,1,45,0,0
85648,-83.3333333333333,4,1,1,45,0,0
87328,-133.333333333333,4,1,1,45,0,0
87568,-83.3333333333333,4,1,1,45,0,0
89248,-133.333333333333,4,1,1,45,0,0
89488,-83.3333333333333,4,1,1,45,0,0
91168,-133.333333333333,4,1,1,45,0,0
91408,-83.3333333333333,4,1,1,45,0,0
93088,-133.333333333333,4,1,1,45,0,0
93328,-83.3333333333333,4,1,1,45,0,0
95008,-133.333333333333,4,1,1,45,0,0
95248,-83.3333333333333,4,1,1,45,0,0
96928,-133.333333333333,4,1,1,45,0,0
97168,-83.3333333333333,4,1,1,45,0,0
98848,-133.333333333333,4,1,1,45,0,0
99088,-100,4,1,1,45,0,0
130048,-76.9230769230769,4,1,2,55,0,1
143488,-76.9230769230769,4,1,2,55,0,0
144808,-76.9230769230769,4,1,2,5,0,0
144868,-76.9230769230769,4,1,0,55,0,0
145408,-76.9230769230769,4,1,2,55,0,1
152488,-76.9230769230769,4,1,0,55,0,1
152968,-76.9230769230769,4,1,2,55,0,1
158848,-76.9230769230769,4,1,2,45,0,0
160168,-76.9230769230769,4,1,0,5,0,0
160228,-100,4,1,0,45,0,0
160768,-100,4,1,0,30,0,0

[Colours]
Combo1 : 211,211,211
Combo2 : 184,147,193
Combo3 : 199,99,101
Combo4 : 141,77,157

[HitObjects]
256,192,7168,5,0,0:0:0:0:
313,192,7528,1,0,0:0:0:0:
371,192,7888,1,0,0:0:0:0:
428,192,8248,1,0,0:0:0:0:
339,275,8608,2,0,L|377:313,1,53.9999983520508
256,192,9088,5,0,0:0:0:0:
256,249,9448,1,0,0:0:0:0:
256,307,9808,1,0,0:0:0:0:
256,364,10168,1,0,0:0:0:0:
172,275,10528,2,0,L|134:313,1,53.9999983520508
256,192,11008,5,0,0:0:0:0:
199,192,11368,1,0,0:0:0:0:
141,192,11728,1,0,0:0:0:0:
84,192,12088,1,0,0:0:0:0:
172,108,12448,2,0,L|134:70,1,53.9999983520508
256,192,12928,5,0,0:0:0:0:
256,135,13288,1,0,0:0:0:0:
256,77,13648,1,0,0:0:0:0:
256,20,14008,1,0,0:0:0:0:
339,108,14368,2,0,L|377:70,1,53.9999983520508
256,192,14848,5,0,0:0:0:0:
216,233,15208,1,0,0:0:0:0:
175,274,15568,1,0,0:0:0:0:
135,314,15928,1,0,0:0:0:0:
256,310,16288,2,0,L|256:364,1,53.9999983520508
256,192,16768,5,0,0:0:0:0:
296,233,17128,1,0,0:0:0:0:
337,274,17488,1,0,0:0:0:0:
377,314,17848,1,0,0:0:0:0:
374,192,18208,2,0,L|428:192,1,53.9999983520508
256,192,18688,5,0,0:0:0:0:
296,151,19048,1,0,0:0:0:0:
337,110,19408,1,0,0:0:0:0:
377,70,19768,1,0,0:0:0:0:
256,74,20128,2,0,L|256:20,1,53.9999983520508
256,192,20608,5,0,0:0:0:0:
216,151,20968,1,0,0:0:0:0:
175,110,21328,1,0,0:0:0:0:
135,70,21688,1,0,0:0:0:0:
138,192,22048,2,0,L|84:192,1,53.9999983520508
135,314,22528,5,0,0:0:0:0:
56,348,22888,1,0,0:0:0:0:
66,262,23248,1,0,0:0:0:0:
135,314,23608,1,0,0:0:0:0:
222,324,23968,2,0,P|251:315|273:294,1,62.9999980773926,2|0,0:0|0:0,0:0:0:0:
292,136,24448,5,0,0:0:0:0:
372,104,24808,1,0,0:0:0:0:
304,50,25168,1,0,0:0:0:0:
384,18,25528,1,0,0:0:0:0:
452,72,25888,2,0,P|467:97|468:128,1,62.9999980773926,2|0,0:0|0:0,0:0:0:0:
420,280,26368,5,0,0:0:0:0:
334,259,26728,1,0,0:0:0:0:
360,340,27088,1,0,0:0:0:0:
275,321,27448,1,0,0:0:0:0:
205,274,27808,2,0,P|188:248|184:217,1,62.9999980773926
224,64,28288,5,0,0:0:0:0:
308,48,28648,1,0,0:0:0:0:
143,83,29008,1,0,0:0:0:0:
224,64,29368,1,0,0:0:0:0:
59,99,29728,2,0,P|42:125|38:156,1,62.9999980773926,2|0,0:0|0:0,0:0:0:0:
64,312,30208,5,0,0:0:0:0:
140,352,30568,1,0,0:0:0:0:
135,267,30928,1,0,0:0:0:0:
59,227,31288,1,0,0:0:0:0:
135,267,31648,2,0,P|161:249|192:245,1,62.9999980773926,2|0,0:0|0:0,0:0:0:0:
348,276,32128,5,0,0:0:0:0:
428,248,32488,1,0,0:0:0:0:
412,332,32848,1,0,0:0:0:0:
332,360,33208,1,0,0:0:0:0:
348,276,33568,2,0,P|345:245|330:217,1,62.9999980773926,2|0,0:0|0:0,0:0:0:0:
184,160,34048,5,0,0:0:0:0:
156,80,34408,1,0,0:0:0:0:
240,96,34768,1,0,0:0:0:0:
212,16,35128,1,0,0:0:0:0:
240,96,35488,2,0,P|263:115|294:123,1,62.9999980773926
452,108,35968,5,0,0:0:0:0:
480,28,36328,1,0,0:0:0:0:
424,188,36688,1,0,0:0:0:0:
452,108,37048,1,0,0:0:0:0:
396,268,37408,2,0,P|377:292|349:307,1,62.9999980773926,2|0,0:0|0:0,0:0:0:0:
168,320,37888,5,0,0:0:0:0:
240,224,38248,1,0,0:0:0:0:
240,224,38368,2,0,P|209:204|174:199,1,72,8|0,0:0|0:0,0:0:0:0:
24,260,38968,1,0,0:0:0:0:
99,94,39328,2,0,P|130:114|165:119,1,72,10|0,0:0|0:0,0:0:0:0:
320,96,39808,5,0,0:0:0:0:
436,144,40168,1,0,0:0:0:0:
436,144,40288,2,0,P|456:175|461:210,1,72,8|0,0:0|0:0,0:0:0:0:
406,343,40888,1,0,0:0:0:0:
313,260,41248,2,0,P|339:233|372:221,2,72,10|0|0,0:0|0:0|0:0,0:0:0:0:
406,343,42088,5,0,0:0:0:0:
406,343,42208,2,0,P|428:313|436:279,1,72,8|0,0:0|0:0,0:0:0:0:
403,118,42808,1,0,0:0:0:0:
249,25,43168,2,0,P|245:60|227:90,1,72,8|0,0:0|0:0,0:0:0:0:
89,167,43648,5,0,0:0:0:0:
27,64,44008,1,0,0:0:0:0:
27,64,44128,2,0,P|59:46|94:44,1,72,8|0,0:0|0:0,0:0:0:0:
251,104,44728,1,0,0:0:0:0:
123,125,45088,2,0,P|93:147|76:178,1,72,10|0,0:0|0:0,0:0:0:0:
82,358,45568,5,0,0:0:0:0:
205,348,45928,1,0,0:0:0:0:
205,348,46048,2,0,P|234:325|251:294,1,72,8|0,0:0|0:0,0:0:0:0:
248,130,46648,1,0,0:0:0:0:
118,260,47008,2,0,P|149:280|184:285,1,72,10|0,0:0|0:0,0:0:0:0:
361,254,47488,5,0,0:0:0:0:
361,135,47848,1,0,0:0:0:0:
361,135,47968,2,0,P|373:100|397:73,1,72,8|0,0:0|0:0,0:0:0:0:
506,161,48568,1,0,0:0:0:0:
458,334,48928,2,0,P|425:351|390:353,2,72,10|0|0,0:0|0:0|0:0,0:0:0:0:
365,261,49768,5,0,0:0:0:0:
365,261,49888,2,0,P|398:244|433:242,1,72,8|0,0:0|0:0,0:0:0:0:
337,318,50488,1,0,0:0:0:0:
401,129,50848,2,0,P|368:147|333:149,1,72,8|0,0:0|0:0,0:0:0:0:
171,72,51328,5,0,0:0:0:0:
55,95,51688,1,0,0:0:0:0:
55,95,51808,2,0,P|25:116|8:147,1,72,8|0,0:0|0:0,0:0:0:0:
32,308,52408,1,0,0:0:0:0:
125,219,52768,2,0,P|157:203|193:205,1,72,10|0,0:0|0:0,0:0:0:0:
358,315,53248,5,4,0:0:0:0:
494,263,53608,1,0,0:0:0:0:
415,361,53848,1,0,0:0:0:0:
426,289,53968,1,4,0:0:0:0:
437,217,54088,2,0,P|430:177|405:146,1,80.9999975280763,0|4,0:0|0:0,0:0:0:0:
264,31,54688,2,0,P|270:70|295:101,1,80.9999975280763,14|0,0:0|0:0,0:0:0:0:
100,47,55168,5,4,0:0:0:0:
30,175,55528,1,0,0:0:0:0:
109,273,55768,1,4,0:0:0:0:
41,247,55888,1,0,0:0:0:0:
52,319,56008,2,0,P|84:342|124:345,1,80.9999975280763,0|4,0:0|0:0,0:0:0:0:
303,313,56608,2,0,P|270:289|230:286,1,80.9999975280763,14|0,0:0|0:0,0:0:0:0:
303,313,57088,5,4,0:0:0:0:
447,281,57448,1,0,0:0:0:0:
342,210,57688,1,4,0:0:0:0:
374,276,57808,1,0,0:0:0:0:
415,215,57928,2,0,P|440:183|446:144,1,80.9999975280763,0|4,0:0|0:0,0:0:0:0:
265,123,58528,2,0,P|296:148|335:154,1,80.9999975280763,12|0,0:0|0:0,0:0:0:0:
503,40,59008,5,4,0:0:0:0:
357,52,59368,1,0,0:0:0:0:
211,64,59608,1,0,0:0:0:0:
138,70,59728,1,4,0:0:0:0:
65,76,59848,2,0,P|32:98|16:135,1,80.9999975280763,0|4,0:0|0:0,0:0:0:0:
230,193,60448,2,0,P|198:170|158:168,1,80.9999975280763,14|0,0:0|0:0,0:0:0:0:
285,324,60928,5,4,0:0:0:0:
139,336,61288,1,0,0:0:0:0:
55,216,61528,1,4,0:0:0:0:
24,282,61648,1,0,0:0:0:0:
97,276,61768,2,0,P|121:245|125:205,1,80.9999975280763,0|4,0:0|0:0,0:0:0:0:
76,28,62368,2,0,P|52:59|48:99,1,80.9999975280763,14|0,0:0|0:0,0:0:0:0:
244,44,62848,5,4,0:0:0:0:
389,56,63208,1,0,0:0:0:0:
489,130,63448,1,4,0:0:0:0:
418,123,63568,1,0,0:0:0:0:
447,190,63688,2,0,P|448:229|428:264,1,80.9999975280763,0|4,0:0|0:0,0:0:0:0:
268,351,64288,2,0,P|247:316|249:276,1,80.9999975280763,14|0,0:0|0:0,0:0:0:0:
256,192,64768,12,0,68488,0:0:0:0:
20,44,68608,6,0,B|74:35|74:35|120:61,1,107.999996704102,6|0,0:0|0:0,0:0:0:0:
205,145,68968,2,0,B|259:136|259:136|305:162,1,107.999996704102,2|0,0:0|0:0,0:0:0:0:
390,246,69328,2,0,B|444:237|444:237|490:263,1,107.999996704102,2|0,0:0|0:0,0:0:0:0:
423,361,69688,2,0,B|369:370|369:370|323:344,1,107.999996704102,2|0,0:0|0:0,0:0:0:0:
390,246,70048,6,2,L|400:178,1,67.5000025749208
228,16,70528,6,0,B|254:62|254:62|245:116,1,107.999996704102,2|0,0:0|0:0,0:0:0:0:
168,208,70888,2,0,B|122:234|122:234|68:225,1,107.999996704102,2|0,0:0|0:0,0:0:0:0:
27,112,71248,2,0,B|73:86|73:86|127:95,1,107.999996704102,2|0,0:0|0:0,0:0:0:0:
219,172,71608,2,0,B|245:218|245:218|236:272,1,107.999996704102,2|0,0:0|0:0,0:0:0:0:
143,348,71968,6,2,L|74:335,1,67.5000025749208
316,328,72448,6,0,B|370:337|370:337|416:311,1,107.999996704102,2|0,0:0|0:0,0:0:0:0:
447,196,72808,2,0,B|393:187|393:187|347:213,1,107.999996704102,2|0,0:0|0:0,0:0:0:0:
248,145,73168,2,0,B|202:171|202:171|148:162,1,107.999996704102,2|0,0:0|0:0,0:0:0:0:
179,47,73528,2,0,B|225:21|225:21|279:30,1,107.999996704102,2|0,0:0|0:0,0:0:0:0:
398,48,73888,6,2,P|429:40|455:19,1,67.5000025749208
472,256,74368,5,2,0:0:0:0:
327,67,74608,1,0,0:0:0:0:
213,102,74728,2,0,B|187:148|187:148|196:202,1,107.999996704102,2|0,0:0|0:0,0:0:0:0:
299,282,75088,2,0,B|325:236|325:236|316:182,1,107.999996704102,2|0,0:0|0:0,0:0:0:0:
185,317,75448,1,2,0:0:0:0:
40,128,75688,1,0,0:0:0:0:
40,128,75808,6,2,L|51:58,1,67.5000025749208
196,252,76288,6,0,B|187:306|187:306|148:341,1,107.999996704102,2|0,0:0|0:0,0:0:0:0:
96,236,76648,2,0,B|53:201|53:201|41:150,1,107.999996704102,2|0,0:0|0:0,0:0:0:0:
159,157,77008,2,0,B|209:136|209:136|260:152,1,107.999996704102,2|0,0:0|0:0,0:0:0:0:
374,193,77368,2,0,B|424:208|424:208|475:187,1,107.999996704102,2|0,0:0|0:0,0:0:0:0:
429,297,77728,6,2,L|433:365,1,67.5000025749208
468,128,78208,6,0,B|418:113|418:113|367:134,1,107.999996704102,2|0,0:0|0:0,0:0:0:0:
284,48,78568,2,0,B|269:97|269:97|290:149,1,107.999996704102,2|0,0:0|0:0,0:0:0:0:
340,258,78928,2,0,B|360:309|360:309|346:359,1,107.999996704102,2|0,0:0|0:0,0:0:0:0:
263,273,79288,2,0,B|212:294|212:294|162:279,1,107.999996704102,2|0,0:0|0:0,0:0:0:0:
66,350,79648,6,2,P|69:316|86:288,1,67.5000025749208
248,112,80128,6,0,B|235:165|235:165|194:197,1,107.999996704102,2|0,0:0|0:0,0:0:0:0:
76,175,80488,2,0,B|53:125|53:125|65:74,1,107.999996704102,2|0,0:0|0:0,0:0:0:0:
177,29,80848,2,0,B|164:82|164:82|123:114,1,107.999996704102,2|0,0:0|0:0,0:0:0:0:
233,45,81208,2,0,B|221:96|221:96|245:145,1,107.999996704102,2|0,0:0|0:0,0:0:0:0:
160,230,81568,6,2,L|175:164,1,67.5000025749208
367,24,82048,5,2,0:0:0:0:
381,261,82288,1,0,0:0:0:0:
346,149,82408,2,0,B|300:123|300:123|246:132,1,107.999996704102,2|0,0:0|0:0,0:0:0:0:
166,235,82768,2,0,B|212:261|212:261|266:252,1,107.999996704102,2|0,0:0|0:0,0:0:0:0:
131,121,83128,1,2,0:0:0:0:
92,355,83368,1,0,0:0:0:0:
92,355,83488,6,2,L|158:343,1,67.5000025749208
389,287,83968,6,2,P|445:232|435:155,1,161.999995056153
360,60,84448,2,0,L|324:162,1,107.999996704102,8|2,0:0|0:0,0:0:0:0:
208,172,84808,2,0,B|253:144|253:144|271:92,2,107.999996704102,2|2|0,0:0|0:0|0:0,0:0:0:0:
92,144,85408,6,2,L|70:80,1,67.5000025749208,10|2,0:0|0:0,0:0:0:0:
36,316,85888,6,2,P|55:240|127:210,1,161.999995056153
246,227,86368,2,0,L|352:243,1,107.999996704102,8|2,0:0|0:0,0:0:0:0:
380,356,86728,2,0,B|344:316|344:316|290:307,2,107.999996704102,2|2|0,0:0|0:0|0:0,0:0:0:0:
264,384,87328,6,2,L|198:372,1,67.5000025749208,10|2,0:0|0:0,0:0:0:0:
408,251,87808,6,2,P|480:220|498:144,1,161.999995056153
423,52,88288,2,0,L|317:68,1,107.999996704102,8|2,0:0|0:0,0:0:0:0:
289,181,88648,2,0,B|325:141|325:141|379:132,2,107.999996704102,2|2|0,0:0|0:0|0:0,0:0:0:0:
304,300,89248,6,2,L|349:250,1,67.5000025749208,10|2,0:0|0:0,0:0:0:0:
128,352,89728,6,2,P|55:321|37:245,1,161.999995056153
156,233,90208,1,8,0:0:0:0:
356,151,90448,1,2,0:0:0:0:
426,246,90568,1,0,0:0:0:0:
474,138,90688,2,2,P|456:62|384:32,1,161.999995056153,2|0,0:0|0:0,0:0:0:0:
256,78,91168,6,2,L|256:146,1,67.5000025749208,10|10,0:0|0:0,0:0:0:0:
80,304,91648,6,2,P|142:351|216:328,1,161.999995056153
148,232,92128,2,0,L|42:216,1,107.999996704102,8|2,0:0|0:0,0:0:0:0:
14,103,92488,2,0,B|50:143|50:143|104:152,2,107.999996704102,2|2|0,0:0|0:0|0:0,0:0:0:0:
113,35,93088,6,2,L|179:47,1,67.5000025749208,10|2,0:0|0:0,0:0:0:0:
388,160,93568,6,2,P|449:112|446:34,1,161.999995056153
340,82,94048,2,0,L|300:181,1,107.999996704102,8|2,0:0|0:0,0:0:0:0:
385,262,94408,2,0,B|368:210|368:210|387:159,2,107.999996704102,2|2|0,0:0|0:0|0:0,0:0:0:0:
486,327,95008,6,2,L|466:262,1,67.5000025749208,10|2,0:0|0:0,0:0:0:0:
228,239,95488,6,2,P|197:311|121:329,1,161.999995056153
21,265,95968,2,0,L|37:159,1,107.999996704102,8|2,0:0|0:0,0:0:0:0:
150,131,96328,2,0,B|110:167|110:167|101:221,2,107.999996704102,2|2|0,0:0|0:0|0:0,0:0:0:0:
247,61,96928,6,2,L|235:127,1,67.5000025749208,10|2,0:0|0:0,0:0:0:0:
475,137,97408,6,2,P|456:62|384:31,1,161.999995056153
356,151,97888,1,8,0:0:0:0:
156,233,98128,1,2,0:0:0:0:
86,138,98248,1,0,0:0:0:0:
38,246,98368,2,2,P|56:322|128:352,1,161.999995056153,2|0,0:0|0:0,0:0:0:0:
256,306,98848,6,2,L|256:238,1,67.5000025749208,10|10,0:0|0:0,0:0:0:0:
312,66,99328,6,0,B|350:44|350:44|394:51,1,90,6|0,0:0|0:0,0:0:0:0:
478,88,99688,2,0,B|499:126|499:126|492:170,1,90,2|0,0:0|0:0,0:0:0:0:
456,254,100048,2,0,B|417:275|417:275|373:268,1,90,2|0,0:0|0:0,0:0:0:0:
290,232,100408,2,0,B|268:193|268:193|275:149,1,90,2|0,0:0|0:0,0:0:0:0:
395,52,100768,1,2,0:0:0:0:
372,267,101008,1,2,0:0:0:0:
113,102,101248,6,0,B|69:94|69:94|30:117,1,90,2|0,0:0|0:0,0:0:0:0:
97,177,101608,2,0,B|89:220|89:220|112:259,1,90,2|0,0:0|0:0,0:0:0:0:
172,193,101968,2,0,B|215:200|215:200|254:177,1,90,2|0,0:0|0:0,0:0:0:0:
188,118,102328,2,0,B|195:74|195:74|172:35,1,90,2|0,0:0|0:0,0:0:0:0:
29,117,102688,1,2,0:0:0:0:
255,177,102928,1,2,0:0:0:0:
36,280,103168,6,0,B|67:313|67:313|71:356,1,90,2|0,0:0|0:0,0:0:0:0:
114,245,103528,2,0,B|80:276|80:276|37:280,1,90,2|0,0:0|0:0,0:0:0:0:
149,323,103888,2,0,B|118:290|118:290|114:247,1,90,2|0,0:0|0:0,0:0:0:0:
71,358,104248,2,0,B|105:327|105:327|148:323,1,90,2|0,0:0|0:0,0:0:0:0:
304,308,104608,1,2,0:0:0:0:
210,113,104848,1,2,0:0:0:0:
475,317,105088,6,0,B|441:348|441:348|398:352,1,90,2|0,0:0|0:0,0:0:0:0:
440,239,105448,2,0,B|471:272|471:272|475:315,1,90,2|0,0:0|0:0,0:0:0:0:
362,274,105808,2,0,B|396:243|396:243|439:239,1,90,2|0,0:0|0:0,0:0:0:0:
397,352,106168,2,0,B|366:319|366:319|362:276,1,90,2|0,0:0|0:0,0:0:0:0:
350,119,106528,1,2,0:0:0:0:
282,308,106768,1,2,0:0:0:0:
427,83,107008,6,0,B|399:46|399:46|357:35,1,90,2|0,0:0|0:0,0:0:0:0:
268,16,107368,1,2,0:0:0:0:
256,106,107488,2,0,B|248:148|248:148|214:179,1,90,8|2,0:0|0:0,0:0:0:0:
130,146,107848,1,0,0:0:0:0:
142,235,107968,1,0,0:0:0:0:
59,200,108088,2,0,B|24:231|24:231|17:273,1,90,2|0,0:0|0:0,0:0:0:0:
55,356,108448,2,0,B|89:324|89:324|96:282,1,90,10|2,0:0|0:0,0:0:0:0:
260,126,108928,6,0,B|267:84|267:84|301:52,1,90,2|0,0:0|0:0,0:0:0:0:
376,1,109288,1,2,0:0:0:0:
388,90,109408,2,0,B|395:132|395:132|429:164,1,90,8|2,0:0|0:0,0:0:0:0:
512,129,109768,1,0,0:0:0:0:
429,164,109888,1,0,0:0:0:0:
501,218,110008,2,0,B|493:264|493:264|462:293,1,90,2|0,0:0|0:0,0:0:0:0:
380,332,110368,2,0,B|334:324|334:324|305:293,1,90,10|10,0:0|0:0,0:0:0:0:
207,91,110848,6,0,B|178:60|178:60|132:52,1,90,2|0,0:0|0:0,0:0:0:0:
42,39,111208,1,2,0:0:0:0:
24,127,111328,2,0,B|53:158|53:158|99:166,1,90,8|2,0:0|0:0,0:0:0:0:
189,177,111688,1,0,0:0:0:0:
224,260,111808,1,0,0:0:0:0:
170,332,111928,2,0,B|135:363|135:363|92:366,1,90,2|0,0:0|0:0,0:0:0:0:
20,311,112288,2,0,B|54:279|54:279|97:276,1,90,10|2,0:0|0:0,0:0:0:0:
307,358,112768,6,0,B|349:354|349:354|384:323,1,90,2|0,0:0|0:0,0:0:0:0:
449,259,113128,1,2,0:0:0:0:
361,234,113248,2,0,B|315:218|315:218|291:184,1,90,8|2,0:0|0:0,0:0:0:0:
244,108,113608,1,0,0:0:0:0:
287,29,113728,1,0,0:0:0:0:
377,26,113848,2,0,B|419:26|419:26|457:54,1,90,2|0,0:0|0:0,0:0:0:0:
471,144,114208,2,0,B|428:143|428:143|390:115,1,90,10|10,0:0|0:0,0:0:0:0:
183,27,114688,5,2,0:0:0:0:
96,50,114808,1,0,0:0:0:0:
72,137,114928,1,0,0:0:0:0:
135,201,115048,1,2,0:0:0:0:
159,114,115168,1,8,0:0:0:0:
75,273,115408,2,0,L|30:280,1,45,2|0,0:0|0:0,0:0:0:0:
44,369,115648,1,0,0:0:0:0:
133,357,115768,2,0,B|175:348|175:348|207:314,1,90,2|0,0:0|0:0,0:0:0:0:
227,226,116128,2,0,B|259:191|259:191|301:183,1,90,10|2,0:0|0:0,0:0:0:0:
475,327,116608,5,2,0:0:0:0:
388,350,116728,1,0,0:0:0:0:
412,263,116848,1,0,0:0:0:0:
436,176,116968,1,2,0:0:0:0:
499,240,117088,1,8,0:0:0:0:
326,290,117328,2,0,L|333:245,1,45,2|0,0:0|0:0,0:0:0:0:
348,157,117568,1,0,0:0:0:0:
264,189,117688,2,0,B|221:180|221:180|189:146,1,90,2|0,0:0|0:0,0:0:0:0:
181,56,118048,2,0,B|209:23|209:23|255:12,1,90,10|10,0:0|0:0,0:0:0:0:
474,64,118528,5,2,0:0:0:0:
389,33,118648,1,0,0:0:0:0:
320,91,118768,1,0,0:0:0:0:
405,122,118888,1,2,0:0:0:0:
490,153,119008,1,8,0:0:0:0:
441,326,119248,2,0,L|456:283,1,45,2|0,0:0|0:0,0:0:0:0:
425,199,119488,1,0,0:0:0:0:
340,168,119608,2,0,B|297:174|297:174|263:206,1,90,2|0,0:0|0:0,0:0:0:0:
260,297,119968,2,0,B|302:290|302:290|336:258,1,90,10|2,0:0|0:0,0:0:0:0:
112,276,120448,5,2,0:0:0:0:
168,346,120568,1,0,0:0:0:0:
79,360,120688,1,0,0:0:0:0:
23,290,120808,1,2,0:0:0:0:
112,276,120928,1,8,0:0:0:0:
204,121,121168,2,0,L|159:129,1,45,2|0,0:0|0:0,0:0:0:0:
70,146,121408,1,0,0:0:0:0:
101,61,121528,2,0,B|133:27|133:27|176:20,1,90,2|0,0:0|0:0,0:0:0:0:
264,41,121888,2,0,B|297:73|297:73|304:116,1,90,10|10,0:0|0:0,0:0:0:0:
237,331,122368,5,2,0:0:0:0:
153,296,122488,1,0,0:0:0:0:
225,242,122608,1,0,0:0:0:0:
309,277,122728,1,2,0:0:0:0:
321,366,122848,1,8,0:0:0:0:
413,211,123088,1,2,0:0:0:0:
425,300,123208,1,0,0:0:0:0:
497,246,123328,1,0,0:0:0:0:
485,157,123448,1,2,0:0:0:0:
413,211,123568,2,0,B|369:216|369:216|329:193,2,90,0|10|0,0:0|0:0|0:0,0:0:0:0:
275,53,124288,5,2,0:0:0:0:
359,88,124408,1,0,0:0:0:0:
287,142,124528,1,0,0:0:0:0:
203,107,124648,1,2,0:0:0:0:
191,18,124768,1,8,0:0:0:0:
99,173,125008,1,2,0:0:0:0:
87,84,125128,1,0,0:0:0:0:
15,138,125248,1,0,0:0:0:0:
27,227,125368,1,2,0:0:0:0:
99,173,125488,2,0,B|142:167|142:167|182:190,2,90,0|10|8,0:0|0:0|0:0,0:0:0:0:
237,331,126208,5,2,0:0:0:0:
326,319,126328,1,0,0:0:0:0:
381,248,126448,1,0,0:0:0:0:
369,158,126568,1,0,0:0:0:0:
298,104,126688,1,2,0:0:0:0:
209,116,126808,1,0,0:0:0:0:
154,187,126928,1,0,0:0:0:0:
166,277,127048,1,0,0:0:0:0:
326,319,127168,5,2,0:0:0:0:
415,307,127288,1,0,0:0:0:0:
470,236,127408,1,0,0:0:0:0:
458,146,127528,1,0,0:0:0:0:
387,92,127648,1,2,0:0:0:0:
298,104,127768,1,0,0:0:0:0:
243,175,127888,1,0,0:0:0:0:
255,265,128008,1,0,0:0:0:0:
415,307,128128,6,2,L|412:284,7,22.5,2|0|0|0|0|0|0|0,0:0|0:0|0:0|0:0|0:0|0:0|0:0|0:0,0:0:0:0:
401,217,128608,6,2,L|398:194,7,22.5,0|0|0|0|0|0|0|0,0:0|0:0|0:0|0:0|0:0|0:0|0:0|0:0,0:0:0:0:
387,127,129088,6,2,L|384:104,7,22.5,0|0|0|0|0|0|0|0,0:0|0:0|0:0|0:0|0:0|0:0|0:0|0:0,0:0:0:0:
373,37,129568,5,0,0:0:0:0:
139,347,130048,6,0,B|83:331|83:331|49:283,1,116.999994644165,14|0,0:0|0:0,0:0:0:0:
32,148,130408,1,2,0:0:0:0:
160,106,130528,2,0,B|215:121|215:121|249:169,1,116.999994644165,8|2,0:0|0:0,0:0:0:0:
267,305,130888,1,0,0:0:0:0:
326,184,131008,1,8,0:0:0:0:
344,319,131128,2,0,P|400:309|436:265,1,116.999994644165,2|0,0:0|0:0,0:0:0:0:
464,132,131488,2,2,L|443:75,1,58.4999973220826,10|10,0:0|0:0,0:0:0:0:
320,20,131728,2,2,L|340:74,1,58.4999973220826,10|2,0:0|0:0,0:0:0:0:
284,276,131968,6,0,B|253:326|253:326|198:346,1,116.999994644165,10|0,0:0|0:0,0:0:0:0:
68,312,132328,1,2,0:0:0:0:
163,216,132448,1,8,0:0:0:0:
32,182,132568,1,0,0:0:0:0:
127,86,132688,2,0,B|178:58|178:58|236:68,1,116.999994644165,2|8,0:0|0:0,0:0:0:0:
367,95,133048,2,0,P|421:76|449:26,1,116.999994644165,2|0,0:0|0:0,0:0:0:0:
420,159,133408,2,2,L|410:216,1,58.4999973220826,10|2,0:0|0:0,0:0:0:0:
280,184,133648,2,2,L|289:126,1,58.4999973220826,10|10,0:0|0:0,0:0:0:0:
409,216,133888,6,0,B|398:273|398:273|425:325,1,116.999994644165,10|0,0:0|0:0,0:0:0:0:
326,232,134248,1,2,0:0:0:0:
259,350,134368,2,0,B|270:293|270:293|243:242,1,116.999994644165,8|2,0:0|0:0,0:0:0:0:
172,356,134728,1,0,0:0:0:0:
54,291,134848,2,0,L|3:262,1,58.4999973220826,8|2,0:0|0:0,0:0:0:0:
88,156,135088,2,0,L|72:100,1,58.4999973220826
207,84,135328,2,2,L|235:33,2,58.4999973220826,10|2|10,0:0|0:0|0:0,0:0:0:0:
231,349,135808,6,0,B|217:291|217:291|243:239,1,116.999994644165,10|0,0:0|0:0,0:0:0:0:
316,127,136168,1,2,0:0:0:0:
451,134,136288,1,8,0:0:0:0:
512,254,136408,1,0,0:0:0:0:
439,367,136528,1,2,0:0:0:0:
304,360,136648,1,0,0:0:0:0:
243,240,136768,1,8,0:0:0:0:
316,127,136888,1,2,0:0:0:0:
451,134,137008,5,0,0:0:0:0:
243,240,137248,1,10,0:0:0:0:
439,367,137488,1,10,0:0:0:0:
329,34,137728,6,0,P|272:42|234:84,1,116.999994644165,10|0,0:0|0:0,0:0:0:0:
273,214,138088,1,2,0:0:0:0:
143,249,138208,2,0,B|85:262|85:262|33:235,1,116.999994644165,8|2,0:0|0:0,0:0:0:0:
103,119,138568,1,0,0:0:0:0:
233,84,138688,1,8,0:0:0:0:
273,214,138808,2,0,P|263:271|218:307,1,116.999994644165,2|0,0:0|0:0,0:0:0:0:
88,338,139168,2,2,L|31:350,1,58.4999973220826,10|10,0:0|0:0,0:0:0:0:
123,253,139408,2,2,L|66:265,1,58.4999973220826,10|2,0:0|0:0,0:0:0:0:
233,84,139648,6,0,P|199:38|144:24,1,116.999994644165,10|0,0:0|0:0,0:0:0:0:
62,133,140008,1,2,0:0:0:0:
123,253,140128,1,8,0:0:0:0:
138,119,140248,1,0,0:0:0:0:
199,239,140368,2,0,P|233:285|288:299,1,116.999994644165,2|8,0:0|0:0,0:0:0:0:
422,274,140728,2,0,B|474:302|474:302|497:356,1,116.999994644165,2|0,0:0|0:0,0:0:0:0:
367,315,141088,2,2,L|345:261,1,58.4999973220826,10|2,0:0|0:0,0:0:0:0:
455,179,141328,2,2,L|477:233,1,58.4999973220826,10|10,0:0|0:0,0:0:0:0:
376,143,141568,6,0,B|416:101|416:101|474:92,1,116.999994644165,10|0,0:0|0:0,0:0:0:0:
369,8,141928,1,2,0:0:0:0:
376,143,142048,2,0,B|335:186|335:186|277:195,1,116.999994644165,8|2,0:0|0:0,0:0:0:0:
270,60,142408,1,0,0:0:0:0:
157,134,142528,2,0,L|99:144,1,58.4999973220826,8|2,0:0|0:0,0:0:0:0:
4,239,142768,2,0,L|61:230,1,58.4999973220826
184,289,143008,2,2,L|125:299,2,58.4999973220826,10|2|10,0:0|0:0|0:0,0:0:0:0:
256,192,143488,12,0,144808,0:0:0:0:
256,192,144928,5,10,0:0:0:0:
256,192,145168,1,10,0:0:0:0:
98,61,145408,6,0,B|55:102|55:102|46:160,1,116.999994644165,14|0,0:0|0:0,0:0:0:0:
110,277,145768,2,0,L|120:219,1,58.4999973220826,2|8,0:0|0:0,0:0:0:0:
35,325,146008,1,0,0:0:0:0:
170,344,146128,1,2,0:0:0:0:
119,219,146248,2,0,B|160:176|160:176|218:167,1,116.999994644165,8|2,0:0|0:0,0:0:0:0:
349,192,146608,2,0,B|405:183|405:183|446:140,1,116.999994644165,0|10,0:0|0:0,0:0:0:0:
464,12,146968,1,8,0:0:0:0:
340,58,147088,1,10,0:0:0:0:
415,346,147328,6,0,P|376:303|320:294,1,116.999994644165,10|0,0:0|0:0,0:0:0:0:
187,316,147688,2,0,L|129:326,2,58.4999973220826,2|8|0,0:0|0:0|0:0,0:0:0:0:
135,190,148048,1,2,0:0:0:0:
129,325,148168,2,0,P|72:317|32:276,1,116.999994644165,8|2,0:0|0:0,0:0:0:0:
21,142,148528,2,0,P|49:92|103:71,1,116.999994644165,0|10,0:0|0:0,0:0:0:0:
234,99,148888,1,0,0:0:0:0:
135,190,149008,1,10,0:0:0:0:
435,17,149248,6,0,B|474:55|474:55|484:114,1,116.999994644165,10|0,0:0|0:0,0:0:0:0:
350,122,149608,1,2,0:0:0:0:
427,234,149728,2,0,L|416:175,1,58.4999973220826,8|0,0:0|0:0,0:0:0:0:
283,196,149968,2,0,L|293:254,1,58.4999973220826,2|0,0:0|0:0,0:0:0:0:
378,359,150208,2,0,L|367:300,1,58.4999973220826,8|2,0:0|0:0,0:0:0:0:
234,321,150448,2,0,L|244:379,1,58.4999973220826
157,272,150688,2,2,L|146:213,2,58.4999973220826,10|2|10,0:0|0:0|0:0,0:0:0:0:
343,99,151168,6,0,B|315:149|315:149|259:169,1,116.999994644165,10|0,0:0|0:0,0:0:0:0:
158,75,151528,1,2,0:0:0:0:
34,120,151648,1,8,0:0:0:0:
0,246,151768,1,0,0:0:0:0:
99,340,151888,1,2,0:0:0:0:
225,300,152008,1,0,0:0:0:0:
259,169,152128,1,8,0:0:0:0:
158,75,152248,1,2,0:0:0:0:
34,120,152368,5,0,0:0:0:0:
259,169,152608,1,10,0:0:0:0:
99,340,152848,1,10,0:0:0:0:
158,75,153088,6,0,P|199:34|256:28,1,116.999994644165,10|0,0:0|0:0,0:0:0:0:
373,94,153448,1,2,0:0:0:0:
498,44,153568,1,8,0:0:0:0:
478,177,153688,2,0,L|499:233,1,58.4999973220826,0|2,0:0|0:0,0:0:0:0:
421,343,153928,2,0,B|437:285|437:285|416:232,1,116.999994644165,8|2,0:0|0:0,0:0:0:0:
295,292,154288,2,0,B|255:334|255:334|197:344,1,116.999994644165,0|10,0:0|0:0,0:0:0:0:
76,283,154648,1,10,0:0:0:0:
189,209,154768,1,10,0:0:0:0:
27,75,155008,6,0,B|67:33|67:33|125:23,1,116.999994644165,10|0,0:0|0:0,0:0:0:0:
240,91,155368,2,0,L|182:101,2,58.4999973220826,2|8|0,0:0|0:0|0:0,0:0:0:0:
106,116,155728,1,2,0:0:0:0:
240,91,155848,2,0,P|289:60|307:6,1,116.999994644165,8|2,0:0|0:0,0:0:0:0:
345,172,156208,2,0,P|364:118|413:89,1,116.999994644165,0|10,0:0|0:0,0:0:0:0:
476,209,156568,1,0,0:0:0:0:
494,75,156688,1,10,0:0:0:0:
367,327,156928,6,0,B|329:366|329:366|270:376,1,116.999994644165,10|0,0:0|0:0,0:0:0:0:
262,242,157288,1,2,0:0:0:0:
150,319,157408,2,0,L|209:308,1,58.4999973220826,8|0,0:0|0:0,0:0:0:0:
78,268,157648,2,0,L|20:278,1,58.4999973220826,2|0,0:0|0:0,0:0:0:0:
129,196,157888,2,0,L|188:185,1,58.4999973220826,8|2,0:0|0:0,0:0:0:0:
57,145,158128,2,0,L|-1:155,1,58.4999973220826
108,73,158368,2,2,L|167:62,2,58.4999973220826,10|2|10,0:0|0:0|0:0,0:0:0:0:
256,192,158848,12,0,160168,0:0:0:0:
108,73,160288,5,2,0:0:0:0:
108,73,160528,2,2,L|20:89,1,90,2|4,0:0|0:0,0:0:0:0:
