osu file format v14

[General]
AudioFilename: audio.mp3
AudioLeadIn: 0
PreviewTime: 60390
Countdown: 0
SampleSet: Normal
StackLeniency: 0.4
Mode: 0
LetterboxInBreaks: 0
WidescreenStoryboard: 0

[Editor]
Bookmarks: 178483
DistanceSpacing: 1
BeatDivisor: 4
GridSize: 32
TimelineZoom: 1.6

[Metadata]
Title:Legends Never Die (ft. Against The Current)
TitleUnicode:Legends Never Die (ft. Against The Current)
Artist:League of Legends
ArtistUnicode:League of Legends
Creator:Kalibe
Version:Glory
Source:League of Legends
Tags:riot games worlds 2017 irohas mugiwarasekai akitoshi corinn
BeatmapID:1416839
BeatmapSetID:669826

[Difficulty]
HPDrainRate:6
CircleSize:4
OverallDifficulty:8
ApproachRate:8.7
SliderMultiplier:1.84
SliderTickRate:1

[Events]
//Background and Video events
0,0,"ez.jpg",0,0
//Break Periods
2,89722,92306
2,151437,162592
//Storyboard Layer 0 (Background)
//Storyboard Layer 1 (Fail)
//Storyboard Layer 2 (Pass)
//Storyboard Layer 3 (Foreground)
//Storyboard Sound Samples

[TimingPoints]
12380,428.571428571429,4,2,1,25,1,0
14094,-200,4,2,1,20,0,0
41522,-153.846153846153,4,2,1,40,0,0
48380,-133.333333333333,4,2,1,45,0,0
55237,-117.647058823529,4,2,1,50,0,0
59522,-79.9999999999999,4,2,1,30,0,0
59737,-79.9999999999999,4,2,1,40,0,0
59951,-79.9999999999999,4,2,1,50,0,0
60165,-79.9999999999999,4,2,1,60,0,0
60380,-100,4,2,1,35,0,0
61665,-200,4,2,1,35,0,0
61987,-200,4,2,1,5,0,0
62094,-100,4,1,2,75,0,1
62951,-71.4285714285714,4,1,2,75,0,1
64665,-76.9230769230769,4,1,2,75,0,1
66380,-71.4285714285714,4,1,2,75,0,1
68951,-100,4,1,2,75,0,1
69808,-76.9230769230769,4,1,2,75,0,1
71094,-100,4,1,2,75,0,1
72380,-76.9230769230769,4,1,2,75,0,1
73237,-71.4285714285714,4,1,2,75,0,1
75594,-66.6666666666667,4,1,2,75,0,0
75808,-100,4,1,2,75,0,1
76665,-71.4285714285714,4,1,2,75,0,1
78380,-76.9230769230769,4,1,2,75,0,1
80094,-71.4285714285714,4,1,2,75,0,1
82665,-100,4,1,2,75,0,1
83522,-76.9230769230769,4,1,2,75,0,1
84808,-100,4,1,2,75,0,1
86094,-83.3333333333333,4,1,2,75,0,1
87808,-83.3333333333333,4,2,1,25,0,0
92951,-142.857142857143,4,2,1,30,0,0
103237,-125,4,2,1,40,0,0
104415,-125,4,2,1,5,0,0
104522,-125,4,2,1,40,0,0
110094,-117.647058823529,4,2,1,45,0,0
111272,-117.647058823529,4,2,1,5,0,0
111380,-117.647058823529,4,2,1,45,0,0
116951,-111.111111111111,4,2,1,50,0,0
118130,-111.111111111111,4,2,1,5,0,0
118237,-111.111111111111,4,2,1,50,0,0
120594,-111.111111111111,4,2,1,5,0,0
120701,-111.111111111111,4,2,1,50,0,0
120915,-111.111111111111,4,2,1,5,0,0
121022,-111.111111111111,4,2,1,50,0,0
121237,-80,4,2,1,30,0,0
121451,-80,4,2,1,40,0,0
121665,-80,4,2,1,50,0,0
121880,-80,4,2,1,60,0,0
122094,-80,4,2,1,35,0,0
123380,-200,4,2,1,35,0,0
123701,-200,4,2,1,5,0,0
123808,-100,4,1,2,75,0,1
124665,-71.4285714285714,4,1,2,75,0,1
126380,-76.9230769230769,4,1,2,75,0,1
128094,-71.4285714285714,4,1,2,75,0,1
130665,-100,4,1,2,75,0,1
131522,-76.9230769230769,4,1,2,75,0,1
132808,-100,4,1,2,75,0,1
134094,-76.9230769230769,4,1,2,75,0,1
134951,-71.4285714285714,4,1,2,75,0,1
137308,-66.6666666666667,4,1,2,75,0,0
137522,-100,4,1,2,75,0,1
138380,-71.4285714285714,4,1,2,75,0,1
140094,-76.9230769230769,4,1,2,75,0,1
141808,-71.4285714285714,4,1,2,75,0,1
144380,-100,4,1,2,75,0,1
145237,-76.9230769230769,4,1,2,75,0,1
146522,-100,4,1,2,75,0,1
147808,-83.3333333333333,4,1,2,75,0,1
151237,-111.111111111111,4,2,1,50,0,0
163237,-111.111111111111,4,2,1,35,0,0
164951,-111.111111111111,4,2,1,50,0,0
167522,-200,4,2,1,50,0,0
168380,-111.111111111111,4,2,1,50,0,0
176522,-66.6666666666667,4,2,1,50,0,0
178665,-100,4,1,2,75,0,1
179522,-71.4285714285714,4,1,2,75,0,1
181237,-76.9230769230769,4,1,2,75,0,1
182951,-71.4285714285714,4,1,2,75,0,1
185522,-100,4,1,2,75,0,1
186380,-76.9230769230769,4,1,2,75,0,1
187665,-100,4,1,2,75,0,1
188951,-76.9230769230769,4,1,2,75,0,1
189808,-71.4285714285714,4,1,2,75,0,1
192165,-66.6666666666667,4,1,2,75,0,0
192380,-100,4,1,2,75,0,1
193237,-71.4285714285714,4,1,2,75,0,1
194951,-76.9230769230769,4,1,2,75,0,1
197094,-71.4285714285714,4,1,2,75,0,1
199237,-100,4,1,2,75,0,1
200094,-76.9230769230769,4,1,2,75,0,1
201380,-100,4,1,2,75,0,1
202665,-83.3333333333333,4,1,2,75,0,1
205665,-66.6666666666667,4,1,2,75,0,1
206094,-200,4,2,1,50,0,0
206201,-200,4,2,1,20,0,0
206951,-200,4,2,1,5,0,0

[Colours]
Combo1 : 255,0,128
Combo2 : 128,128,255
Combo3 : 255,0,0
Combo4 : 184,31,241

[HitObjects]
153,311,12379,5,2,0:0:0:0:
160,320,14094,22,0,P|227:331|305:348,1,138,2|2,0:0|0:0,0:0:0:0:
422,218,15379,2,0,P|355:229|277:246,1,138,2|2,0:0|0:0,0:0:0:0:
214,202,16237,2,0,P|191:164|215:116,1,92,0|2,0:0|0:0,0:0:0:0:
311,250,17094,1,2,0:0:0:0:
188,361,17522,22,0,P|141:353|81:346,1,92,2|0,0:0|0:0,0:0:0:0:
29,299,18165,2,0,P|73:246|141:251,1,138,2|2,0:0|0:0,0:0:0:0:
315,72,19451,2,0,P|270:124|203:120,1,138,2|2,0:0|0:0,0:0:0:0:
363,172,20522,1,2,0:0:0:0:
276,238,20951,22,0,P|285:323|295:393,2,138,2|2|2,0:0|0:0|0:0,0:0:0:0:
154,351,22665,1,0,0:0:0:0:
85,303,22880,2,0,P|60:248|93:176,1,138,2|2,0:0|0:0,0:0:0:0:
239,112,23951,1,2,0:0:0:0:
92,33,24380,22,0,P|139:43|185:51,1,92,2|0,0:0|0:0,0:0:0:0:
239,112,25022,2,0,P|286:73|370:91,2,138,2|2|2,0:0|0:0|0:0,0:0:0:0:
320,320,26951,21,2,0:0:0:0:
384,192,27380,1,2,0:0:0:0:
384,192,27808,22,0,P|312:209|236:231,1,138,2|0,0:0|0:0,0:0:0:0:
46,84,29094,2,0,P|112:102|179:118,1,138,2|2,0:0|0:0,0:0:0:0:
234,56,29951,2,0,P|263:93|259:141,1,92,0|2,0:0|0:0,0:0:0:0:
111,206,30808,1,2,0:0:0:0:
237,313,31237,22,0,P|282:314|317:285,1,92,2|0,0:0|0:0,0:0:0:0:
398,267,31880,2,0,B|322:280|344:218|265:230,1,138,2|2,0:0|0:0,0:0:0:0:
41,324,33165,2,0,B|117:311|95:373|174:361,1,138,2|2,0:0|0:0,0:0:0:0:
317,285,34237,1,2,0:0:0:0:
238,220,34665,22,0,P|184:260|120:241,2,138,2|2|2,0:0|0:0|0:0,0:0:0:0:
334,84,36380,1,0,0:0:0:0:
400,132,36594,2,0,B|353:122|353:122|312:138|312:138|264:129,1,138,2|0,0:0|0:0,0:0:0:0:
392,238,37665,1,2,0:0:0:0:
278,358,38094,22,0,P|205:377|148:336,1,138,2|0,0:0|0:0,0:0:0:0:
90,267,38951,2,0,L|184:247,1,92,0|2,0:0|0:0,0:0:0:0:
64,384,39808,21,2,0:0:0:0:
256,263,40237,1,2,0:0:0:0:
116,174,40665,1,2,0:0:0:0:
224,96,41094,5,8,0:3:0:0:
224,96,41308,1,0,0:0:0:0:
152,49,41522,6,0,L|336:68,1,179.39999178772,12|0,0:0|0:0,0:0:0:0:
336,70,42380,2,0,P|340:99|344:129,1,59.7999972625734,8|0,0:0|0:0,0:0:0:0:
224,256,42808,2,0,P|227:226|232:196,1,59.7999972625734,8|0,0:3|0:0,0:0:0:0:
344,129,43237,21,0,0:0:0:0:
210,186,43451,1,8,3:0:0:0:
353,285,43665,1,8,3:0:0:0:
259,371,43880,21,2,0:0:0:0:
446,240,44094,2,0,P|451:271|457:300,1,59.7999972625734,8|0,0:0|0:0,0:0:0:0:
309,202,44522,21,0,0:0:0:0:
190,345,44737,1,8,3:0:0:0:
190,345,44844,1,8,3:0:0:0:
190,345,44951,2,0,P|247:298|292:305,1,119.599994525147,12|0,3:0|0:0,0:0:0:0:
372,375,45594,21,0,3:0:0:0:
302,289,45808,2,0,P|273:278|234:277,1,59.7999972625734,8|0,0:0|0:0,0:0:0:0:
39,368,46237,2,0,P|68:365|96:354,1,59.7999972625734,8|0,3:0|0:0,0:0:0:0:
165,300,46665,21,2,0:0:0:0:
235,122,46880,1,0,3:0:0:0:
300,186,47094,21,8,3:0:0:0:
142,104,47308,1,2,0:0:0:0:
278,260,47522,5,8,0:0:0:0:
289,223,47630,1,8,0:0:0:0:
300,186,47737,1,8,0:0:0:0:
312,150,47844,1,8,0:0:0:0:
327,133,47951,21,8,3:0:0:0:
323,110,48058,1,0,3:0:0:0:
320,87,48165,1,8,3:0:0:0:
317,64,48272,1,0,3:0:0:0:
304,44,48380,38,0,P|367:70|434:41,1,138.000005264282,12|0,3:0|0:0,0:0:0:0:
503,113,49022,1,0,3:0:0:0:
312,150,49237,22,0,B|258:158|258:158|235:179|235:179|180:189,1,138.000005264282,8|8,0:0|3:3,0:0:0:0:
86,140,49880,1,0,3:0:0:0:
160,32,50094,1,2,0:0:0:0:
192,192,50308,1,8,0:3:0:0:
32,64,50522,21,8,3:0:0:0:
174,112,50737,1,2,0:0:0:0:
0,288,50951,21,8,0:0:0:0:
96,160,51165,1,2,0:0:0:0:
160,352,51380,21,0,3:0:0:0:
94,256,51594,1,8,3:0:0:0:
94,256,51701,1,8,3:0:0:0:
94,256,51808,2,0,B|170:244|151:293|228:279,1,138.000005264282,12|0,3:0|0:0,0:0:0:0:
338,219,52451,21,2,0:0:0:0:
455,273,52665,2,0,P|471:241|464:200,1,69.0000026321412,8|0,0:0|0:0,0:0:0:0:
248,307,53094,2,0,P|242:339|258:371,1,69.0000026321412,8|0,3:0|0:0,0:0:0:0:
368,303,53522,21,2,0:0:0:0:
204,205,53737,1,0,3:0:0:0:
298,156,53951,21,8,3:0:0:0:
94,256,54165,1,2,0:0:0:0:
129,65,54380,5,8,0:0:0:0:
170,81,54487,1,8,0:0:0:0:
214,77,54594,1,8,0:0:0:0:
252,54,54701,1,8,0:0:0:0:
278,27,54808,21,8,3:0:0:0:
315,19,54915,1,0,3:0:0:0:
351,27,55022,1,8,3:0:0:0:
378,53,55130,1,0,3:0:0:0:
390,88,55237,38,0,P|376:168|362:247,1,156.400002983093,12|0,3:0|0:0,0:0:0:0:
272,300,55880,1,8,3:0:0:0:
512,352,56094,22,0,B|458:342|458:342|416:365|416:365|351:354,1,156.400002983093,8|8,0:0|3:0,0:0:0:0:
509,266,56737,1,0,3:0:0:0:
419,184,56951,1,2,0:0:0:0:
269,317,57165,1,0,3:0:0:0:
391,270,57380,21,8,3:0:0:0:
224,192,57594,1,2,0:0:0:0:
331,144,57808,21,8,0:0:0:0:
259,292,58022,1,0,0:0:0:0:
366,241,58237,21,2,0:0:0:0:
168,360,58451,1,8,3:0:0:0:
168,360,58558,1,8,3:0:0:0:
168,360,58665,2,0,P|136:308|161:251,1,117.30000223732,12|0,3:0|3:0,0:0:0:0:
153,258,59094,2,0,P|106:274|74:280,1,78.2000014915467,2|8,0:0|3:0,0:0:0:0:
274,134,59522,6,0,P|302:140|339:145,1,57.5,12|0,0:0|0:0,0:0:0:0:
459,216,59737,2,0,P|428:223|400:227,1,57.5,0|0,3:0|3:0,0:0:0:0:
274,295,59951,22,0,P|280:267|296:243,1,57.5,8|0,3:0|3:0,0:0:0:0:
418,138,60165,2,0,P|411:110|395:86,1,57.5,8|8,3:0|3:0,0:0:0:0:
288,32,60380,37,2,0:0:0:0:
288,32,61665,22,0,L|204:49,1,69,2|0,0:0|0:0,0:0:0:0:
98,120,62094,38,0,B|160:108|160:108|210:130|210:130|280:116,1,184,4|0,0:0|0:0,0:0:0:0:
101,246,62737,1,0,3:0:0:0:
248,350,62951,22,0,B|282:223|282:223|210:239,1,193.199994104004,8|0,0:0|0:0,0:0:0:0:
199,223,63380,2,0,L|285:202,1,64.399998034668,8|0,3:0|0:0,0:0:0:0:
337,330,63594,2,0,L|274:345,1,64.399998034668,0|0,0:2|0:0,0:0:0:0:
154,309,63808,21,2,0:2:0:0:
387,254,64022,1,0,3:2:0:0:
387,254,64130,1,0,0:2:0:0:
387,254,64237,1,8,3:0:0:0:
456,310,64451,21,2,0:2:0:0:
284,201,64665,2,0,B|345:191|345:191|388:222|388:222|456:209,1,179.39999178772,8|0,0:0|0:0,0:0:0:0:
477,204,65094,2,0,P|476:172|458:138,1,59.7999972625734,2|0,0:2|0:0,0:0:0:0:
311,57,65308,2,0,P|299:84|298:114,1,59.7999972625734,2|0,0:2|0:0,0:0:0:0:
416,64,65522,21,8,3:0:0:0:
207,151,65737,1,0,0:0:0:0:
207,151,65844,1,0,0:0:0:0:
207,151,65951,1,2,0:2:0:0:
284,201,66165,21,0,3:0:0:0:
114,52,66380,2,0,B|72:94|72:94|105:239,1,193.199994104004,8|0,0:0|0:0,0:0:0:0:
106,229,66808,22,0,L|5:215,1,64.399998034668,8|0,3:0|0:0,0:0:0:0:
203,99,67022,2,0,L|304:113,1,64.399998034668
359,202,67237,21,0,0:0:0:0:
251,23,67451,1,8,3:0:0:0:
106,229,67665,1,8,3:0:0:0:
115,225,67772,2,0,B|190:233|163:268|232:277,1,128.799996069336,8|0,3:0|0:0,0:0:0:0:
301,180,68094,22,0,P|270:182|238:199,1,64.399998034668,8|0,0:0|0:0,0:0:0:0:
52,328,68308,2,0,P|83:326|115:309,1,64.399998034668
173,247,68522,21,2,0:2:0:0:
322,375,68737,1,0,0:0:0:0:
322,375,68844,1,0,3:0:0:0:
322,375,68951,22,0,B|335:312|335:312|312:262|312:262|329:187,1,184,4|0,0:0|0:0,0:0:0:0:
475,23,69594,2,0,L|484:83,1,46,0|0,3:0|0:0,0:0:0:0:
413,171,69808,22,0,B|320:140|332:204|229:169,1,179.39999178772,8|0,0:0|0:0,0:0:0:0:
213,154,70237,1,8,3:0:0:0:
366,250,70451,1,0,0:0:0:0:
259,316,70665,21,2,0:2:0:0:
431,193,70880,1,0,3:0:0:0:
300,20,71094,2,0,B|272:59|272:59|293:118,1,92,8|2,3:0|0:2,0:0:0:0:
328,192,71415,1,0,0:0:0:0:
335,182,71522,22,0,P|247:126|162:160,1,184,8|0,0:0|0:0,0:0:0:0:
48,326,72165,1,2,0:2:0:0:
23,194,72380,22,0,B|86:213|86:213|111:254|111:254|182:276,1,179.39999178772,4|0,3:2|0:0,0:0:0:0:
194,266,72808,1,0,0:0:0:0:
413,171,73022,2,0,L|400:236,1,59.7999972625734,0|0,3:0|0:0,0:0:0:0:
300,359,73237,22,0,B|286:289|286:289|309:246|309:246|291:165,1,193.199994104004,8|0,0:0|0:0,0:0:0:0:
201,64,73665,2,0,P|211:94|208:127,1,64.399998034668,4|0,3:2|0:0,0:0:0:0:
50,263,73880,2,0,P|39:232|42:200,1,64.399998034668,2|0,0:2|0:0,0:0:0:0:
108,107,74094,21,2,3:2:0:0:
279,235,74308,1,8,3:0:0:0:
285,242,74415,2,0,B|361:250|327:290|401:300,1,128.799996069336,8|8,3:0|3:0,0:0:0:0:
473,205,74737,22,0,P|442:207|408:222,1,64.399998034668,8|0,3:0|0:0,0:0:0:0:
248,357,74951,1,8,0:0:0:0:
395,299,75165,21,8,3:0:0:0:
256,211,75380,1,0,3:0:0:0:
445,118,75594,2,0,P|411:111|375:99,1,69.0000026321412,0|0,3:2|0:0,0:0:0:0:
215,44,75808,22,0,P|293:9|364:65,1,184,4|0,0:0|0:0,0:0:0:0:
238,245,76451,1,0,3:0:0:0:
283,97,76665,22,0,B|252:145|252:145|179:163|179:163|124:128,1,193.199994104004,8|0,0:0|0:0,0:0:0:0:
159,38,77094,2,0,L|221:24,1,64.399998034668,8|0,3:0|0:0,0:0:0:0:
260,194,77308,2,0,L|198:208,1,64.399998034668
113,119,77522,21,2,0:2:0:0:
359,219,77737,1,0,3:0:0:0:
359,219,77844,1,0,0:0:0:0:
359,219,77951,1,8,3:0:0:0:
262,294,78165,21,2,0:2:0:0:
418,159,78380,2,0,B|370:256|456:237|405:347,1,179.39999178772,8|0,0:0|0:0,0:0:0:0:
382,369,78808,2,0,P|373:340|368:297,1,59.7999972625734,2|0,0:2|0:0,0:0:0:0:
488,210,79022,2,0,P|497:181|502:138,1,59.7999972625734,2|0,0:2|0:0,0:0:0:0:
416,64,79237,21,0,3:0:0:0:
207,171,79451,1,0,0:0:0:0:
207,171,79558,1,0,0:0:0:0:
207,171,79665,1,2,0:2:0:0:
293,250,79880,21,0,3:0:0:0:
132,91,80094,2,0,B|220:130|220:130|322:81,1,193.199994104004,8|0,0:0|0:0,0:0:0:0:
331,69,80522,22,0,L|317:134,1,64.399998034668,8|0,3:0|0:0,0:0:0:0:
140,17,80737,2,0,L|153:79,1,64.399998034668,0|0,0:2|0:0,0:0:0:0:
245,23,80951,21,2,0:2:0:0:
64,126,81165,1,8,3:0:0:0:
224,256,81380,1,8,3:0:0:0:
219,249,81487,2,0,P|159:213|92:233,1,128.799996069336,8|0,3:0|0:0,0:0:0:0:
39,342,81808,22,0,P|69:332|100:323,1,64.399998034668,8|0,0:0|0:0,0:0:0:0:
236,154,82022,2,0,P|205:163|174:172,1,64.399998034668
71,240,82237,21,2,0:2:0:0:
261,368,82451,1,0,0:0:0:0:
261,368,82558,1,0,3:0:0:0:
261,368,82665,22,0,B|357:401|344:327|447:361,1,184,4|0,0:0|0:0,0:0:0:0:
297,235,83308,2,0,L|217:248,1,46,0|0,3:0|0:0,0:0:0:0:
137,228,83522,22,0,L|334:197,1,179.39999178772,8|0,0:0|0:0,0:0:0:0:
332,179,83951,1,8,3:0:0:0:
197,298,84165,1,0,0:0:0:0:
316,382,84380,21,2,0:2:0:0:
122,259,84594,1,0,3:0:0:0:
328,98,84808,22,0,P|289:124|240:122,1,92,8|2,3:0|0:2,0:0:0:0:
150,42,85130,1,0,0:0:0:0:
165,28,85237,22,0,B|271:26|229:91|327:97,1,184,8|0,0:0|0:0,0:0:0:0:
512,8,85880,1,2,0:2:0:0:
347,80,86094,22,0,P|317:125|334:182,1,110.399996630859,12|0,3:0|0:0,0:0:0:0:
296,268,86415,2,0,P|348:280|392:250,1,110.399996630859,0|0,3:0|0:0,0:0:0:0:
456,147,86737,22,0,L|381:134,1,55.1999983154297,8|0,3:0|0:0,0:0:0:0:
241,206,86951,1,8,0:0:0:0:
394,341,87165,21,2,0:2:0:0:
377,330,87272,2,0,P|322:340|270:361,1,110.399996630859,8|0,3:0|0:0,0:0:0:0:
132,282,87594,2,0,P|167:292|212:299,1,55.1999983154297,8|0,3:0|0:0,0:0:0:0:
313,238,87808,5,2,0:2:0:0:
316,231,88237,1,0,0:0:0:0:
142,150,88665,21,2,0:0:0:0:
146,162,89094,1,0,0:0:0:0:
352,64,89522,21,4,0:0:0:0:
63,308,92951,53,0,3:0:0:0:
63,308,93594,1,0,3:0:0:0:
165,242,93808,2,0,L|292:261,1,128.799996069336,8|4,0:0|3:0,0:0:0:0:
477,369,94665,21,2,0:0:0:0:
387,311,94880,1,0,3:0:0:0:
387,311,95094,2,0,P|392:278|409:245,1,64.399998034668,4|0,3:0|0:0,0:0:0:0:
465,177,95522,2,0,P|409:207|341:185,1,128.799996069336,8|2,0:0|0:0,0:0:0:0:
218,77,96380,21,4,3:0:0:0:
218,77,97022,1,0,3:0:0:0:
131,135,97237,2,0,B|57:123|75:161|-2:148,1,128.799996069336,8|4,0:0|3:0,0:0:0:0:
183,239,98094,21,2,0:0:0:0:
83,289,98308,1,0,3:0:0:0:
83,289,98522,2,0,L|6:274,1,64.399998034668,4|0,3:0|0:0,0:0:0:0:
156,358,98951,2,0,L|292:334,1,128.799996069336,8|2,0:0|0:0,0:0:0:0:
296,350,99808,22,0,P|304:317|316:272,1,64.399998034668,2|0,3:2|0:0,0:0:0:0:
168,210,100237,2,0,P|176:243|188:288,1,64.399998034668,2|0,0:2|3:0,0:0:0:0:
323,155,100665,2,0,P|277:111|210:119,1,128.799996069336,8|4,0:0|3:0,0:0:0:0:
105,194,101308,21,2,0:0:0:0:
105,194,101522,2,0,L|174:211,1,64.399998034668,0|0,0:0|3:0,0:0:0:0:
233,365,101951,2,0,L|303:348,1,64.399998034668,2|0,0:0|3:0,0:0:0:0:
446,279,102380,21,8,0:0:0:0:
351,246,102594,1,0,3:0:0:0:
179,190,102808,21,8,3:0:0:0:
347,144,103022,1,0,3:0:0:0:
226,120,103237,22,0,B|208:181|208:181|224:208|224:208|208:267,1,147.2,4|2,0:0|0:0,0:0:0:0:
103,315,103880,1,0,3:0:0:0:
295,166,104094,22,0,P|334:203|325:258,1,110.4,8|0,0:0|0:0,0:0:0:0:
314,267,104522,1,8,3:0:0:0:
426,154,104737,1,2,0:0:0:0:
358,88,104951,21,0,0:0:0:0:
512,191,105165,1,8,3:0:0:0:
384,320,105380,1,8,3:0:0:0:
433,239,105594,21,2,0:0:0:0:
262,120,105808,2,0,P|304:113|349:101,1,73.6,8|0,0:0|0:0,0:0:0:0:
413,28,106237,21,2,0:0:0:0:
254,218,106451,1,8,3:0:0:0:
254,218,106558,1,8,3:0:0:0:
254,218,106665,2,0,P|189:171|115:181,1,147.2,4|2,0:0|0:0,0:0:0:0:
40,247,107308,21,0,3:0:0:0:
173,73,107522,2,0,P|197:103|203:139,1,73.6,8|0,0:0|0:0,0:0:0:0:
63,71,107951,2,0,P|69:35|93:7,1,73.6,8|0,3:0|0:0,0:0:0:0:
289,111,108380,21,2,0:0:0:0:
131,193,108594,1,8,3:0:0:0:
269,250,108808,21,8,3:0:0:0:
173,73,109022,1,2,0:0:0:0:
333,186,109237,37,8,0:0:0:0:
374,199,109344,1,8,0:0:0:0:
417,193,109451,1,8,0:0:0:0:
451,165,109558,1,8,0:0:0:0:
466,139,109665,21,8,3:0:0:0:
463,109,109772,1,0,3:0:0:0:
447,83,109880,1,8,3:0:0:0:
451,53,109987,1,0,3:0:0:0:
473,34,110094,38,0,P|426:27|382:17,1,78.2000014915467,4|0,0:0|0:0,0:0:0:0:
222,133,110522,2,0,P|258:126|300:117,1,78.2000014915467,2|0,0:0|3:0,0:0:0:0:
482,262,110951,22,0,P|431:235|369:249,1,117.30000223732,8|0,0:0|0:0,0:0:0:0:
360,262,111380,1,8,3:0:0:0:
466,139,111594,1,2,0:0:0:0:
374,100,111808,21,0,0:0:0:0:
492,230,112022,1,8,3:0:0:0:
337,341,112237,1,8,3:0:0:0:
441,384,112451,21,2,0:0:0:0:
264,281,112665,2,0,P|251:317|238:358,1,78.2000014915467,8|0,0:0|0:0,0:0:0:0:
128,320,113094,21,2,0:0:0:0:
326,205,113308,1,8,3:0:0:0:
326,205,113415,1,8,3:0:0:0:
326,205,113522,2,0,P|254:246|175:219,1,156.400002983093,4|2,0:0|0:0,0:0:0:0:
96,160,114165,21,0,3:0:0:0:
240,57,114380,2,0,P|273:63|334:73,1,78.2000014915467,8|0,0:0|0:0,0:0:0:0:
416,224,114808,2,0,P|452:217|494:210,1,78.2000014915467,8|0,3:0|0:0,0:0:0:0:
439,125,115237,21,2,0:0:0:0:
372,310,115451,1,8,3:0:0:0:
288,192,115665,21,8,3:0:0:0:
96,288,115880,1,2,0:0:0:0:
256,384,116094,37,8,0:0:0:0:
278,342,116201,1,8,0:0:0:0:
276,295,116308,1,8,0:0:0:0:
247,257,116415,1,8,0:0:0:0:
221,227,116522,21,8,3:0:0:0:
206,190,116630,1,0,3:0:0:0:
217,152,116737,1,8,3:0:0:0:
244,124,116844,1,0,3:0:0:0:
279,102,116951,38,0,P|182:117|108:127,1,165.599994946289,4|2,0:0|0:0,0:0:0:0:
33,61,117594,1,0,3:0:0:0:
178,198,117808,22,0,B|201:272|201:272|166:321,1,124.199996209717,8|0,0:0|0:0,0:0:0:0:
161,328,118237,1,8,3:0:0:0:
304,282,118451,1,2,0:0:0:0:
367,354,118665,21,0,0:0:0:0:
225,262,118880,1,8,3:0:0:0:
416,192,119094,1,8,3:0:0:0:
312,134,119308,21,2,0:0:0:0:
492,243,119522,2,0,P|511:206|503:164,1,82.7999974731446,8|0,0:0|0:0,0:0:0:0:
315,256,119951,1,2,0:0:0:0:
476,357,120165,21,8,3:0:0:0:
476,357,120272,1,8,3:0:0:0:
476,357,120380,2,0,P|420:348|370:337,1,82.7999974731446,4|0,0:0|0:0,0:0:0:0:
319,280,120701,2,0,P|263:289|213:300,1,82.7999974731446,0|0,3:0|0:0,0:0:0:0:
161,376,121022,1,8,3:0:0:0:
11,201,121237,6,0,P|38:209|78:213,1,57.5,12|0,0:0|0:0,0:0:0:0:
162,280,121451,2,0,P|189:271|218:268,1,57.5,0|0,3:0|3:0,0:0:0:0:
347,196,121665,22,0,P|358:170|362:140,1,57.5,8|0,3:0|0:0,0:0:0:0:
269,43,121880,2,0,P|240:46|214:58,1,57.5,8|8,3:0|3:0,0:0:0:0:
171,181,122094,5,2,0:0:0:0:
260,202,122522,21,2,0:0:0:0:
349,223,122951,21,2,0:0:0:0:
438,245,123380,22,0,L|445:323,1,69,2|0,0:0|0:0,0:0:0:0:
512,358,123808,38,0,B|412:327|437:391|330:359,1,184,4|0,0:0|0:0,0:0:0:0:
160,256,124451,2,0,L|235:239,1,46,0|0,3:0|0:0,0:0:0:0:
278,306,124665,22,0,B|208:279|208:279|80:309,1,193.199994104004,8|0,0:0|0:0,0:0:0:0:
60,336,125094,2,0,P|58:302|75:268,1,64.399998034668,8|0,3:0|0:0,0:0:0:0:
186,170,125308,2,0,P|217:167|247:179,1,64.399998034668
302,273,125522,21,2,0:2:0:0:
459,119,125737,1,0,3:0:0:0:
455,100,125844,1,0,0:0:0:0:
451,82,125951,1,0,3:0:0:0:
302,123,126165,21,2,0:2:0:0:
493,246,126380,2,0,B|413:219|400:284|315:253,1,179.39999178772,8|0,0:0|0:0,0:0:0:0:
322,259,126808,2,0,L|300:342,1,59.7999972625734,2|0,0:2|0:0,0:0:0:0:
190,189,127022,2,0,L|212:272,1,59.7999972625734,2|0,0:2|0:0,0:0:0:0:
136,340,127237,21,0,3:0:0:0:
359,180,127451,1,0,0:0:0:0:
342,175,127558,1,0,0:0:0:0:
324,170,127665,1,2,0:2:0:0:
205,246,127880,21,0,3:0:0:0:
414,114,128094,2,0,B|391:179|391:179|418:230|418:230|396:300,1,193.199994104004,8|0,0:0|0:0,0:0:0:0:
395,304,128522,22,0,P|426:295|470:287,1,64.399998034668,0|0,3:0|0:0,0:0:0:0:
481,135,128737,2,0,P|449:128|418:119,1,64.399998034668
305,194,128951,21,2,0:2:0:0:
475,308,129165,1,8,3:0:0:0:
279,371,129380,1,8,3:0:0:0:
266,380,129487,2,0,B|216:369|216:369|191:346|191:346|135:333,1,128.799996069336,8|0,3:0|0:0,0:0:0:0:
56,378,129808,22,0,B|43:348|43:348|55:314,1,64.399998034668,8|0,0:0|0:0,0:0:0:0:
197,199,130022,2,0,B|207:228|207:228|194:258,1,64.399998034668
76,205,130237,21,2,0:2:0:0:
299,286,130451,1,0,0:0:0:0:
299,286,130558,1,0,3:0:0:0:
299,286,130665,22,0,B|397:258|374:340|480:306,1,184,4|0,0:0|0:0,0:0:0:0:
322,150,131308,2,0,L|308:207,1,46,0|0,3:0|0:0,0:0:0:0:
412,112,131522,22,0,P|289:131|220:141,1,179.39999178772,8|0,0:0|0:0,0:0:0:0:
211,127,131951,1,0,3:0:0:0:
340,29,132165,1,0,0:0:0:0:
357,30,132272,1,0,0:0:0:0:
373,37,132380,1,2,0:2:0:0:
498,172,132594,21,0,3:0:0:0:
362,268,132808,2,0,B|342:310|342:310|363:360,1,92,8|2,3:0|0:2,0:0:0:0:
448,319,133130,1,0,0:0:0:0:
436,306,133237,22,0,B|336:283|364:347|256:322,1,184,8|0,0:0|0:0,0:0:0:0:
129,188,133880,1,2,0:2:0:0:
62,303,134094,22,0,P|120:232|202:237,1,179.39999178772,4|0,0:0|0:0,0:0:0:0:
220,255,134522,1,2,0:2:0:0:
47,164,134737,2,0,L|66:88,1,59.7999972625734,8|0,3:0|0:0,0:0:0:0:
204,55,134951,22,0,B|235:117|235:117|199:243,1,193.199994104004,8|0,0:0|0:0,0:0:0:0:
319,166,135380,2,0,P|286:170|253:188,1,64.399998034668,4|0,3:2|0:0,0:0:0:0:
111,249,135594,2,0,P|144:253|177:271,1,64.399998034668,2|0,0:2|0:0,0:0:0:0:
251,363,135808,1,2,0:2:0:0:
488,256,136022,21,8,3:0:0:0:
492,271,136130,1,8,3:0:0:0:
258,183,136344,21,8,3:0:0:0:
254,198,136452,1,8,3:0:0:0:
462,135,136665,1,8,0:0:0:0:
281,16,136880,21,0,3:0:0:0:
341,203,137094,1,8,3:0:0:0:
131,133,137308,2,0,P|165:127|197:116,1,69.0000026321412,0|0,3:0|0:0,0:0:0:0:
392,54,137522,22,0,P|326:125|356:220,1,184,4|2,3:2|0:2,0:0:0:0:
468,374,138165,2,0,P|478:351|481:320,1,46,0|0,3:0|0:0,0:0:0:0:
436,234,138380,22,0,B|336:207|356:287|250:261,1,193.199994104004,8|0,0:0|0:0,0:0:0:0:
163,201,138808,2,0,P|131:202|102:216,1,64.399998034668,8|0,3:0|0:0,0:0:0:0:
17,334,139022,2,0,P|45:348|77:350,1,64.399998034668,0|0,0:2|0:0,0:0:0:0:
232,278,139237,21,2,0:2:0:0:
33,183,139451,1,0,3:0:0:0:
26,201,139558,1,0,0:0:0:0:
25,220,139665,1,8,3:0:0:0:
199,178,139880,21,2,0:2:0:0:
28,86,140094,2,0,P|85:125|186:90,1,179.39999178772,8|0,0:0|0:0,0:0:0:0:
285,131,140522,2,0,P|295:98|287:60,1,59.7999972625734,2|0,0:2|0:0,0:0:0:0:
168,17,140737,2,0,P|158:45|161:74,1,59.7999972625734,2|0,0:2|0:0,0:0:0:0:
199,178,140951,21,4,3:0:0:0:
361,36,141165,1,0,0:0:0:0:
343,40,141272,1,0,0:0:0:0:
325,45,141380,1,2,0:2:0:0:
183,93,141594,21,0,3:0:0:0:
383,239,141808,2,0,B|296:217|296:217|236:237|249:298,1,193.199994104004,8|0,0:0|0:0,0:0:0:0:
266,326,142237,2,0,P|300:319|334:309,1,64.399998034668,0|0,3:0|0:0,0:0:0:0:
458,235,142451,2,0,P|426:228|395:219,1,64.399998034668
288,128,142665,21,2,0:2:0:0:
383,239,142880,1,8,3:0:0:0:
255,360,143094,1,8,3:0:0:0:
247,350,143201,2,0,P|187:316|123:333,1,128.799996069336,8|0,3:0|0:0,0:0:0:0:
18,380,143522,22,0,P|29:350|33:309,1,64.399998034668,8|0,0:0|0:0,0:0:0:0:
187,213,143737,2,0,P|192:245|203:276,1,64.399998034668
127,366,143951,21,2,0:2:0:0:
273,171,144165,1,0,0:0:0:0:
273,171,144272,1,0,3:0:0:0:
273,171,144380,22,0,B|206:162|206:162|163:184|163:184|85:175,1,184,4|0,0:0|0:0,0:0:0:0:
287,52,145022,2,0,L|332:60,1,46,0|0,3:0|0:0,0:0:0:0:
398,160,145237,22,0,P|343:231|381:317,1,179.39999178772,8|0,0:0|0:0,0:0:0:0:
391,327,145665,1,0,3:0:0:0:
264,273,145880,1,0,0:0:0:0:
102,359,146094,21,2,0:2:0:0:
258,177,146308,1,0,3:0:0:0:
160,64,146522,22,0,L|63:77,1,92,8|2,3:0|0:2,0:0:0:0:
0,148,146844,1,0,0:0:0:0:
12,161,146951,2,0,B|85:169|85:169|126:149|126:149|203:159,1,184,8|0,0:0|0:0,0:0:0:0:
359,308,147594,2,0,L|300:297,1,46,2|0,0:2|0:0,0:0:0:0:
214,363,147808,22,0,P|189:314|212:262,1,110.399996630859,0|0,3:0|0:0,0:0:0:0:
288,163,148130,2,0,P|238:182|191:158,1,110.399996630859,0|0,3:0|0:0,0:0:0:0:
138,76,148451,22,0,L|210:62,1,55.1999983154297,0|0,3:0|0:0,0:0:0:0:
372,32,148665,1,8,0:0:0:0:
310,250,148880,21,8,3:0:0:0:
291,260,148987,2,0,B|264:208|264:208|294:149,1,110.399996630859,8|0,3:0|0:0,0:0:0:0:
436,188,149308,22,0,P|408:193|382:200,1,55.1999983154297,0|0,3:0|0:0,0:0:0:0:
278,349,149522,2,0,P|304:342|331:336,1,55.1999983154297,2|0,0:2|0:0,0:0:0:0:
464,294,149737,21,8,3:0:0:0:
460,313,149844,1,8,3:0:0:0:
283,142,150058,21,8,3:0:0:0:
287,161,150165,1,8,3:0:0:0:
512,27,150380,22,0,P|504:60|499:90,1,55.1999983154297,8|0,0:0|0:0,0:0:0:0:
378,154,150594,2,0,P|386:187|391:217,1,55.1999983154297,8|0,3:0|0:0,0:0:0:0:
460,313,150808,21,8,3:0:0:0:
291,260,151022,1,0,3:0:0:0:
480,328,151237,5,4,0:0:0:0:
73,260,163237,21,2,0:0:0:0:
168,233,163665,21,2,0:0:0:0:
263,206,164094,21,2,0:0:0:0:
357,176,164522,21,2,0:0:0:0:
263,206,164737,1,0,3:0:0:0:
450,142,164951,22,0,L|433:227,1,82.7999974731446,12|0,0:0|0:0,0:0:0:0:
453,251,165272,2,0,L|432:334,1,82.7999974731446,0|0,3:0|0:0,0:0:0:0:
452,360,165594,1,8,3:0:0:0:
320,288,165808,21,8,0:0:0:0:
245,314,166022,1,0,3:0:0:0:
190,221,166237,21,8,0:3:0:0:
307,262,166451,1,2,0:0:0:0:
178,215,166665,1,2,3:0:0:0:
56,345,166880,21,8,3:0:0:0:
44,349,166987,1,8,3:0:0:0:
32,354,167094,2,0,L|52:273,1,82.7999974731446,8|0,0:0|3:0,0:0:0:0:
161,75,167522,21,8,0:0:0:0:
192,160,167737,2,0,P|180:115|166:61,1,92,2|8,0:3|3:0,0:0:0:0:
163,49,168272,1,0,3:0:0:0:
163,49,168380,22,0,P|204:54|252:60,1,82.7999974731446,4|0,0:0|0:0,0:0:0:0:
270,88,168701,2,0,P|311:82|359:77,1,82.7999974731446,0|0,3:0|0:0,0:0:0:0:
389,51,169022,1,8,3:0:0:0:
512,160,169237,21,8,0:0:0:0:
436,134,169451,1,0,0:0:0:0:
268,210,169665,21,2,0:0:0:0:
408,150,169880,1,2,0:0:0:0:
270,88,170094,1,2,3:2:0:0:
199,244,170308,21,0,3:0:0:0:
189,225,170415,1,0,3:3:0:0:
187,204,170522,1,8,3:0:0:0:
192,183,170630,1,8,3:0:0:0:
204,166,170737,1,2,3:2:0:0:
311,367,170951,22,0,P|269:373|230:353,1,82.7999974731446,8|0,0:0|0:0,0:0:0:0:
215,341,171272,2,0,P|189:333|164:333,1,41.3999987365723,8|2,3:0|0:0,0:0:0:0:
56,294,171487,2,0,P|76:291|96:285,1,41.3999987365723,0|8,3:0|3:0,0:0:0:0:
187,209,171701,1,8,3:0:0:0:
191,199,171808,22,0,P|183:153|175:104,1,82.7999974731446,4|0,0:0|0:0,0:0:0:0:
189,79,172130,2,0,P|143:72|97:63,1,82.7999974731446,0|0,3:0|0:0,0:0:0:0:
97,27,172451,1,8,3:0:0:0:
34,192,172665,22,0,B|87:187|87:187|128:212|128:212|199:197,1,165.599994946289,8|0,0:0|3:0,0:0:0:0:
283,287,173308,1,2,0:0:0:0:
304,123,173522,22,0,P|345:127|386:106,1,82.7999974731446,0|8,3:0|3:0,0:0:0:0:
415,89,173844,1,0,3:0:0:0:
415,89,173951,2,0,P|411:130|432:171,1,82.7999974731446,8|0,3:0|3:0,0:0:0:0:
320,352,174380,2,0,P|345:320|384:306,1,82.7999974731446,8|0,0:0|3:0,0:0:0:0:
466,363,174808,21,2,0:0:0:0:
320,192,175022,1,8,3:0:0:0:
317,212,175130,1,0,3:0:0:0:
314,232,175237,1,8,3:0:0:0:
509,103,175451,21,2,0:0:0:0:
497,85,175558,2,0,P|456:67|410:80,1,82.7999974731446,8|2,3:0|0:0,0:0:0:0:
397,87,175880,1,8,3:0:0:0:
300,252,176094,1,8,0:0:0:0:
167,102,176308,5,0,3:0:0:0:
167,102,176415,1,0,3:0:0:0:
167,102,176522,2,0,P|203:106|233:127,1,69.0000026321412,8|0,3:0|3:0,0:0:0:0:
381,205,176737,2,0,P|345:209|315:230,1,69.0000026321412,8|0,3:0|3:0,0:0:0:0:
236,321,176951,6,0,B|184:324|129:341|129:341|172:255|175:180,1,276.000010528565,2|2,0:0|0:0,0:0:0:0:
366,384,177808,22,0,B|390:349|381:298|381:298|460:368|460:368|451:325|485:283,1,276.000010528565,2|2,0:0|0:0,0:0:0:0:
236,321,178665,38,0,B|132:360|158:277|48:312,1,184,4|0,0:0|0:0,0:0:0:0:
246,168,179308,2,0,P|268:170|298:181,1,46,0|0,3:0|0:0,0:0:0:0:
378,287,179522,22,0,B|420:319|420:319|481:259|446:189,1,193.199994104004,8|0,0:0|0:0,0:0:0:0:
439,175,179951,2,0,L|367:165,1,64.399998034668,8|0,3:0|0:0,0:0:0:0:
255,245,180165,2,0,L|263:308,1,64.399998034668
355,255,180380,21,2,0:2:0:0:
150,367,180594,1,0,3:0:0:0:
136,337,180701,1,0,0:0:0:0:
141,305,180808,1,8,3:0:0:0:
283,343,181022,21,2,0:2:0:0:
94,221,181237,2,0,P|181:266|259:241,1,179.39999178772,8|0,0:0|0:0,0:0:0:0:
343,182,181665,2,0,P|373:184|408:200,1,59.7999972625734,2|0,0:2|0:0,0:0:0:0:
245,135,181880,2,0,P|233:107|232:77,1,59.7999972625734,2|0,0:2|0:0,0:0:0:0:
316,0,182094,21,0,3:0:0:0:
437,119,182308,1,0,0:0:0:0:
431,148,182415,1,0,0:0:0:0:
425,177,182522,1,2,0:2:0:0:
312,87,182737,21,0,3:0:0:0:
512,219,182951,2,0,B|429:193|409:271|319:235,1,193.199994104004,8|0,0:0|0:0,0:0:0:0:
331,242,183380,22,0,P|343:274|341:322,1,64.399998034668,8|0,3:0|0:0,0:0:0:0:
485,384,183594,2,0,P|455:372|423:370,1,64.399998034668,2|0,0:2|0:0,0:0:0:0:
254,342,183808,22,0,P|283:328|314:321,1,64.399998034668,2|0,0:2|0:0,0:0:0:0:
460,215,184022,2,0,P|428:207|399:194,1,64.399998034668,0|0,3:0|0:0,0:0:0:0:
250,147,184237,1,8,3:0:0:0:
263,153,184344,2,0,B|336:145|307:104|385:95,1,128.799996069336,8|0,3:0|0:0,0:0:0:0:
423,24,184665,22,0,P|394:11|355:12,1,64.399998034668,8|0,0:0|0:0,0:0:0:0:
337,207,184880,2,0,P|369:206|399:194,1,64.399998034668,2|0,0:2|0:0,0:0:0:0:
260,71,185094,21,2,0:2:0:0:
23,243,185308,1,0,0:0:0:0:
23,243,185415,1,0,3:0:0:0:
23,243,185522,22,0,B|91:228|91:228|121:185|121:185|187:171,1,184,4|0,0:0|0:0,0:0:0:0:
0,112,186165,2,0,L|72:122,1,46,0|0,3:0|0:0,0:0:0:0:
177,257,186380,22,0,B|208:205|208:205|180:83,1,179.39999178772,8|0,0:0|0:0,0:0:0:0:
217,7,186808,2,0,P|246:6|274:16,1,59.7999972625734,8|0,3:0|0:0,0:0:0:0:
354,129,187022,2,0,P|383:129|411:119,1,59.7999972625734
483,39,187237,21,2,0:2:0:0:
278,163,187451,1,8,3:0:0:0:
458,249,187665,2,0,P|477:292|448:350,1,92,8|2,3:0|0:2,0:0:0:0:
367,303,187987,1,0,0:0:0:0:
361,317,188094,22,0,P|281:372|197:338,1,184,8|2,0:0|0:2,0:0:0:0:
94,193,188737,2,0,L|78:246,1,46
0,299,188951,22,0,P|81:278|187:251,1,179.39999178772,4|0,0:0|0:0,0:0:0:0:
192,261,189380,2,0,L|212:197,1,59.7999972625734,2|0,0:2|0:0,0:0:0:0:
76,135,189594,2,0,L|93:192,1,59.7999972625734,0|0,3:0|0:0,0:0:0:0:
137,359,189808,21,8,0:0:0:0:
311,258,190022,1,2,0:2:0:0:
195,177,190237,21,4,3:1:0:0:
326,383,190451,1,2,0:2:0:0:
497,306,190665,1,2,0:2:0:0:
335,147,190880,21,8,3:0:0:0:
322,156,190987,2,0,P|310:206|307:239,1,64.399998034668,8|0,3:0|0:0,0:0:0:0:
163,232,191201,21,8,3:0:0:0:
151,244,191308,2,0,P|154:285|166:324,1,64.399998034668,8|0,3:0|0:0,0:0:0:0:
256,384,191522,1,8,0:0:0:0:
472,297,191737,21,0,3:0:0:0:
322,156,191951,1,8,3:0:0:0:
512,35,192165,2,0,P|477:34|446:19,1,69.0000026321412,0|0,3:0|0:0,0:0:0:0:
251,97,192380,22,0,B|341:80|328:161|427:142,1,184,4|0,3:2|0:0,0:0:0:0:
163,32,193022,2,0,L|152:86,1,46,0|0,3:0|0:0,0:0:0:0:
251,176,193237,22,0,B|188:162|188:162|131:190|131:190|108:253,1,193.199994104004,8|0,0:0|0:0,0:0:0:0:
34,173,193665,2,0,L|103:155,1,64.399998034668,8|0,3:0|0:0,0:0:0:0:
164,331,193880,2,0,L|94:352,1,64.399998034668
10,286,194094,21,2,0:2:0:0:
190,163,194308,1,0,3:0:0:0:
222,162,194415,1,0,0:0:0:0:
251,176,194522,1,8,3:0:0:0:
108,251,194737,21,2,0:2:0:0:
311,65,194951,2,0,B|205:67|247:117|147:129,1,179.39999178772,8|0,0:0|0:0,0:0:0:0:
98,24,195380,2,0,P|126:35|171:42,1,59.7999972625734,2|0,0:2|0:0,0:0:0:0:
288,150,195594,2,0,P|260:139|230:133,1,59.7999972625734,2|0,0:2|0:0,0:0:0:0:
64,192,195808,21,4,0:0:0:0:
267,291,196022,1,0,0:0:0:0:
25,384,196237,1,2,0:2:0:0:
150,291,196451,21,0,3:0:0:0:
150,291,196558,1,8,3:0:0:0:
150,291,196665,2,0,B|260:289|196:356|313:364,1,179.39999178772,8|0,0:0|0:0,0:0:0:0:
416,311,197094,22,0,P|421:282|427:213,1,64.399998034668,8|0,3:0|0:0,0:0:0:0:
292,197,197308,2,0,P|295:226|301:262,1,64.399998034668,2|0,0:2|0:0,0:0:0:0:
477,158,197522,22,0,P|448:144|403:147,1,64.399998034668,2|0,0:2|0:0,0:0:0:0:
327,39,197737,2,0,P|300:52|262:52,1,64.399998034668,2|0,3:2|0:0,0:0:0:0:
144,155,197951,1,8,3:0:0:0:
163,145,198058,2,0,B|210:157|210:157|230:179|230:179|292:196,1,128.799996069336,8|0,3:0|0:0,0:0:0:0:
425,247,198380,22,0,B|394:250|394:250|361:269,1,64.399998034668,8|0,0:0|0:0,0:0:0:0:
397,365,198594,2,0,B|428:362|428:362|461:342,1,64.399998034668,2|0,0:2|0:0,0:0:0:0:
496,187,198808,21,2,0:2:0:0:
280,334,199022,1,0,0:0:0:0:
280,334,199130,1,0,3:0:0:0:
280,334,199237,22,0,B|184:313|200:380|94:353,1,184,4|2,0:0|0:2,0:0:0:0:
0,228,199880,2,0,L|69:210,1,46,0|0,3:0|0:0,0:0:0:0:
238,230,200094,22,0,B|170:245|170:245|130:222|130:222|63:237,1,179.39999178772,8|0,0:0|0:0,0:0:0:0:
0,271,200522,2,0,L|78:249,1,59.7999972625734,8|0,3:0|0:0,0:0:0:0:
246,146,200737,2,0,L|187:159,1,59.7999972625734,0|0,0:2|0:0,0:0:0:0:
90,111,200951,21,2,0:2:0:0:
244,255,201165,1,8,3:0:0:0:
408,42,201380,22,0,B|382:80|382:80|401:128,1,92,8|2,3:0|0:2,0:0:0:0:
497,206,201701,1,0,0:0:0:0:
501,191,201808,22,0,B|419:165|408:241|319:210,1,184,8|0,0:0|0:0,0:0:0:0:
119,337,202451,2,0,P|143:327|185:323,1,46,2|0,0:2|0:0,0:0:0:0:
250,384,202665,22,0,P|276:335|261:283,1,110.399996630859,4|0,3:0|0:0,0:0:0:0:
181,227,202987,2,0,P|154:178|170:126,1,110.399996630859,0|0,3:0|0:0,0:0:0:0:
309,151,203308,22,0,P|282:157|244:166,1,55.1999983154297,0|0,3:0|0:0,0:0:0:0:
47,215,203522,1,8,0:0:0:0:
275,302,203737,21,2,0:2:0:0:
262,284,203844,2,0,P|216:256|153:272,1,110.399996630859,8|0,3:0|0:0,0:0:0:0:
190,384,204165,22,0,P|196:357|205:315,1,55.1999983154297,8|0,3:0|0:0,0:0:0:0:
352,209,204380,2,0,P|357:235|363:262,1,55.1999983154297,2|0,0:2|0:0,0:0:0:0:
255,163,204594,21,8,3:0:0:0:
260,136,204701,1,8,3:0:0:0:
476,263,204915,21,8,3:0:0:0:
481,290,205022,1,8,3:0:0:0:
470,112,205237,22,0,L|399:131,1,55.1999983154297,8|0,0:0|0:0,0:0:0:0:
309,254,205451,2,0,L|364:264,1,55.1999983154297,0|0,3:0|0:0,0:0:0:0:
273,121,205665,22,0,P|239:125|210:144,1,69.0000026321412,8|0,3:0|0:0,0:0:0:0:
84,256,205880,2,0,P|112:274|146:279,1,69.0000026321412,8|0,3:0|0:0,0:0:0:0:
237,218,206094,38,0,P|174:157|82:170,1,184,6|2,0:0|0:0,0:0:0:0:
256,192,207058,12,2,209522,0:0:0:0:
