osu file format v14

[General]
AudioFilename: audio.mp3
AudioLeadIn: 0
PreviewTime: 60390
Countdown: 0
SampleSet: Soft
StackLeniency: 0.4
Mode: 0
LetterboxInBreaks: 0
WidescreenStoryboard: 1

[Editor]
Bookmarks: 178483
DistanceSpacing: 1.06
BeatDivisor: 2
GridSize: 32
TimelineZoom: 1.6

[Metadata]
Title:Legends Never Die (ft. Against The Current)
TitleUnicode:Legends Never Die (ft. Against The Current)
Artist:League of Legends
ArtistUnicode:League of Legends
Creator:Kalibe
Version:Easy
Source:League of Legends
Tags:riot games worlds 2017 irohas mugiwarasekai akitoshi corinn
BeatmapID:1417256
BeatmapSetID:669826

[Difficulty]
HPDrainRate:2
CircleSize:3
OverallDifficulty:2
ApproachRate:3
SliderMultiplier:0.899999999999999
SliderTickRate:1

[Events]
//Background and Video events
0,0,"ez.jpg",0,0
//Break Periods
2,89532,91511
2,151437,163247
//Storyboard Layer 0 (Background)
//Storyboard Layer 1 (Fail)
//Storyboard Layer 2 (Pass)
//Storyboard Layer 3 (Foreground)
//Storyboard Sound Samples

[TimingPoints]
12380,428.571428571429,4,2,1,25,1,0
14094,-100,4,2,1,20,0,0
41522,-100,4,2,1,40,0,0
48380,-100,4,2,1,45,0,0
55237,-100,4,2,1,50,0,0
59522,-100,4,2,1,30,0,0
59737,-100,4,2,1,40,0,0
59951,-100,4,2,1,50,0,0
60165,-100,4,2,1,60,0,0
60380,-100,4,2,1,35,0,0
61665,-100,4,2,1,35,0,0
61987,-100,4,2,1,5,0,0
62094,-95.2380952380952,4,1,2,75,0,1
62951,-95.2380952380952,4,1,2,75,0,1
64665,-95.2380952380952,4,1,2,75,0,1
66380,-95.2380952380952,4,1,2,75,0,1
68951,-95.2380952380952,4,1,2,75,0,1
69808,-95.2380952380952,4,1,2,75,0,1
71094,-95.2380952380952,4,1,2,75,0,1
72380,-95.2380952380952,4,1,2,75,0,1
73237,-95.2380952380952,4,1,2,75,0,1
75594,-95.2380952380952,4,1,2,75,0,0
75808,-95.2380952380952,4,1,2,75,0,1
76665,-95.2380952380952,4,1,2,75,0,1
78380,-95.2380952380952,4,1,2,75,0,1
80094,-95.2380952380952,4,1,2,75,0,1
82665,-95.2380952380952,4,1,2,75,0,1
83522,-95.2380952380952,4,1,2,75,0,1
84808,-95.2380952380952,4,1,2,75,0,1
86094,-95.2380952380952,4,1,2,75,0,1
87808,-100,4,2,1,25,0,0
92951,-100,4,2,1,30,0,0
103237,-100,4,2,1,40,0,0
110094,-100,4,2,1,45,0,0
111272,-100,4,2,1,5,0,0
111380,-100,4,2,1,45,0,0
116951,-100,4,2,1,50,0,0
118130,-100,4,2,1,5,0,0
118237,-100,4,2,1,50,0,0
121237,-100,4,2,1,30,0,0
121451,-100,4,2,1,40,0,0
121665,-100,4,2,1,50,0,0
121880,-100,4,2,1,60,0,0
122094,-100,4,2,1,35,0,0
123380,-100,4,2,1,35,0,0
123701,-100,4,2,1,5,0,0
123808,-95.2380952380952,4,1,2,75,0,1
124665,-95.2380952380952,4,1,2,75,0,1
126380,-95.2380952380952,4,1,2,75,0,1
128094,-95.2380952380952,4,1,2,75,0,1
130665,-95.2380952380952,4,1,2,75,0,1
131522,-95.2380952380952,4,1,2,75,0,1
132808,-95.2380952380952,4,1,2,75,0,1
134094,-95.2380952380952,4,1,2,75,0,1
134951,-95.2380952380952,4,1,2,75,0,1
137308,-95.2380952380952,4,1,2,75,0,0
137522,-95.2380952380952,4,1,2,75,0,1
138380,-95.2380952380952,4,1,2,75,0,1
140094,-95.2380952380952,4,1,2,75,0,1
141808,-95.2380952380952,4,1,2,75,0,1
144380,-95.2380952380952,4,1,2,75,0,1
145237,-95.2380952380952,4,1,2,75,0,1
146522,-95.2380952380952,4,1,2,75,0,1
147808,-95.2380952380952,4,1,2,75,0,1
151237,-100,4,2,1,50,0,0
163237,-100,4,2,1,35,0,0
164951,-100,4,2,1,50,0,0
167522,-100,4,2,1,50,0,0
168380,-100,4,2,1,50,0,0
176522,-100,4,2,1,50,0,0
178665,-95.2380952380952,4,1,2,75,0,1
179522,-95.2380952380952,4,1,2,75,0,1
181237,-95.2380952380952,4,1,2,75,0,1
182951,-95.2380952380952,4,1,2,75,0,1
185522,-95.2380952380952,4,1,2,75,0,1
186380,-95.2380952380952,4,1,2,75,0,1
187665,-95.2380952380952,4,1,2,75,0,1
188951,-95.2380952380952,4,1,2,75,0,1
192165,-95.2380952380952,4,1,2,75,0,0
192380,-95.2380952380952,4,1,2,75,0,1
193237,-95.2380952380952,4,1,2,75,0,1
194951,-95.2380952380952,4,1,2,75,0,1
199237,-95.2380952380952,4,1,2,75,0,1
200094,-95.2380952380952,4,1,2,75,0,1
201380,-95.2380952380952,4,1,2,75,0,1
202665,-95.2380952380952,4,1,2,75,0,1
205665,-95.2380952380952,4,1,2,75,0,1
206094,-100,4,2,1,50,0,0
206201,-100,4,2,1,20,0,0
206951,-100,4,2,1,5,0,0

[Colours]
Combo1 : 255,0,128
Combo2 : 128,128,255
Combo3 : 255,0,0
Combo4 : 184,31,241

[HitObjects]
394,328,14094,6,0,P|458:370|527:353,2,135,2|0|2,0:0|0:0|0:0,0:0:0:0:
310,221,16022,2,0,P|244:215|191:254,1,135,2|2,0:0|0:0,0:0:0:0:
150,335,17094,1,2,0:0:0:0:
65,303,17522,22,0,B|39:226|39:226|75:168,2,135,2|2|2,0:0|0:0|0:0,0:0:0:0:
191,254,19451,2,0,B|217:177|217:177|181:119,1,135,2|2,0:0|0:0,0:0:0:0:
113,82,20522,1,2,0:0:0:0:
181,23,20951,22,0,B|234:31|234:31|254:53|254:53|317:64,2,135,2|2|2,0:0|0:0|0:0,0:0:0:0:
64,92,22880,2,0,B|117:100|117:100|137:122|137:122|200:133,1,135,2|2,0:0|0:0,0:0:0:0:
249,196,23951,1,2,0:0:0:0:
327,151,24380,22,0,P|363:228|336:285,2,135,2|2|2,0:0|0:0|0:0,0:0:0:0:
235,51,26308,2,0,P|299:65|355:30,1,135,2|2,0:0|0:0,0:0:0:0:
418,94,27380,1,2,0:0:0:0:
493,45,27808,22,0,P|519:101|499:176,2,135,2|0|2,0:0|0:0|0:0,0:0:0:0:
383,124,29737,2,0,P|366:188|393:249,1,135,2|2,0:0|0:0,0:0:0:0:
462,306,30808,1,2,0:0:0:0:
386,355,31237,22,0,P|304:346|248:340,1,135,2|2,0:0|0:0,0:0:0:0:
177,227,32522,1,2,0:0:0:0:
62,299,33165,2,0,P|22:242|49:177,1,135,2|2,0:0|0:0,0:0:0:0:
115,133,34237,1,2,0:0:0:0:
187,79,34665,22,0,P|121:88|62:57,2,135,2|2|2,0:0|0:0|0:0,0:0:0:0:
305,14,36594,2,0,P|336:73|322:146,1,135,2|0,0:0|0:0,0:0:0:0:
252,190,37665,1,2,0:0:0:0:
178,241,38094,22,0,B|276:212|254:291|350:261,1,180,2|0,0:0|0:0,0:0:0:0:
424,212,39380,1,2,0:0:0:0:
500,259,39808,2,0,P|518:217|506:172,1,89.9999999999999,2|2,0:0|0:0,0:0:0:0:
447,109,40665,2,0,B|405:127|405:127|360:115,1,89.9999999999999,2|8,0:0|0:3,0:0:0:0:
286,66,41522,22,0,B|223:58|223:58|173:81|173:81|106:72,1,180,12|8,0:0|0:0,0:0:0:0:
42,15,42808,2,0,P|13:74|44:138,2,135,8|8|8,0:3|3:0|0:3,0:0:0:0:
112,72,44522,1,0,0:0:0:0:
175,136,44951,22,0,B|208:211|141:233|171:311,1,180,12|8,3:0|0:0,0:0:0:0:
233,375,46237,1,8,3:0:0:0:
292,307,46665,2,0,P|335:293|393:287,1,89.9999999999999,2|8,0:0|3:0,0:0:0:0:
460,326,47522,2,0,P|474:283|480:225,1,89.9999999999999,8|8,0:0|3:0,0:0:0:0:
434,160,48380,22,0,P|334:201|265:163,1,180,12|8,3:0|0:0,0:0:0:0:
196,218,49665,2,0,P|179:159|224:102,2,135,8|8|8,3:3|0:3|0:0,0:0:0:0:
267,272,51380,1,0,3:0:0:0:
207,339,51808,22,0,B|142:328|142:328|92:351|92:351|20:341,1,180,12|8,3:0|0:0,0:0:0:0:
74,262,53094,1,8,3:0:0:0:
21,189,53522,2,0,P|7:147|16:91,1,89.9999999999999,2|8,0:0|3:0,0:0:0:0:
76,38,54380,2,0,P|118:52|174:43,1,89.9999999999999,8|8,0:0|3:0,0:0:0:0:
229,107,55237,22,0,B|309:78|323:144|404:102,1,180,12|8,3:0|0:0,0:0:0:0:
470,42,56522,2,0,P|497:102|468:167,2,135,8|0|8,3:0|3:0|0:0,0:0:0:0:
403,102,58237,1,2,0:0:0:0:
348,173,58665,22,0,P|357:217|365:272,2,89.9999999999999,12|2|12,3:0|0:0|0:0,0:0:0:0:
274,120,59951,1,8,3:0:0:0:
189,151,60380,1,2,0:0:0:0:
189,151,62094,38,0,P|107:108|20:139,1,188.999994232178,4|8,0:0|0:0,0:0:0:0:
45,229,63380,2,0,P|141:246|236:267,1,188.999994232178,8|8,3:0|3:0,0:0:0:0:
288,340,64665,2,0,P|332:345|385:316,1,94.4999971160888,8|2,0:0|0:2,0:0:0:0:
443,257,65522,21,8,3:0:0:0:
365,202,65951,1,2,0:2:0:0:
280,245,66380,2,0,B|258:201|258:201|274:158,2,94.4999971160888,8|8|0,0:0|3:0|0:0,0:0:0:0:
351,307,67665,1,8,3:0:0:0:
270,356,68094,2,0,P|224:340|168:344,1,94.4999971160888,8|2,0:0|0:2,0:0:0:0:
91,380,68951,22,0,P|41:292|76:215,1,188.999994232178,4|8,0:0|0:0,0:0:0:0:
151,165,70237,1,8,3:0:0:0:
221,227,70665,2,0,P|209:271|198:325,2,94.4999971160888,2|8|8,0:2|3:0|0:0,0:0:0:0:
287,159,71951,1,0,0:0:0:0:
326,244,72380,22,0,P|386:275|489:211,1,188.999994232178,4|8,3:2|0:0,0:0:0:0:
400,177,73665,2,0,P|417:87|353:23,1,188.999994232178,12|0,3:0|0:0,0:0:0:0:
280,82,74951,1,8,0:0:0:0:
216,11,75380,1,8,3:0:0:0:
142,70,75808,22,0,B|123:135|123:135|146:185|146:185|128:257,1,188.999994232178,4|8,0:0|0:0,0:0:0:0:
75,328,77094,2,0,P|127:278|239:299,1,188.999994232178,8|8,3:0|3:0,0:0:0:0:
310,354,78380,2,0,P|331:311|321:256,1,94.4999971160888,8|2,0:0|0:2,0:0:0:0:
259,199,79237,21,0,3:0:0:0:
335,143,79665,1,2,0:2:0:0:
260,84,80094,2,0,P|214:92|145:104,2,94.4999971160888,8|8|2,0:0|3:0|0:2,0:0:0:0:
334,26,81380,1,8,3:0:0:0:
419,66,81808,2,0,B|440:111|440:111|427:164,1,94.4999971160888,8|2,0:0|0:2,0:0:0:0:
362,221,82665,22,0,B|298:210|298:210|241:234|241:234|166:222,1,188.999994232178,4|8,0:0|0:0,0:0:0:0:
104,166,83951,1,8,3:0:0:0:
28,223,84380,2,0,P|12:264|29:321,1,94.4999971160888,2|8,0:2|3:0,0:0:0:0:
103,360,85237,2,0,P|148:349|191:365,1,94.4999971160888,8|0,0:0|0:0,0:0:0:0:
275,320,86094,21,12,3:0:0:0:
212,248,86522,1,0,0:0:0:0:
285,188,86951,2,0,P|332:194|396:203,1,94.4999971160888,8|0,0:0|0:0,0:0:0:0:
472,215,87808,5,2,0:2:0:0:
16,335,92951,22,0,P|105:348|183:299,1,180,0|8,3:0|0:0,0:0:0:0:
238,235,94237,1,4,3:0:0:0:
170,175,94665,2,0,L|71:196,1,89.9999999999999,2|4,0:0|3:0,0:0:0:0:
31,119,95522,2,0,L|119:100,1,89.9999999999999,8|2,0:0|0:0,0:0:0:0:
180,34,96380,22,0,P|258:75|347:45,1,180,4|8,3:0|0:0,0:0:0:0:
381,130,97665,2,0,P|457:115|531:108,2,135,4|0|8,3:0|3:0|0:0,0:0:0:0:
307,182,99380,1,2,0:0:0:0:
226,141,99808,22,0,P|282:229|249:303,1,180,4|8,3:0|0:0,0:0:0:0:
186,347,101094,2,0,B|128:340|128:340|113:321|113:321|60:315,2,135,4|0|8,3:0|3:0|0:0,0:0:0:0:
258,293,102808,1,8,3:0:0:0:
338,332,103237,22,0,P|425:348|490:281,1,180,4|8,0:0|0:0,0:0:0:0:
425,224,104522,2,0,L|270:254,2,135,8|8|8,3:0|3:0|0:0,0:0:0:0:
480,152,106237,1,2,0:0:0:0:
420,85,106665,22,0,B|339:55|326:122|245:95,1,180,4|8,0:0|0:0,0:0:0:0:
172,42,107951,1,8,3:0:0:0:
88,76,108380,2,0,B|64:115|64:115|75:158,1,89.9999999999999,2|8,0:0|3:0,0:0:0:0:
156,197,109237,2,0,B|180:236|180:236|169:279,1,89.9999999999999,8|8,0:0|3:0,0:0:0:0:
114,350,110094,22,0,P|193:310|285:305,1,180,4|8,0:0|0:0,0:0:0:0:
351,246,111380,2,0,P|419:281|479:260,2,135,8|8|8,3:0|3:0|0:0,0:0:0:0:
289,179,113094,1,2,0:0:0:0:
354,117,113522,22,0,P|243:145|177:161,1,180,4|8,0:0|0:0,0:0:0:0:
114,223,114808,1,8,3:0:0:0:
36,176,115237,2,0,P|15:136|28:89,1,89.9999999999999,2|8,0:0|3:0,0:0:0:0:
89,32,116094,2,0,L|196:42,1,89.9999999999999,8|8,0:0|3:0,0:0:0:0:
240,105,116951,22,0,P|310:156|397:122,1,180,4|8,0:0|0:0,0:0:0:0:
439,51,118237,2,0,P|379:31|321:74,2,135,8|8|8,3:0|3:0|0:0,0:0:0:0:
495,119,119951,1,2,0:0:0:0:
431,183,120380,22,0,P|387:172|327:161,2,89.9999999999999,4|0|12,0:0|0:0|0:0,0:0:0:0:
493,247,121665,1,8,3:0:0:0:
468,333,122094,1,2,0:0:0:0:
468,333,123808,38,0,B|386:307|366:378|280:343,1,188.999994232178,4|8,0:0|0:0,0:0:0:0:
207,289,125094,2,0,P|191:199|254:134,1,188.999994232178,8|0,3:0|3:0,0:0:0:0:
317,62,126380,2,0,P|348:101|347:155,1,94.4999971160888,8|2,0:0|0:2,0:0:0:0:
289,216,127237,21,0,3:0:0:0:
204,174,127665,1,2,0:2:0:0:
123,224,128094,2,0,B|103:181|103:181|116:135,2,94.4999971160888,8|0|2,0:0|3:0|0:2,0:0:0:0:
70,302,129380,1,8,3:0:0:0:
141,363,129808,2,0,P|186:352|244:344,1,94.4999971160888,8|2,0:0|0:2,0:0:0:0:
309,288,130665,22,0,P|416:339|484:301,1,188.999994232178,4|8,0:0|0:0,0:0:0:0:
507,224,131951,1,0,3:0:0:0:
433,164,132380,2,0,P|387:173|316:180,2,94.4999971160888,2|8|8,0:2|3:0|0:0,0:0:0:0:
492,90,133665,1,0,0:0:0:0:
415,33,134094,22,0,B|353:23|353:23|298:46|298:46|225:35,1,188.999994232178,4|8,0:0|0:0,0:0:0:0:
154,90,135380,2,0,P|101:165|138:263,1,188.999994232178,4|0,3:2|0:0,0:0:0:0:
184,327,136665,1,8,0:0:0:0:
103,376,137094,1,8,3:0:0:0:
47,299,137522,22,0,L|234:253,1,188.999994232178,4|8,3:2|0:0,0:0:0:0:
311,303,138808,2,0,B|372:315|428:335|428:335|456:318|465:278,1,188.999994232178,8|8,3:0|3:0,0:0:0:0:
486,188,140094,2,0,P|441:187|399:214,1,94.4999971160888,8|2,0:0|0:2,0:0:0:0:
338,285,140951,21,4,3:0:0:0:
260,230,141380,1,2,0:2:0:0:
281,138,141808,2,0,L|303:39,2,94.4999971160888,8|0|2,0:0|3:0|0:2,0:0:0:0:
203,191,143094,1,8,3:0:0:0:
125,138,143522,2,0,B|104:95|104:95|118:49,1,94.4999971160888,8|2,0:0|0:2,0:0:0:0:
206,84,144380,22,0,P|101:111|5:140,1,188.999994232178,4|8,0:0|0:0,0:0:0:0:
76,212,145665,1,0,3:0:0:0:
21,289,146094,2,0,P|64:306|118:294,1,94.4999971160888,2|8,0:2|3:0,0:0:0:0:
190,348,146951,2,0,P|233:331|287:343,1,94.4999971160888,8|0,0:0|0:0,0:0:0:0:
358,286,147808,21,0,3:0:0:0:
287,223,148237,1,0,0:0:0:0:
198,254,148665,2,0,B|178:211|178:211|197:160,1,94.4999971160888,8|0,0:0|0:0,0:0:0:0:
253,92,149522,21,2,0:2:0:0:
343,65,149951,1,0,0:0:0:0:
428,105,150380,1,8,0:0:0:0:
457,194,150808,1,8,3:0:0:0:
409,275,151237,5,4,0:0:0:0:
30,318,164951,22,0,B|96:300|145:338|145:338|177:330|200:305,1,180,12|8,0:0|0:0,0:0:0:0:
244,234,166237,1,8,0:3:0:0:
199,155,166665,2,0,P|159:133|113:135,1,89.9999999999999,2|8,3:1|0:0,0:0:0:0:
140,221,167522,2,0,P|229:203|331:187,1,180,8|4,0:0|0:0,0:0:0:0:
468,91,169237,21,8,0:0:0:0:
394,38,169665,2,0,P|350:23|297:30,2,89.9999999999999,2|2|8,0:0|3:2|0:0,0:0:0:0:
456,103,170951,1,8,0:0:0:0:
405,177,171380,1,0,0:0:0:0:
460,247,171808,22,0,P|377:215|285:233,1,180,4|8,0:0|0:0,0:0:0:0:
214,181,173094,1,0,3:0:0:0:
138,229,173522,2,0,P|121:272|130:318,1,89.9999999999999,0|8,3:0|3:0,0:0:0:0:
194,375,174380,1,8,0:0:0:0:
268,325,174808,1,2,0:0:0:0:
347,367,175237,22,0,L|448:379,2,89.9999999999999,8|0|8,3:0|0:0|0:0,0:0:0:0:
276,311,176522,1,8,3:0:0:0:
341,248,176951,22,0,P|388:253|434:230,1,89.9999999999999,2|2,0:0|0:0,0:0:0:0:
416,146,177808,2,0,P|369:141|323:164,1,89.9999999999999,2|2,0:0|0:0,0:0:0:0:
262,223,178665,6,0,P|158:258|87:213,1,188.999994232178,4|8,0:0|0:0,0:0:0:0:
29,152,179951,2,0,P|133:117|204:162,1,188.999994232178,8|8,3:0|3:0,0:0:0:0:
262,223,181237,2,0,P|305:243|354:238,1,94.4999971160888,8|2,0:0|0:2,0:0:0:0:
432,192,182094,21,0,3:0:0:0:
356,135,182522,1,2,0:2:0:0:
417,63,182951,2,0,P|464:71|526:79,2,94.4999971160888,8|8|2,0:0|3:0|0:2,0:0:0:0:
337,11,184237,1,8,3:0:0:0:
252,53,184665,2,0,B|227:95|227:95|250:150,1,94.4999971160888,8|2,0:0|0:2,0:0:0:0:
286,221,185522,22,0,P|207:173|93:206,1,188.999994232178,4|8,0:0|0:0,0:0:0:0:
43,249,186808,1,8,3:0:0:0:
69,339,187237,1,2,0:2:0:0:
149,289,187665,1,8,3:0:0:0:
217,354,188094,2,0,P|261:347|353:332,1,94.4999971160888,8|2,0:0|0:2,0:0:0:0:
396,378,188951,22,0,P|435:295|384:211,1,188.999994232178,4|8,0:0|0:0,0:0:0:0:
330,143,190237,2,0,P|249:186|167:147,1,188.999994232178,4|0,3:2|0:0,0:0:0:0:
122,64,191522,1,8,0:0:0:0:
205,18,191951,1,8,3:0:0:0:
281,77,192380,22,0,B|381:111|368:32|473:65,1,188.999994232178,4|8,3:2|0:0,0:0:0:0:
425,148,193665,2,0,P|335:179|239:160,1,188.999994232178,8|8,3:0|3:0,0:0:0:0:
168,106,194951,2,0,P|119:107|68:131,1,94.4999971160888,8|2,0:0|0:2,0:0:0:0:
24,202,195808,21,4,0:0:0:0:
109,242,196237,1,2,0:2:0:0:
85,333,196665,2,0,P|46:355|-12:343,2,94.4999971160888,8|8|2,0:0|3:0|0:2,0:0:0:0:
154,269,197951,1,8,3:0:0:0:
235,316,198380,2,0,P|245:268|250:211,1,94.4999971160888,8|2,0:0|0:2,0:0:0:0:
183,155,199237,22,0,P|283:107|367:125,1,188.999994232178,4|8,0:0|0:0,0:0:0:0:
426,183,200522,1,8,3:0:0:0:
490,252,200951,2,0,P|450:277|397:276,1,94.4999971160888,2|8,0:2|3:0,0:0:0:0:
322,326,201808,2,0,P|282:301|229:302,1,94.4999971160888,8|0,0:0|0:0,0:0:0:0:
153,346,202665,21,4,3:0:0:0:
94,271,203094,1,0,0:0:0:0:
151,195,203522,2,0,P|198:184|258:173,1,94.4999971160888,8|0,0:0|0:0,0:0:0:0:
330,211,204380,21,2,0:2:0:0:
415,249,204808,1,0,0:0:0:0:
493,195,205237,1,8,0:0:0:0:
498,100,205665,1,8,3:0:0:0:
422,43,206094,6,0,P|334:58|238:73,1,180,6|2,0:0|0:0,0:0:0:0:
256,192,207380,12,2,209522,0:0:0:0:
