osu file format v14

[General]
AudioFilename: audio.mp3
AudioLeadIn: 0
PreviewTime: -1
Countdown: 0
SampleSet: Soft
StackLeniency: 0.7
Mode: 3
LetterboxInBreaks: 0
SpecialStyle: 0
WidescreenStoryboard: 1

[Editor]
DistanceSpacing: 1
BeatDivisor: 4
GridSize: 4
TimelineZoom: 1.500003

[Metadata]
Title:Kinetic - DJ Sonas Ultimate Skin Music
TitleUnicode:Kinetic - DJ Sona’s Ultimate Skin Music
Artist:League of Legends
ArtistUnicode:League of Legends
Creator:AB_1001
Version:MAX
Source:
Tags:
BeatmapID:4584196
BeatmapSetID:2171128

[Difficulty]
HPDrainRate:8
CircleSize:4
OverallDifficulty:8
ApproachRate:5
SliderMultiplier:1.4
SliderTickRate:1

[Events]
//Background and Video events
0,0,"20161223193734rczbkjnq40328102.jpg",0,0
//Break Periods
//Storyboard Layer 0 (Background)
//Storyboard Layer 1 (Fail)
//Storyboard Layer 2 (Pass)
//Storyboard Layer 3 (Foreground)
//Storyboard Layer 4 (Overlay)
//Storyboard Sound Samples

[TimingPoints]
3168,468.75,4,2,0,100,1,0

[HitObjects]
64,192,3168,5,0,0:0:0:0:
320,192,3168,128,0,3519:0:0:0:0:
448,192,3519,1,0,0:0:0:0:
64,192,3636,1,0,0:0:0:0:
320,192,3636,128,0,3988:0:0:0:0:
192,192,3636,1,0,0:0:0:0:
448,192,3871,1,0,0:0:0:0:
64,192,4105,1,0,0:0:0:0:
320,192,4105,128,0,4457:0:0:0:0:
448,192,4339,1,0,0:0:0:0:
64,192,4574,1,0,0:0:0:0:
320,192,4574,128,0,5043:0:0:0:0:
192,192,4574,1,0,0:0:0:0:
448,192,4808,1,0,0:0:0:0:
64,192,5043,1,0,0:0:0:0:
448,192,5043,1,0,0:0:0:0:
64,192,5394,1,0,0:0:0:0:
448,192,5511,1,0,0:0:0:0:
320,192,5511,1,0,0:0:0:0:
64,192,5746,1,0,0:0:0:0:
448,192,5980,1,0,0:0:0:0:
64,192,6214,1,0,0:0:0:0:
448,192,6449,1,0,0:0:0:0:
192,192,6449,128,0,6918:0:0:0:0:
320,192,6449,1,0,0:0:0:0:
64,192,6683,1,0,0:0:0:0:
64,192,6918,1,0,0:0:0:0:
448,192,7269,1,0,0:0:0:0:
64,192,7386,1,0,0:0:0:0:
192,192,7386,1,0,0:0:0:0:
448,192,7621,1,0,0:0:0:0:
64,192,7855,1,0,0:0:0:0:
448,192,8089,1,0,0:0:0:0:
64,192,8324,1,0,0:0:0:0:
320,192,8324,128,0,8793:0:0:0:0:
192,192,8324,1,0,0:0:0:0:
448,192,8558,1,0,0:0:0:0:
448,192,8793,1,0,0:0:0:0:
64,192,9144,1,0,0:0:0:0:
448,192,9261,1,0,0:0:0:0:
320,192,9261,1,0,0:0:0:0:
64,192,9496,1,0,0:0:0:0:
448,192,9730,1,0,0:0:0:0:
64,192,9964,1,0,0:0:0:0:
448,192,10199,1,0,0:0:0:0:
192,192,10199,128,0,10668:0:0:0:0:
320,192,10199,1,0,0:0:0:0:
64,192,10433,1,0,0:0:0:0:
64,192,10668,1,0,0:0:0:0:
64,192,11019,1,0,0:0:0:0:
448,192,11136,1,0,0:0:0:0:
320,192,11136,1,0,0:0:0:0:
64,192,11371,1,0,0:0:0:0:
448,192,11605,1,0,0:0:0:0:
64,192,11839,1,0,0:0:0:0:
448,192,12074,1,0,0:0:0:0:
192,192,12074,128,0,12543:0:0:0:0:
320,192,12074,1,0,0:0:0:0:
64,192,12308,1,0,0:0:0:0:
64,192,12543,1,0,0:0:0:0:
448,192,12894,1,0,0:0:0:0:
64,192,13011,1,0,0:0:0:0:
192,192,13011,1,0,0:0:0:0:
448,192,13246,1,0,0:0:0:0:
64,192,13480,1,0,0:0:0:0:
448,192,13714,1,0,0:0:0:0:
64,192,13949,1,0,0:0:0:0:
320,192,13949,128,0,14418:0:0:0:0:
192,192,13949,1,0,0:0:0:0:
448,192,14183,1,0,0:0:0:0:
448,192,14418,1,0,0:0:0:0:
192,192,14418,1,0,0:0:0:0:
320,192,14652,1,0,0:0:0:0:
64,192,14769,1,0,0:0:0:0:
448,192,14886,1,0,0:0:0:0:
192,192,14886,1,0,0:0:0:0:
64,192,15121,1,0,0:0:0:0:
320,192,15121,1,0,0:0:0:0:
448,192,15355,1,0,0:0:0:0:
192,192,15355,1,0,0:0:0:0:
64,192,15589,1,0,0:0:0:0:
320,192,15589,1,0,0:0:0:0:
448,192,15824,1,0,0:0:0:0:
192,192,15824,128,0,16293:0:0:0:0:
320,192,15824,128,0,16293:0:0:0:0:
64,192,16058,1,0,0:0:0:0:
64,192,16293,1,0,0:0:0:0:
448,192,16293,1,0,0:0:0:0:
320,192,16527,1,0,0:0:0:0:
448,192,16644,1,0,0:0:0:0:
64,192,16761,1,0,0:0:0:0:
320,192,16761,1,0,0:0:0:0:
448,192,16996,1,0,0:0:0:0:
192,192,16996,1,0,0:0:0:0:
64,192,17230,1,0,0:0:0:0:
320,192,17230,1,0,0:0:0:0:
448,192,17464,1,0,0:0:0:0:
192,192,17464,1,0,0:0:0:0:
64,192,17699,1,0,0:0:0:0:
320,192,17699,1,0,0:0:0:0:
192,192,17816,1,0,0:0:0:0:
448,192,17933,1,0,0:0:0:0:
320,192,17933,1,0,0:0:0:0:
192,192,18050,1,0,0:0:0:0:
448,192,18168,1,0,0:0:0:0:
320,192,18168,128,0,18519:0:0:0:0:
64,192,18168,1,0,0:0:0:0:
192,192,18402,1,0,0:0:0:0:
64,192,18519,1,0,0:0:0:0:
320,192,18636,128,0,18988:0:0:0:0:
448,192,18636,1,0,0:0:0:0:
192,192,18636,1,0,0:0:0:0:
64,192,18871,1,0,0:0:0:0:
320,192,19105,128,0,19457:0:0:0:0:
448,192,19105,1,0,0:0:0:0:
192,192,19105,1,0,0:0:0:0:
192,192,19339,1,0,0:0:0:0:
448,192,19574,1,0,0:0:0:0:
192,192,19574,128,0,20043:0:0:0:0:
320,192,19574,128,0,20043:0:0:0:0:
64,192,20043,1,0,0:0:0:0:
448,192,20043,1,0,0:0:0:0:
192,192,20277,1,0,0:0:0:0:
320,192,20394,1,0,0:0:0:0:
64,192,20511,1,0,0:0:0:0:
448,192,20511,1,0,0:0:0:0:
320,192,20746,1,0,0:0:0:0:
64,192,20980,1,0,0:0:0:0:
448,192,20980,1,0,0:0:0:0:
192,192,21214,1,0,0:0:0:0:
448,192,21449,1,0,0:0:0:0:
192,192,21449,128,0,21918:0:0:0:0:
320,192,21566,1,0,0:0:0:0:
64,192,21683,1,0,0:0:0:0:
320,192,21800,1,0,0:0:0:0:
448,192,21918,1,0,0:0:0:0:
320,192,22152,1,0,0:0:0:0:
192,192,22269,1,0,0:0:0:0:
448,192,22386,1,0,0:0:0:0:
64,192,22386,1,0,0:0:0:0:
320,192,22621,1,0,0:0:0:0:
448,192,22855,1,0,0:0:0:0:
192,192,22855,1,0,0:0:0:0:
192,192,23089,1,0,0:0:0:0:
64,192,23207,1,0,0:0:0:0:
192,192,23324,128,0,23793:0:0:0:0:
320,192,23324,128,0,23793:0:0:0:0:
448,192,23324,1,0,0:0:0:0:
64,192,23793,1,0,0:0:0:0:
320,192,24027,1,0,0:0:0:0:
448,192,24144,1,0,0:0:0:0:
64,192,24261,1,0,0:0:0:0:
320,192,24261,1,0,0:0:0:0:
192,192,24378,1,0,0:0:0:0:
320,192,24496,1,0,0:0:0:0:
64,192,24730,1,0,0:0:0:0:
448,192,24730,1,0,0:0:0:0:
320,192,24847,1,0,0:0:0:0:
192,192,24964,1,0,0:0:0:0:
320,192,25082,1,0,0:0:0:0:
64,192,25199,1,0,0:0:0:0:
192,192,25199,1,0,0:0:0:0:
320,192,25316,1,0,0:0:0:0:
192,192,25433,1,0,0:0:0:0:
320,192,25550,1,0,0:0:0:0:
448,192,25668,1,0,0:0:0:0:
64,192,25668,1,0,0:0:0:0:
192,192,25902,1,0,0:0:0:0:
320,192,26019,1,0,0:0:0:0:
448,192,26136,1,0,0:0:0:0:
64,192,26136,1,0,0:0:0:0:
320,192,26253,1,0,0:0:0:0:
192,192,26371,1,0,0:0:0:0:
64,192,26488,1,0,0:0:0:0:
448,192,26605,1,0,0:0:0:0:
320,192,26605,1,0,0:0:0:0:
192,192,26839,1,0,0:0:0:0:
64,192,27074,1,0,0:0:0:0:
448,192,27074,1,0,0:0:0:0:
192,192,27132,1,0,0:0:0:0:
320,192,27191,1,0,0:0:0:0:
448,192,27250,1,0,0:0:0:0:
320,192,27308,1,0,0:0:0:0:
192,192,27367,1,0,0:0:0:0:
64,192,27425,1,0,0:0:0:0:
192,192,27484,1,0,0:0:0:0:
64,192,27543,1,0,0:0:0:0:
448,192,27543,1,0,0:0:0:0:
192,192,27777,1,0,0:0:0:0:
320,192,27894,1,0,0:0:0:0:
64,192,28011,1,0,0:0:0:0:
448,192,28011,1,0,0:0:0:0:
320,192,28128,1,0,0:0:0:0:
192,192,28246,1,0,0:0:0:0:
448,192,28363,1,0,0:0:0:0:
64,192,28480,1,0,0:0:0:0:
192,192,28480,1,0,0:0:0:0:
448,192,28714,1,0,0:0:0:0:
192,192,28832,1,0,0:0:0:0:
64,192,28949,1,0,0:0:0:0:
448,192,28949,1,0,0:0:0:0:
320,192,28949,128,0,29418:0:0:0:0:
192,192,29066,1,0,0:0:0:0:
448,192,29183,1,0,0:0:0:0:
192,192,29300,1,0,0:0:0:0:
448,192,29418,1,0,0:0:0:0:
64,192,29418,1,0,0:0:0:0:
320,192,29652,1,0,0:0:0:0:
192,192,29769,1,0,0:0:0:0:
448,192,29886,1,0,0:0:0:0:
64,192,29886,1,0,0:0:0:0:
192,192,30003,1,0,0:0:0:0:
320,192,30121,1,0,0:0:0:0:
448,192,30355,1,0,0:0:0:0:
192,192,30355,1,0,0:0:0:0:
320,192,30589,1,0,0:0:0:0:
64,192,30824,1,0,0:0:0:0:
448,192,30824,1,0,0:0:0:0:
320,192,30882,1,0,0:0:0:0:
192,192,30941,1,0,0:0:0:0:
64,192,31000,1,0,0:0:0:0:
192,192,31058,1,0,0:0:0:0:
320,192,31117,1,0,0:0:0:0:
448,192,31175,1,0,0:0:0:0:
320,192,31234,1,0,0:0:0:0:
448,192,31293,1,0,0:0:0:0:
64,192,31293,1,0,0:0:0:0:
320,192,31527,1,0,0:0:0:0:
192,192,31644,1,0,0:0:0:0:
64,192,31761,1,0,0:0:0:0:
448,192,31761,1,0,0:0:0:0:
192,192,31996,1,0,0:0:0:0:
320,192,32113,1,0,0:0:0:0:
192,192,32230,1,0,0:0:0:0:
320,192,32230,1,0,0:0:0:0:
64,192,32230,1,0,0:0:0:0:
448,192,32347,1,0,0:0:0:0:
320,192,32464,1,0,0:0:0:0:
192,192,32582,1,0,0:0:0:0:
64,192,32699,1,0,0:0:0:0:
320,192,32699,1,0,0:0:0:0:
448,192,32699,1,0,0:0:0:0:
192,192,33168,128,0,33285:0:0:0:0:
192,192,33519,128,0,33636:0:0:0:0:
320,192,33636,128,0,33753:0:0:0:0:
64,192,33871,128,0,33988:0:0:0:0:
192,192,33988,128,0,34105:0:0:0:0:
448,192,34222,128,0,34339:0:0:0:0:
320,192,34339,128,0,34457:0:0:0:0:
64,192,34574,128,0,34691:0:0:0:0:
64,192,34925,128,0,35043:0:0:0:0:
192,192,35043,128,0,35160:0:0:0:0:
448,192,35277,128,0,35394:0:0:0:0:
320,192,35394,128,0,35511:0:0:0:0:
192,192,35511,128,0,35628:0:0:0:0:
64,192,35746,128,0,35863:0:0:0:0:
448,192,35863,128,0,35980:0:0:0:0:
320,192,35980,128,0,36097:0:0:0:0:
192,192,36097,128,0,36214:0:0:0:0:
64,192,36214,128,0,36332:0:0:0:0:
192,192,36449,128,0,36566:0:0:0:0:
192,192,36800,128,0,36918:0:0:0:0:
64,192,36918,128,0,37035:0:0:0:0:
448,192,37152,128,0,37269:0:0:0:0:
192,192,37269,128,0,37386:0:0:0:0:
320,192,37386,128,0,37503:0:0:0:0:
64,192,37621,128,0,37738:0:0:0:0:
192,192,37738,128,0,37855:0:0:0:0:
448,192,37855,128,0,37972:0:0:0:0:
320,192,37972,128,0,38089:0:0:0:0:
192,192,38089,128,0,38207:0:0:0:0:
64,192,38324,128,0,38441:0:0:0:0:
320,192,38675,128,0,38793:0:0:0:0:
448,192,38793,128,0,38910:0:0:0:0:
192,192,39027,128,0,39144:0:0:0:0:
320,192,39144,128,0,39261:0:0:0:0:
64,192,39378,128,0,39496:0:0:0:0:
192,192,39496,128,0,39613:0:0:0:0:
448,192,39730,128,0,39847:0:0:0:0:
320,192,39847,128,0,39964:0:0:0:0:
448,192,40082,128,0,40199:0:0:0:0:
192,192,40199,128,0,40316:0:0:0:0:
64,192,40433,128,0,40550:0:0:0:0:
192,192,40550,128,0,40668:0:0:0:0:
448,192,40668,128,0,40785:0:0:0:0:
192,192,40902,128,0,41019:0:0:0:0:
64,192,41019,128,0,41136:0:0:0:0:
320,192,41136,128,0,41253:0:0:0:0:
448,192,41371,128,0,41488:0:0:0:0:
320,192,41488,128,0,41605:0:0:0:0:
64,192,41605,128,0,41722:0:0:0:0:
192,192,41722,128,0,41839:0:0:0:0:
320,192,41839,128,0,41957:0:0:0:0:
192,192,42074,128,0,42191:0:0:0:0:
192,192,42425,128,0,42543:0:0:0:0:
64,192,42543,128,0,42660:0:0:0:0:
320,192,42777,128,0,42894:0:0:0:0:
448,192,42894,128,0,43011:0:0:0:0:
192,192,43011,128,0,43128:0:0:0:0:
64,192,43246,128,0,43363:0:0:0:0:
192,192,43363,128,0,43480:0:0:0:0:
448,192,43480,128,0,43597:0:0:0:0:
320,192,43597,128,0,43714:0:0:0:0:
192,192,43714,128,0,43832:0:0:0:0:
448,192,43949,128,0,44066:0:0:0:0:
64,192,44300,128,0,44418:0:0:0:0:
192,192,44418,128,0,44535:0:0:0:0:
320,192,44652,128,0,44769:0:0:0:0:
192,192,44769,128,0,44886:0:0:0:0:
448,192,44886,128,0,45003:0:0:0:0:
64,192,45121,128,0,45238:0:0:0:0:
192,192,45238,128,0,45355:0:0:0:0:
320,192,45355,128,0,45472:0:0:0:0:
448,192,45472,128,0,45589:0:0:0:0:
320,192,45589,128,0,45707:0:0:0:0:
192,192,45824,128,0,45941:0:0:0:0:
64,192,46058,128,0,46175:0:0:0:0:
192,192,46175,128,0,46293:0:0:0:0:
320,192,46293,128,0,46410:0:0:0:0:
448,192,46527,128,0,46644:0:0:0:0:
320,192,46644,128,0,46761:0:0:0:0:
64,192,46878,128,0,46996:0:0:0:0:
192,192,46996,128,0,47113:0:0:0:0:
448,192,47230,128,0,47347:0:0:0:0:
320,192,47347,128,0,47464:0:0:0:0:
64,192,47582,128,0,47699:0:0:0:0:
320,192,47699,128,0,48168:0:0:0:0:
448,192,47699,1,0,0:0:0:0:
192,192,47699,128,0,47816:0:0:0:0:
448,192,48168,128,0,48636:0:0:0:0:
192,192,48168,1,0,0:0:0:0:
320,192,48402,128,0,48519:0:0:0:0:
192,192,48519,128,0,48636:0:0:0:0:
64,192,48636,128,0,49105:0:0:0:0:
320,192,48636,1,0,0:0:0:0:
320,192,48871,128,0,48988:0:0:0:0:
448,192,48988,128,0,49105:0:0:0:0:
192,192,49105,128,0,49222:0:0:0:0:
320,192,49105,1,0,0:0:0:0:
320,192,49222,128,0,49339:0:0:0:0:
448,192,49339,128,0,49457:0:0:0:0:
192,192,49574,1,0,0:0:0:0:
320,192,49574,128,0,50043:0:0:0:0:
64,192,49925,128,0,50043:0:0:0:0:
192,192,50043,128,0,50511:0:0:0:0:
448,192,50043,1,0,0:0:0:0:
448,192,50277,128,0,50394:0:0:0:0:
320,192,50394,128,0,50511:0:0:0:0:
448,192,50511,128,0,50980:0:0:0:0:
64,192,50511,1,0,0:0:0:0:
320,192,50746,128,0,50863:0:0:0:0:
192,192,50863,128,0,50980:0:0:0:0:
64,192,50980,128,0,51097:0:0:0:0:
320,192,50980,1,0,0:0:0:0:
192,192,51097,128,0,51214:0:0:0:0:
320,192,51214,128,0,51332:0:0:0:0:
192,192,51449,128,0,51918:0:0:0:0:
320,192,51449,1,0,0:0:0:0:
64,192,51800,128,0,51918:0:0:0:0:
448,192,51918,1,0,0:0:0:0:
320,192,51918,128,0,52386:0:0:0:0:
192,192,52152,128,0,52269:0:0:0:0:
64,192,52386,128,0,52855:0:0:0:0:
192,192,52386,1,0,0:0:0:0:
192,192,52621,128,0,52738:0:0:0:0:
320,192,52738,128,0,52855:0:0:0:0:
448,192,52855,128,0,52972:0:0:0:0:
192,192,52855,1,0,0:0:0:0:
320,192,52972,128,0,53089:0:0:0:0:
192,192,53089,128,0,53207:0:0:0:0:
320,192,53324,128,0,53793:0:0:0:0:
192,192,53324,1,0,0:0:0:0:
192,192,53675,128,0,53793:0:0:0:0:
448,192,53793,1,0,0:0:0:0:
64,192,53793,128,0,54261:0:0:0:0:
448,192,54027,128,0,54144:0:0:0:0:
320,192,54144,128,0,54261:0:0:0:0:
192,192,54261,1,0,0:0:0:0:
192,192,54378,128,0,54496:0:0:0:0:
320,192,54496,128,0,54613:0:0:0:0:
192,192,54730,128,0,54847:0:0:0:0:
320,192,54730,1,0,0:0:0:0:
64,192,54847,128,0,54964:0:0:0:0:
448,192,55082,128,0,55199:0:0:0:0:
320,192,55199,128,0,55316:0:0:0:0:
64,192,55199,1,0,0:0:0:0:
192,192,55199,128,0,55668:0:0:0:0:
64,192,55550,128,0,55668:0:0:0:0:
320,192,55668,128,0,56136:0:0:0:0:
448,192,55668,1,0,0:0:0:0:
448,192,55902,128,0,56019:0:0:0:0:
64,192,56136,128,0,56605:0:0:0:0:
192,192,56136,1,0,0:0:0:0:
320,192,56371,128,0,56488:0:0:0:0:
192,192,56488,128,0,56605:0:0:0:0:
448,192,56605,128,0,56722:0:0:0:0:
320,192,56605,1,0,0:0:0:0:
320,192,56722,128,0,56839:0:0:0:0:
192,192,56839,128,0,56957:0:0:0:0:
320,192,57074,128,0,57543:0:0:0:0:
192,192,57074,1,0,0:0:0:0:
448,192,57308,128,0,57425:0:0:0:0:
192,192,57425,128,0,57543:0:0:0:0:
64,192,57543,128,0,58011:0:0:0:0:
448,192,57543,1,0,0:0:0:0:
448,192,57777,128,0,57894:0:0:0:0:
320,192,57894,128,0,58011:0:0:0:0:
192,192,58011,128,0,58480:0:0:0:0:
448,192,58011,1,0,0:0:0:0:
448,192,58246,128,0,58363:0:0:0:0:
320,192,58363,128,0,58480:0:0:0:0:
64,192,58480,128,0,58597:0:0:0:0:
448,192,58480,1,0,0:0:0:0:
192,192,58597,128,0,58714:0:0:0:0:
320,192,58714,128,0,58832:0:0:0:0:
64,192,58949,128,0,59418:0:0:0:0:
192,192,58949,1,0,0:0:0:0:
320,192,59183,128,0,59300:0:0:0:0:
192,192,59300,128,0,59418:0:0:0:0:
448,192,59418,128,0,59886:0:0:0:0:
320,192,59418,1,0,0:0:0:0:
192,192,59652,128,0,59769:0:0:0:0:
320,192,59769,128,0,59886:0:0:0:0:
64,192,59886,128,0,60355:0:0:0:0:
192,192,59886,128,0,60003:0:0:0:0:
320,192,60121,128,0,60238:0:0:0:0:
192,192,60238,128,0,60355:0:0:0:0:
448,192,60355,128,0,60472:0:0:0:0:
320,192,60355,1,0,0:0:0:0:
320,192,60472,128,0,60589:0:0:0:0:
192,192,60589,128,0,60707:0:0:0:0:
192,192,60824,128,0,61293:0:0:0:0:
64,192,60824,1,0,0:0:0:0:
320,192,61175,128,0,61293:0:0:0:0:
448,192,61293,128,0,61410:0:0:0:0:
64,192,61293,128,0,62113:0:0:0:0:
320,192,61527,128,0,61644:0:0:0:0:
448,192,61644,128,0,61761:0:0:0:0:
320,192,61878,128,0,61996:0:0:0:0:
448,192,61996,128,0,62113:0:0:0:0:
448,192,62230,1,0,0:0:0:0:
64,192,62230,128,0,63050:0:0:0:0:
448,192,62464,1,0,0:0:0:0:
448,192,62699,1,0,0:0:0:0:
448,192,62933,1,0,0:0:0:0:
320,192,63168,1,0,0:0:0:0:
448,192,63168,1,0,0:0:0:0:
64,192,63168,128,0,63988:0:0:0:0:
192,192,63402,1,0,0:0:0:0:
320,192,63636,1,0,0:0:0:0:
448,192,63636,1,0,0:0:0:0:
192,192,63871,1,0,0:0:0:0:
320,192,64105,1,0,0:0:0:0:
448,192,64105,1,0,0:0:0:0:
64,192,64105,128,0,64925:0:0:0:0:
192,192,64339,1,0,0:0:0:0:
320,192,64574,1,0,0:0:0:0:
448,192,64574,1,0,0:0:0:0:
192,192,64808,1,0,0:0:0:0:
64,192,65043,128,0,65863:0:0:0:0:
320,192,65043,1,0,0:0:0:0:
448,192,65043,1,0,0:0:0:0:
192,192,65277,1,0,0:0:0:0:
320,192,65511,1,0,0:0:0:0:
448,192,65511,1,0,0:0:0:0:
192,192,65746,1,0,0:0:0:0:
320,192,65980,1,0,0:0:0:0:
448,192,65980,1,0,0:0:0:0:
64,192,65980,128,0,66800:0:0:0:0:
192,192,66214,1,0,0:0:0:0:
320,192,66449,1,0,0:0:0:0:
448,192,66449,1,0,0:0:0:0:
192,192,66683,1,0,0:0:0:0:
320,192,66918,1,0,0:0:0:0:
448,192,66918,1,0,0:0:0:0:
64,192,66918,128,0,67738:0:0:0:0:
192,192,67152,1,0,0:0:0:0:
320,192,67386,1,0,0:0:0:0:
448,192,67386,1,0,0:0:0:0:
192,192,67621,1,0,0:0:0:0:
320,192,67855,1,0,0:0:0:0:
448,192,67855,1,0,0:0:0:0:
64,192,67855,128,0,68675:0:0:0:0:
192,192,68089,1,0,0:0:0:0:
320,192,68324,1,0,0:0:0:0:
448,192,68324,1,0,0:0:0:0:
192,192,68558,1,0,0:0:0:0:
320,192,68793,1,0,0:0:0:0:
448,192,68793,1,0,0:0:0:0:
64,192,68793,128,0,69613:0:0:0:0:
192,192,69027,1,0,0:0:0:0:
320,192,69261,1,0,0:0:0:0:
448,192,69261,1,0,0:0:0:0:
192,192,69496,1,0,0:0:0:0:
320,192,69730,1,0,0:0:0:0:
448,192,69730,1,0,0:0:0:0:
64,192,69730,128,0,70550:0:0:0:0:
192,192,69964,1,0,0:0:0:0:
320,192,70199,1,0,0:0:0:0:
448,192,70199,1,0,0:0:0:0:
192,192,70433,1,0,0:0:0:0:
320,192,70668,1,0,0:0:0:0:
448,192,70668,1,0,0:0:0:0:
64,192,70668,128,0,71019:0:0:0:0:
192,192,70668,128,0,71019:0:0:0:0:
320,192,70902,1,0,0:0:0:0:
448,192,70902,1,0,0:0:0:0:
64,192,71136,128,0,71488:0:0:0:0:
192,192,71136,128,0,71488:0:0:0:0:
320,192,71136,1,0,0:0:0:0:
448,192,71136,1,0,0:0:0:0:
320,192,71371,1,0,0:0:0:0:
448,192,71371,1,0,0:0:0:0:
64,192,71605,128,0,71957:0:0:0:0:
192,192,71605,128,0,71957:0:0:0:0:
320,192,71605,1,0,0:0:0:0:
448,192,71605,1,0,0:0:0:0:
320,192,71839,1,0,0:0:0:0:
448,192,71839,1,0,0:0:0:0:
64,192,72074,128,0,72425:0:0:0:0:
192,192,72074,128,0,72425:0:0:0:0:
320,192,72074,1,0,0:0:0:0:
448,192,72074,1,0,0:0:0:0:
320,192,72308,1,0,0:0:0:0:
448,192,72308,1,0,0:0:0:0:
64,192,72543,1,0,0:0:0:0:
192,192,72543,1,0,0:0:0:0:
320,192,72543,128,0,72894:0:0:0:0:
448,192,72543,128,0,72894:0:0:0:0:
64,192,72777,1,0,0:0:0:0:
192,192,72777,1,0,0:0:0:0:
320,192,73011,128,0,73363:0:0:0:0:
448,192,73011,128,0,73363:0:0:0:0:
64,192,73011,1,0,0:0:0:0:
192,192,73011,1,0,0:0:0:0:
64,192,73246,1,0,0:0:0:0:
192,192,73246,1,0,0:0:0:0:
320,192,73480,128,0,73832:0:0:0:0:
448,192,73480,128,0,73832:0:0:0:0:
64,192,73480,1,0,0:0:0:0:
192,192,73480,1,0,0:0:0:0:
64,192,73714,1,0,0:0:0:0:
192,192,73714,1,0,0:0:0:0:
320,192,73949,128,0,74300:0:0:0:0:
448,192,73949,128,0,74300:0:0:0:0:
64,192,73949,1,0,0:0:0:0:
192,192,73949,1,0,0:0:0:0:
64,192,74183,1,0,0:0:0:0:
192,192,74183,1,0,0:0:0:0:
64,192,74418,1,0,0:0:0:0:
448,192,74418,1,0,0:0:0:0:
192,192,74418,1,0,0:0:0:0:
192,192,74535,1,0,0:0:0:0:
320,192,74535,1,0,0:0:0:0:
64,192,74652,1,0,0:0:0:0:
448,192,74652,1,0,0:0:0:0:
320,192,74652,1,0,0:0:0:0:
320,192,74769,1,0,0:0:0:0:
192,192,74769,1,0,0:0:0:0:
448,192,74886,1,0,0:0:0:0:
64,192,74886,1,0,0:0:0:0:
192,192,74886,1,0,0:0:0:0:
64,192,75003,1,0,0:0:0:0:
192,192,75003,1,0,0:0:0:0:
320,192,75003,1,0,0:0:0:0:
192,192,75121,1,0,0:0:0:0:
448,192,75121,1,0,0:0:0:0:
64,192,75238,1,0,0:0:0:0:
320,192,75238,1,0,0:0:0:0:
192,192,75355,1,0,0:0:0:0:
320,192,75355,1,0,0:0:0:0:
64,192,75472,1,0,0:0:0:0:
192,192,75472,1,0,0:0:0:0:
448,192,75472,1,0,0:0:0:0:
64,192,75589,1,0,0:0:0:0:
320,192,75589,1,0,0:0:0:0:
448,192,75589,1,0,0:0:0:0:
192,192,75707,1,0,0:0:0:0:
64,192,75707,1,0,0:0:0:0:
320,192,75824,1,0,0:0:0:0:
448,192,75824,1,0,0:0:0:0:
64,192,75941,1,0,0:0:0:0:
192,192,75941,1,0,0:0:0:0:
320,192,75941,1,0,0:0:0:0:
320,192,76058,1,0,0:0:0:0:
192,192,76058,1,0,0:0:0:0:
448,192,76058,1,0,0:0:0:0:
64,192,76175,1,0,0:0:0:0:
320,192,76175,1,0,0:0:0:0:
448,192,76175,1,0,0:0:0:0:
192,192,76293,128,0,76644:0:0:0:0:
320,192,76293,128,0,76644:0:0:0:0:
192,192,76761,128,0,77113:0:0:0:0:
320,192,76761,128,0,77113:0:0:0:0:
192,192,77230,128,0,77582:0:0:0:0:
320,192,77230,128,0,77582:0:0:0:0:
64,192,77699,128,0,78168:0:0:0:0:
448,192,77699,128,0,78168:0:0:0:0:
192,192,78168,128,0,78636:0:0:0:0:
320,192,78168,1,0,0:0:0:0:
320,192,78402,1,0,0:0:0:0:
64,192,78636,1,0,0:0:0:0:
448,192,78636,1,0,0:0:0:0:
320,192,78636,128,0,78988:0:0:0:0:
192,192,78753,1,0,0:0:0:0:
64,192,79105,1,0,0:0:0:0:
192,192,79105,1,0,0:0:0:0:
320,192,79105,128,0,79457:0:0:0:0:
448,192,79339,1,0,0:0:0:0:
192,192,79457,1,0,0:0:0:0:
64,192,79574,1,0,0:0:0:0:
192,192,79574,128,0,80043:0:0:0:0:
448,192,79574,1,0,0:0:0:0:
320,192,79808,1,0,0:0:0:0:
320,192,80043,128,0,80511:0:0:0:0:
64,192,80043,1,0,0:0:0:0:
448,192,80043,1,0,0:0:0:0:
192,192,80277,1,0,0:0:0:0:
64,192,80511,1,0,0:0:0:0:
448,192,80511,1,0,0:0:0:0:
192,192,80511,128,0,80863:0:0:0:0:
320,192,80628,1,0,0:0:0:0:
320,192,80980,1,0,0:0:0:0:
448,192,80980,1,0,0:0:0:0:
192,192,80980,128,0,81332:0:0:0:0:
64,192,81214,1,0,0:0:0:0:
320,192,81332,1,0,0:0:0:0:
64,192,81449,1,0,0:0:0:0:
320,192,81449,128,0,81918:0:0:0:0:
192,192,81449,1,0,0:0:0:0:
448,192,81566,1,0,0:0:0:0:
192,192,81683,1,0,0:0:0:0:
64,192,81800,1,0,0:0:0:0:
192,192,81918,1,0,0:0:0:0:
448,192,81918,1,0,0:0:0:0:
64,192,81918,128,0,82386:0:0:0:0:
320,192,82152,1,0,0:0:0:0:
192,192,82386,1,0,0:0:0:0:
320,192,82386,1,0,0:0:0:0:
448,192,82386,128,0,82738:0:0:0:0:
64,192,82503,1,0,0:0:0:0:
192,192,82621,1,0,0:0:0:0:
64,192,82855,1,0,0:0:0:0:
192,192,82855,1,0,0:0:0:0:
448,192,82855,128,0,83207:0:0:0:0:
192,192,83089,1,0,0:0:0:0:
320,192,83207,1,0,0:0:0:0:
320,192,83324,128,0,83793:0:0:0:0:
192,192,83324,1,0,0:0:0:0:
64,192,83324,1,0,0:0:0:0:
64,192,83558,1,0,0:0:0:0:
448,192,83793,1,0,0:0:0:0:
64,192,83793,1,0,0:0:0:0:
192,192,83793,128,0,84144:0:0:0:0:
320,192,84027,1,0,0:0:0:0:
64,192,84144,1,0,0:0:0:0:
320,192,84261,1,0,0:0:0:0:
448,192,84261,1,0,0:0:0:0:
192,192,84261,128,0,84613:0:0:0:0:
64,192,84378,1,0,0:0:0:0:
320,192,84496,1,0,0:0:0:0:
320,192,84730,1,0,0:0:0:0:
448,192,84730,1,0,0:0:0:0:
192,192,84730,128,0,85082:0:0:0:0:
320,192,84964,1,0,0:0:0:0:
448,192,85082,1,0,0:0:0:0:
448,192,85199,128,0,85668:0:0:0:0:
320,192,85199,1,0,0:0:0:0:
192,192,85199,1,0,0:0:0:0:
64,192,85316,1,0,0:0:0:0:
192,192,85433,1,0,0:0:0:0:
320,192,85550,1,0,0:0:0:0:
320,192,85668,128,0,86136:0:0:0:0:
192,192,85668,1,0,0:0:0:0:
64,192,85668,1,0,0:0:0:0:
448,192,85902,1,0,0:0:0:0:
64,192,86136,1,0,0:0:0:0:
448,192,86136,1,0,0:0:0:0:
192,192,86136,128,0,86488:0:0:0:0:
320,192,86253,1,0,0:0:0:0:
320,192,86605,1,0,0:0:0:0:
448,192,86605,1,0,0:0:0:0:
192,192,86605,128,0,86957:0:0:0:0:
448,192,86957,1,0,0:0:0:0:
64,192,87074,128,0,87543:0:0:0:0:
192,192,87074,1,0,0:0:0:0:
320,192,87074,1,0,0:0:0:0:
192,192,87308,1,0,0:0:0:0:
192,192,87543,128,0,88011:0:0:0:0:
320,192,87543,1,0,0:0:0:0:
448,192,87543,1,0,0:0:0:0:
64,192,87777,1,0,0:0:0:0:
64,192,88011,1,0,0:0:0:0:
320,192,88011,1,0,0:0:0:0:
448,192,88011,128,0,88363:0:0:0:0:
192,192,88128,1,0,0:0:0:0:
192,192,88480,1,0,0:0:0:0:
448,192,88480,128,0,88832:0:0:0:0:
320,192,88480,1,0,0:0:0:0:
192,192,88714,1,0,0:0:0:0:
64,192,88832,1,0,0:0:0:0:
64,192,88949,128,0,89418:0:0:0:0:
192,192,88949,1,0,0:0:0:0:
320,192,88949,1,0,0:0:0:0:
448,192,89066,1,0,0:0:0:0:
320,192,89183,1,0,0:0:0:0:
192,192,89300,1,0,0:0:0:0:
448,192,89418,128,0,89886:0:0:0:0:
192,192,89418,1,0,0:0:0:0:
320,192,89418,1,0,0:0:0:0:
320,192,89652,1,0,0:0:0:0:
192,192,89886,1,0,0:0:0:0:
320,192,89886,1,0,0:0:0:0:
64,192,89886,128,0,90238:0:0:0:0:
448,192,90003,1,0,0:0:0:0:
320,192,90121,1,0,0:0:0:0:
64,192,90355,128,0,90707:0:0:0:0:
192,192,90355,1,0,0:0:0:0:
320,192,90355,1,0,0:0:0:0:
320,192,90589,1,0,0:0:0:0:
192,192,90707,1,0,0:0:0:0:
192,192,90824,128,0,91293:0:0:0:0:
320,192,90824,1,0,0:0:0:0:
448,192,90824,1,0,0:0:0:0:
64,192,91058,1,0,0:0:0:0:
448,192,91293,1,0,0:0:0:0:
64,192,91293,128,0,91644:0:0:0:0:
320,192,91293,1,0,0:0:0:0:
192,192,91527,1,0,0:0:0:0:
448,192,91761,1,0,0:0:0:0:
64,192,91761,128,0,92113:0:0:0:0:
320,192,91761,1,0,0:0:0:0:
192,192,91878,1,0,0:0:0:0:
320,192,91996,1,0,0:0:0:0:
320,192,92230,1,0,0:0:0:0:
64,192,92230,128,0,92582:0:0:0:0:
448,192,92230,1,0,0:0:0:0:
192,192,92464,1,0,0:0:0:0:
192,192,92699,1,0,0:0:0:0:
192,192,92933,1,0,0:0:0:0:
64,192,93168,1,0,0:0:0:0:
320,192,93168,128,0,93636:0:0:0:0:
448,192,93519,1,0,0:0:0:0:
64,192,93636,1,0,0:0:0:0:
448,192,93871,1,0,0:0:0:0:
64,192,94105,1,0,0:0:0:0:
448,192,94339,1,0,0:0:0:0:
64,192,94574,1,0,0:0:0:0:
448,192,94808,1,0,0:0:0:0:
448,192,95043,1,0,0:0:0:0:
192,192,95043,128,0,95511:0:0:0:0:
64,192,95394,1,0,0:0:0:0:
448,192,95511,1,0,0:0:0:0:
64,192,95746,1,0,0:0:0:0:
448,192,95980,1,0,0:0:0:0:
64,192,96214,1,0,0:0:0:0:
448,192,96449,1,0,0:0:0:0:
64,192,96683,1,0,0:0:0:0:
320,192,96918,128,0,97386:0:0:0:0:
64,192,96918,1,0,0:0:0:0:
448,192,97269,1,0,0:0:0:0:
64,192,97386,1,0,0:0:0:0:
448,192,97621,1,0,0:0:0:0:
64,192,97855,1,0,0:0:0:0:
448,192,98089,1,0,0:0:0:0:
64,192,98324,1,0,0:0:0:0:
448,192,98558,1,0,0:0:0:0:
448,192,98793,1,0,0:0:0:0:
192,192,98793,128,0,99261:0:0:0:0:
64,192,99144,1,0,0:0:0:0:
448,192,99261,1,0,0:0:0:0:
64,192,99496,1,0,0:0:0:0:
448,192,99730,1,0,0:0:0:0:
64,192,99964,1,0,0:0:0:0:
448,192,100199,1,0,0:0:0:0:
64,192,100433,1,0,0:0:0:0:
320,192,100668,128,0,101136:0:0:0:0:
64,192,100668,1,0,0:0:0:0:
448,192,101019,1,0,0:0:0:0:
64,192,101136,1,0,0:0:0:0:
448,192,101371,1,0,0:0:0:0:
64,192,101605,1,0,0:0:0:0:
448,192,101839,1,0,0:0:0:0:
64,192,102074,1,0,0:0:0:0:
448,192,102308,1,0,0:0:0:0:
192,192,102543,128,0,103011:0:0:0:0:
448,192,102543,1,0,0:0:0:0:
64,192,102894,1,0,0:0:0:0:
448,192,103011,1,0,0:0:0:0:
64,192,103246,1,0,0:0:0:0:
448,192,103480,1,0,0:0:0:0:
64,192,103714,1,0,0:0:0:0:
448,192,103949,1,0,0:0:0:0:
64,192,104183,1,0,0:0:0:0:
320,192,104418,128,0,104886:0:0:0:0:
64,192,104418,1,0,0:0:0:0:
448,192,104769,1,0,0:0:0:0:
64,192,104886,1,0,0:0:0:0:
448,192,105121,1,0,0:0:0:0:
64,192,105355,1,0,0:0:0:0:
448,192,105589,1,0,0:0:0:0:
64,192,105824,1,0,0:0:0:0:
448,192,106058,1,0,0:0:0:0:
448,192,106293,1,0,0:0:0:0:
192,192,106293,128,0,106761:0:0:0:0:
64,192,106644,1,0,0:0:0:0:
448,192,106761,1,0,0:0:0:0:
64,192,106996,1,0,0:0:0:0:
448,192,107230,1,0,0:0:0:0:
64,192,107464,1,0,0:0:0:0:
448,192,107699,1,0,0:0:0:0:
64,192,107933,1,0,0:0:0:0:
448,192,108168,1,0,0:0:0:0:
64,192,108285,128,0,108519:0:0:0:0:
320,192,108285,1,0,0:0:0:0:
320,192,108402,1,0,0:0:0:0:
192,192,108519,1,0,0:0:0:0:
448,192,108636,1,0,0:0:0:0:
64,192,108636,128,0,108753:0:0:0:0:
192,192,108871,1,0,0:0:0:0:
64,192,108988,128,0,109105:0:0:0:0:
448,192,109105,1,0,0:0:0:0:
320,192,109222,1,0,0:0:0:0:
64,192,109339,128,0,109457:0:0:0:0:
320,192,109339,1,0,0:0:0:0:
192,192,109339,1,0,0:0:0:0:
448,192,109574,1,0,0:0:0:0:
64,192,109574,128,0,109691:0:0:0:0:
64,192,109808,128,0,110043:0:0:0:0:
192,192,109808,1,0,0:0:0:0:
192,192,110160,1,0,0:0:0:0:
192,192,110277,1,0,0:0:0:0:
448,192,110277,128,0,110394:0:0:0:0:
320,192,110394,1,0,0:0:0:0:
64,192,110511,1,0,0:0:0:0:
448,192,110511,128,0,110628:0:0:0:0:
448,192,110746,128,0,110863:0:0:0:0:
320,192,110746,1,0,0:0:0:0:
64,192,110980,1,0,0:0:0:0:
448,192,110980,128,0,111097:0:0:0:0:
192,192,111097,1,0,0:0:0:0:
192,192,111214,1,0,0:0:0:0:
320,192,111214,1,0,0:0:0:0:
448,192,111332,128,0,111449:0:0:0:0:
64,192,111449,1,0,0:0:0:0:
448,192,111566,128,0,111683:0:0:0:0:
320,192,111683,1,0,0:0:0:0:
448,192,111800,128,0,111918:0:0:0:0:
64,192,111918,1,0,0:0:0:0:
320,192,112035,1,0,0:0:0:0:
192,192,112152,128,0,112269:0:0:0:0:
320,192,112152,1,0,0:0:0:0:
64,192,112269,1,0,0:0:0:0:
448,192,112386,1,0,0:0:0:0:
192,192,112386,128,0,112503:0:0:0:0:
64,192,112621,1,0,0:0:0:0:
192,192,112738,128,0,112855:0:0:0:0:
448,192,112855,1,0,0:0:0:0:
320,192,112972,1,0,0:0:0:0:
192,192,113089,128,0,113207:0:0:0:0:
320,192,113089,1,0,0:0:0:0:
64,192,113089,1,0,0:0:0:0:
192,192,113324,128,0,113793:0:0:0:0:
448,192,113324,1,0,0:0:0:0:
64,192,113558,1,0,0:0:0:0:
64,192,113793,1,0,0:0:0:0:
192,192,113910,1,0,0:0:0:0:
320,192,114027,128,0,114378:0:0:0:0:
192,192,114027,1,0,0:0:0:0:
448,192,114144,1,0,0:0:0:0:
64,192,114261,1,0,0:0:0:0:
320,192,114496,128,0,114613:0:0:0:0:
448,192,114496,1,0,0:0:0:0:
320,192,114730,128,0,115082:0:0:0:0:
64,192,114730,1,0,0:0:0:0:
192,192,114847,1,0,0:0:0:0:
192,192,114964,1,0,0:0:0:0:
448,192,114964,1,0,0:0:0:0:
64,192,115199,1,0,0:0:0:0:
320,192,115316,128,0,115433:0:0:0:0:
448,192,115433,1,0,0:0:0:0:
320,192,115550,128,0,115668:0:0:0:0:
64,192,115668,1,0,0:0:0:0:
192,192,115785,1,0,0:0:0:0:
192,192,115902,1,0,0:0:0:0:
448,192,115902,128,0,116019:0:0:0:0:
320,192,116019,1,0,0:0:0:0:
64,192,116136,1,0,0:0:0:0:
448,192,116136,128,0,116253:0:0:0:0:
320,192,116371,1,0,0:0:0:0:
448,192,116488,128,0,116722:0:0:0:0:
64,192,116605,1,0,0:0:0:0:
192,192,116722,1,0,0:0:0:0:
448,192,116839,128,0,116957:0:0:0:0:
192,192,116839,1,0,0:0:0:0:
320,192,116839,1,0,0:0:0:0:
64,192,117074,1,0,0:0:0:0:
448,192,117074,128,0,117191:0:0:0:0:
448,192,117308,128,0,117543:0:0:0:0:
320,192,117308,1,0,0:0:0:0:
64,192,117543,1,0,0:0:0:0:
320,192,117660,1,0,0:0:0:0:
320,192,117777,1,0,0:0:0:0:
64,192,117777,128,0,117894:0:0:0:0:
192,192,117894,1,0,0:0:0:0:
448,192,118011,1,0,0:0:0:0:
64,192,118011,128,0,118128:0:0:0:0:
64,192,118246,128,0,118363:0:0:0:0:
192,192,118246,1,0,0:0:0:0:
64,192,118480,128,0,118597:0:0:0:0:
448,192,118480,1,0,0:0:0:0:
320,192,118597,1,0,0:0:0:0:
320,192,118714,1,0,0:0:0:0:
192,192,118714,1,0,0:0:0:0:
64,192,118832,128,0,118949:0:0:0:0:
448,192,118949,1,0,0:0:0:0:
64,192,119066,128,0,119183:0:0:0:0:
192,192,119183,1,0,0:0:0:0:
64,192,119300,128,0,119418:0:0:0:0:
448,192,119418,1,0,0:0:0:0:
320,192,119535,1,0,0:0:0:0:
192,192,119652,128,0,119769:0:0:0:0:
320,192,119652,1,0,0:0:0:0:
64,192,119769,1,0,0:0:0:0:
192,192,119886,128,0,120003:0:0:0:0:
448,192,119886,1,0,0:0:0:0:
64,192,120121,1,0,0:0:0:0:
192,192,120238,128,0,120355:0:0:0:0:
448,192,120355,1,0,0:0:0:0:
192,192,120589,128,0,120707:0:0:0:0:
64,192,120589,1,0,0:0:0:0:
192,192,120824,128,0,121293:0:0:0:0:
448,192,120824,1,0,0:0:0:0:
64,192,121058,1,0,0:0:0:0:
64,192,121293,1,0,0:0:0:0:
192,192,121410,1,0,0:0:0:0:
192,192,121527,1,0,0:0:0:0:
320,192,121527,128,0,121644:0:0:0:0:
448,192,121644,1,0,0:0:0:0:
64,192,121761,1,0,0:0:0:0:
320,192,121761,128,0,121878:0:0:0:0:
448,192,121996,1,0,0:0:0:0:
320,192,121996,128,0,122113:0:0:0:0:
64,192,122230,1,0,0:0:0:0:
320,192,122230,128,0,122582:0:0:0:0:
192,192,122347,1,0,0:0:0:0:
192,192,122464,1,0,0:0:0:0:
448,192,122464,1,0,0:0:0:0:
64,192,122699,1,0,0:0:0:0:
320,192,122699,128,0,123168:0:0:0:0:
192,192,122699,128,0,123168:0:0:0:0:
448,192,122933,1,0,0:0:0:0:
64,192,123168,128,0,123636:0:0:0:0:
320,192,123285,128,0,123402:0:0:0:0:
192,192,123402,128,0,123519:0:0:0:0:
320,192,123519,128,0,123636:0:0:0:0:
192,192,123636,128,0,123988:0:0:0:0:
448,192,123636,128,0,123753:0:0:0:0:
448,192,123871,128,0,123988:0:0:0:0:
64,192,123988,128,0,124574:0:0:0:0:
320,192,123988,128,0,124105:0:0:0:0:
192,192,124105,128,0,124222:0:0:0:0:
320,192,124222,128,0,124339:0:0:0:0:
448,192,124339,128,0,124457:0:0:0:0:
192,192,124574,128,0,125043:0:0:0:0:
448,192,124574,128,0,124691:0:0:0:0:
320,192,124691,128,0,124808:0:0:0:0:
64,192,124808,128,0,125043:0:0:0:0:
448,192,125043,128,0,126918:0:0:0:0:
320,192,125277,128,0,125394:0:0:0:0:
192,192,125394,128,0,125511:0:0:0:0:
64,192,125511,128,0,125628:0:0:0:0:
192,192,125746,128,0,125863:0:0:0:0:
320,192,125863,128,0,125980:0:0:0:0:
64,192,125980,128,0,126097:0:0:0:0:
192,192,126097,128,0,126214:0:0:0:0:
320,192,126214,128,0,126332:0:0:0:0:
192,192,126449,128,0,126566:0:0:0:0:
64,192,126566,128,0,126683:0:0:0:0:
320,192,126683,128,0,126918:0:0:0:0:
64,192,126918,128,0,128793:0:0:0:0:
192,192,127152,128,0,127269:0:0:0:0:
320,192,127269,128,0,127386:0:0:0:0:
448,192,127386,128,0,127503:0:0:0:0:
448,192,127621,128,0,127738:0:0:0:0:
320,192,127738,128,0,127855:0:0:0:0:
192,192,127855,128,0,127972:0:0:0:0:
320,192,127972,128,0,128089:0:0:0:0:
448,192,128089,128,0,128207:0:0:0:0:
320,192,128324,128,0,128441:0:0:0:0:
192,192,128441,128,0,128558:0:0:0:0:
320,192,128558,128,0,128793:0:0:0:0:
448,192,128793,128,0,130668:0:0:0:0:
192,192,128910,128,0,129027:0:0:0:0:
320,192,129027,128,0,129144:0:0:0:0:
192,192,129144,128,0,129261:0:0:0:0:
64,192,129261,128,0,129378:0:0:0:0:
64,192,129496,128,0,129613:0:0:0:0:
192,192,129613,128,0,129730:0:0:0:0:
320,192,129730,128,0,129847:0:0:0:0:
192,192,129847,128,0,129964:0:0:0:0:
64,192,129964,128,0,130082:0:0:0:0:
320,192,130199,128,0,130316:0:0:0:0:
192,192,130316,128,0,130433:0:0:0:0:
320,192,130433,128,0,130668:0:0:0:0:
64,192,130668,128,0,132543:0:0:0:0:
448,192,130902,128,0,131019:0:0:0:0:
320,192,131019,128,0,131136:0:0:0:0:
192,192,131136,128,0,131253:0:0:0:0:
320,192,131371,128,0,131488:0:0:0:0:
192,192,131488,128,0,131605:0:0:0:0:
448,192,131605,128,0,131722:0:0:0:0:
320,192,131722,128,0,131839:0:0:0:0:
192,192,131839,128,0,131957:0:0:0:0:
320,192,132074,128,0,132191:0:0:0:0:
448,192,132191,128,0,132308:0:0:0:0:
320,192,132308,128,0,132543:0:0:0:0:
448,192,132543,128,0,134418:0:0:0:0:
192,192,132660,128,0,132777:0:0:0:0:
320,192,132777,128,0,132894:0:0:0:0:
192,192,132894,128,0,133011:0:0:0:0:
64,192,133011,128,0,133128:0:0:0:0:
192,192,133246,128,0,133363:0:0:0:0:
320,192,133363,128,0,133480:0:0:0:0:
64,192,133480,128,0,133597:0:0:0:0:
192,192,133597,128,0,133714:0:0:0:0:
320,192,133714,128,0,133832:0:0:0:0:
64,192,133949,128,0,134066:0:0:0:0:
192,192,134066,128,0,134183:0:0:0:0:
320,192,134183,128,0,134418:0:0:0:0:
64,192,134418,128,0,136293:0:0:0:0:
448,192,134652,128,0,134769:0:0:0:0:
320,192,134769,128,0,134886:0:0:0:0:
192,192,134886,128,0,135003:0:0:0:0:
448,192,135121,128,0,135238:0:0:0:0:
320,192,135238,128,0,135355:0:0:0:0:
192,192,135355,128,0,135472:0:0:0:0:
320,192,135472,128,0,135589:0:0:0:0:
448,192,135589,128,0,135707:0:0:0:0:
320,192,135824,128,0,135941:0:0:0:0:
192,192,135941,128,0,136058:0:0:0:0:
320,192,136058,128,0,136293:0:0:0:0:
448,192,136293,128,0,137582:0:0:0:0:
192,192,136410,128,0,136527:0:0:0:0:
64,192,136527,128,0,136644:0:0:0:0:
192,192,136644,128,0,136761:0:0:0:0:
320,192,136761,128,0,136878:0:0:0:0:
320,192,136996,128,0,137113:0:0:0:0:
192,192,137113,128,0,137230:0:0:0:0:
64,192,137230,128,0,137347:0:0:0:0:
192,192,137347,128,0,137464:0:0:0:0:
320,192,137464,128,0,137582:0:0:0:0:
64,192,137699,128,0,138050:0:0:0:0:
192,192,137699,128,0,137816:0:0:0:0:
448,192,137699,128,0,138050:0:0:0:0:
320,192,137816,128,0,137933:0:0:0:0:
192,192,137933,128,0,138168:0:0:0:0:
64,192,138168,128,0,138519:0:0:0:0:
320,192,138168,128,0,138519:0:0:0:0:
448,192,138402,128,0,138519:0:0:0:0:
192,192,138519,128,0,138636:0:0:0:0:
64,192,138636,128,0,140043:0:0:0:0:
448,192,138636,128,0,138753:0:0:0:0:
320,192,138636,128,0,140043:0:0:0:0:
192,192,138871,128,0,138988:0:0:0:0:
448,192,139105,128,0,139222:0:0:0:0:
192,192,139222,128,0,139339:0:0:0:0:
448,192,139339,128,0,139457:0:0:0:0:
192,192,139574,128,0,139691:0:0:0:0:
448,192,139691,128,0,139808:0:0:0:0:
192,192,139808,128,0,140043:0:0:0:0:
448,192,140043,128,0,141918:0:0:0:0:
320,192,140277,128,0,140394:0:0:0:0:
192,192,140394,128,0,140511:0:0:0:0:
64,192,140511,128,0,140628:0:0:0:0:
192,192,140746,128,0,140863:0:0:0:0:
64,192,140980,128,0,141097:0:0:0:0:
192,192,141097,128,0,141214:0:0:0:0:
320,192,141214,128,0,141332:0:0:0:0:
192,192,141449,128,0,141566:0:0:0:0:
320,192,141566,128,0,141683:0:0:0:0:
192,192,141683,128,0,141918:0:0:0:0:
64,192,141918,128,0,143793:0:0:0:0:
320,192,142152,128,0,142269:0:0:0:0:
448,192,142269,128,0,142386:0:0:0:0:
192,192,142269,1,0,0:0:0:0:
320,192,142386,128,0,142503:0:0:0:0:
320,192,142621,128,0,142738:0:0:0:0:
192,192,142621,1,0,0:0:0:0:
448,192,142855,128,0,142972:0:0:0:0:
192,192,142855,1,0,0:0:0:0:
320,192,142972,128,0,143089:0:0:0:0:
448,192,143089,128,0,143207:0:0:0:0:
192,192,143089,1,0,0:0:0:0:
320,192,143324,128,0,143441:0:0:0:0:
192,192,143324,1,0,0:0:0:0:
448,192,143441,128,0,143558:0:0:0:0:
320,192,143558,128,0,143793:0:0:0:0:
192,192,143558,1,0,0:0:0:0:
448,192,143793,128,0,145668:0:0:0:0:
192,192,143793,1,0,0:0:0:0:
64,192,143910,128,0,144027:0:0:0:0:
192,192,144027,128,0,144144:0:0:0:0:
64,192,144144,128,0,144261:0:0:0:0:
320,192,144144,1,0,0:0:0:0:
192,192,144261,128,0,144378:0:0:0:0:
192,192,144496,128,0,144613:0:0:0:0:
320,192,144496,1,0,0:0:0:0:
64,192,144730,128,0,144847:0:0:0:0:
320,192,144730,1,0,0:0:0:0:
192,192,144847,128,0,144964:0:0:0:0:
64,192,144964,128,0,145082:0:0:0:0:
320,192,144964,1,0,0:0:0:0:
192,192,145199,128,0,145316:0:0:0:0:
320,192,145199,1,0,0:0:0:0:
64,192,145316,128,0,145433:0:0:0:0:
192,192,145433,128,0,145668:0:0:0:0:
320,192,145433,1,0,0:0:0:0:
320,192,145668,1,0,0:0:0:0:
64,192,145668,128,0,147543:0:0:0:0:
448,192,145902,128,0,146019:0:0:0:0:
192,192,146019,1,0,0:0:0:0:
320,192,146019,128,0,146136:0:0:0:0:
448,192,146136,128,0,146253:0:0:0:0:
192,192,146371,1,0,0:0:0:0:
448,192,146371,128,0,146488:0:0:0:0:
192,192,146605,1,0,0:0:0:0:
320,192,146605,128,0,146722:0:0:0:0:
448,192,146722,128,0,146839:0:0:0:0:
192,192,146839,1,0,0:0:0:0:
320,192,146839,128,0,146957:0:0:0:0:
320,192,147074,1,0,0:0:0:0:
448,192,147074,1,0,0:0:0:0:
192,192,147074,128,0,147543:0:0:0:0:
448,192,147191,128,0,147308:0:0:0:0:
320,192,147308,128,0,147543:0:0:0:0:
448,192,147543,128,0,149418:0:0:0:0:
64,192,147777,128,0,147894:0:0:0:0:
192,192,147894,128,0,148011:0:0:0:0:
320,192,147894,1,0,0:0:0:0:
64,192,148011,128,0,148128:0:0:0:0:
320,192,148246,1,0,0:0:0:0:
192,192,148246,128,0,148363:0:0:0:0:
320,192,148480,1,0,0:0:0:0:
192,192,148480,128,0,148597:0:0:0:0:
64,192,148597,128,0,148714:0:0:0:0:
320,192,148714,1,0,0:0:0:0:
192,192,148714,128,0,148832:0:0:0:0:
320,192,148949,1,0,0:0:0:0:
192,192,148949,128,0,149066:0:0:0:0:
64,192,149066,128,0,149183:0:0:0:0:
320,192,149183,1,0,0:0:0:0:
192,192,149183,128,0,149418:0:0:0:0:
64,192,149418,128,0,151293:0:0:0:0:
320,192,149418,1,0,0:0:0:0:
448,192,149652,128,0,149769:0:0:0:0:
192,192,149769,1,0,0:0:0:0:
320,192,149769,128,0,149886:0:0:0:0:
448,192,149886,128,0,150003:0:0:0:0:
192,192,150121,1,0,0:0:0:0:
448,192,150121,128,0,150238:0:0:0:0:
192,192,150355,1,0,0:0:0:0:
320,192,150355,128,0,150472:0:0:0:0:
448,192,150472,128,0,150589:0:0:0:0:
192,192,150589,1,0,0:0:0:0:
320,192,150589,128,0,150707:0:0:0:0:
192,192,150824,1,0,0:0:0:0:
320,192,150824,128,0,150941:0:0:0:0:
448,192,150824,1,0,0:0:0:0:
448,192,150941,128,0,151058:0:0:0:0:
192,192,151058,1,0,0:0:0:0:
320,192,151058,128,0,151293:0:0:0:0:
448,192,151293,128,0,153168:0:0:0:0:
192,192,151293,1,0,0:0:0:0:
192,192,151527,128,0,151644:0:0:0:0:
320,192,151644,1,0,0:0:0:0:
64,192,151644,128,0,151761:0:0:0:0:
192,192,151761,128,0,151878:0:0:0:0:
320,192,151996,1,0,0:0:0:0:
192,192,151996,128,0,152113:0:0:0:0:
320,192,152230,1,0,0:0:0:0:
64,192,152230,128,0,152347:0:0:0:0:
192,192,152347,128,0,152464:0:0:0:0:
320,192,152464,1,0,0:0:0:0:
64,192,152464,128,0,152582:0:0:0:0:
320,192,152699,1,0,0:0:0:0:
64,192,152699,128,0,153050:0:0:0:0:
192,192,152699,128,0,153050:0:0:0:0:
320,192,152933,1,0,0:0:0:0:
320,192,153168,1,0,0:0:0:0:
64,192,153168,128,0,153519:0:0:0:0:
192,192,153168,128,0,153519:0:0:0:0:
448,192,153402,1,0,0:0:0:0:
320,192,153636,1,0,0:0:0:0:
448,192,153636,1,0,0:0:0:0:
64,192,153636,128,0,155043:0:0:0:0:
192,192,153636,128,0,155043:0:0:0:0:
448,192,153753,1,0,0:0:0:0:
320,192,154105,1,0,0:0:0:0:
448,192,154105,1,0,0:0:0:0:
448,192,154339,1,0,0:0:0:0:
320,192,154457,1,0,0:0:0:0:
320,192,154574,1,0,0:0:0:0:
448,192,154574,1,0,0:0:0:0:
320,192,154808,1,0,0:0:0:0:
448,192,155043,128,0,156918:0:0:0:0:
320,192,155043,1,0,0:0:0:0:
192,192,155277,1,0,0:0:0:0:
320,192,155394,1,0,0:0:0:0:
64,192,155511,1,0,0:0:0:0:
192,192,155511,1,0,0:0:0:0:
320,192,155628,1,0,0:0:0:0:
192,192,155746,1,0,0:0:0:0:
64,192,155980,1,0,0:0:0:0:
192,192,155980,1,0,0:0:0:0:
192,192,156214,1,0,0:0:0:0:
320,192,156332,1,0,0:0:0:0:
64,192,156449,1,0,0:0:0:0:
192,192,156449,1,0,0:0:0:0:
320,192,156566,1,0,0:0:0:0:
192,192,156683,1,0,0:0:0:0:
64,192,156800,1,0,0:0:0:0:
64,192,156918,128,0,158793:0:0:0:0:
192,192,156918,1,0,0:0:0:0:
320,192,156918,1,0,0:0:0:0:
320,192,157152,1,0,0:0:0:0:
192,192,157269,1,0,0:0:0:0:
320,192,157386,1,0,0:0:0:0:
448,192,157386,1,0,0:0:0:0:
192,192,157503,1,0,0:0:0:0:
320,192,157621,1,0,0:0:0:0:
320,192,157855,1,0,0:0:0:0:
448,192,157855,1,0,0:0:0:0:
320,192,158089,1,0,0:0:0:0:
192,192,158207,1,0,0:0:0:0:
448,192,158324,1,0,0:0:0:0:
320,192,158324,1,0,0:0:0:0:
192,192,158324,128,0,158793:0:0:0:0:
320,192,158558,1,0,0:0:0:0:
320,192,158793,128,0,159261:0:0:0:0:
448,192,158793,1,0,0:0:0:0:
192,192,159027,1,0,0:0:0:0:
448,192,159144,1,0,0:0:0:0:
448,192,159261,128,0,160668:0:0:0:0:
192,192,159261,1,0,0:0:0:0:
64,192,159261,1,0,0:0:0:0:
320,192,159378,1,0,0:0:0:0:
192,192,159496,1,0,0:0:0:0:
64,192,159730,1,0,0:0:0:0:
192,192,159730,1,0,0:0:0:0:
192,192,159964,1,0,0:0:0:0:
64,192,160082,1,0,0:0:0:0:
64,192,160199,128,0,160550:0:0:0:0:
192,192,160199,128,0,160550:0:0:0:0:
320,192,160199,1,0,0:0:0:0:
320,192,160316,1,0,0:0:0:0:
320,192,160433,1,0,0:0:0:0:
320,192,160550,1,0,0:0:0:0:
64,192,160668,128,0,161019:0:0:0:0:
192,192,160668,128,0,161019:0:0:0:0:
320,192,160902,1,0,0:0:0:0:
448,192,160902,1,0,0:0:0:0:
64,192,161136,128,0,162543:0:0:0:0:
192,192,161136,128,0,162543:0:0:0:0:
320,192,161136,1,0,0:0:0:0:
448,192,161136,1,0,0:0:0:0:
320,192,161371,1,0,0:0:0:0:
448,192,161371,1,0,0:0:0:0:
320,192,161605,1,0,0:0:0:0:
448,192,161605,1,0,0:0:0:0:
320,192,161839,1,0,0:0:0:0:
448,192,161839,1,0,0:0:0:0:
320,192,162074,1,0,0:0:0:0:
448,192,162074,1,0,0:0:0:0:
320,192,162308,1,0,0:0:0:0:
448,192,162308,1,0,0:0:0:0:
320,192,162543,128,0,162894:0:0:0:0:
448,192,162543,128,0,162894:0:0:0:0:
64,192,162777,1,0,0:0:0:0:
192,192,162777,1,0,0:0:0:0:
320,192,163011,128,0,163363:0:0:0:0:
448,192,163011,128,0,163363:0:0:0:0:
64,192,163011,1,0,0:0:0:0:
192,192,163011,1,0,0:0:0:0:
64,192,163246,1,0,0:0:0:0:
192,192,163246,1,0,0:0:0:0:
320,192,163480,128,0,163832:0:0:0:0:
448,192,163480,128,0,163832:0:0:0:0:
64,192,163480,1,0,0:0:0:0:
192,192,163480,1,0,0:0:0:0:
64,192,163714,1,0,0:0:0:0:
192,192,163714,1,0,0:0:0:0:
320,192,163949,128,0,164300:0:0:0:0:
448,192,163949,128,0,164300:0:0:0:0:
64,192,163949,1,0,0:0:0:0:
192,192,163949,1,0,0:0:0:0:
64,192,164183,1,0,0:0:0:0:
192,192,164183,1,0,0:0:0:0:
64,192,164418,1,0,0:0:0:0:
448,192,164418,1,0,0:0:0:0:
320,192,164418,1,0,0:0:0:0:
192,192,164535,1,0,0:0:0:0:
448,192,164535,1,0,0:0:0:0:
64,192,164652,1,0,0:0:0:0:
320,192,164652,1,0,0:0:0:0:
448,192,164769,1,0,0:0:0:0:
192,192,164769,1,0,0:0:0:0:
64,192,164886,1,0,0:0:0:0:
192,192,164886,1,0,0:0:0:0:
320,192,164886,1,0,0:0:0:0:
320,192,165003,1,0,0:0:0:0:
448,192,165003,1,0,0:0:0:0:
64,192,165121,1,0,0:0:0:0:
192,192,165121,1,0,0:0:0:0:
192,192,165238,1,0,0:0:0:0:
320,192,165238,1,0,0:0:0:0:
64,192,165355,1,0,0:0:0:0:
320,192,165355,1,0,0:0:0:0:
448,192,165355,1,0,0:0:0:0:
192,192,165472,1,0,0:0:0:0:
320,192,165589,1,0,0:0:0:0:
64,192,165589,1,0,0:0:0:0:
448,192,165589,1,0,0:0:0:0:
64,192,165736,1,0,0:0:0:0:
192,192,165765,1,0,0:0:0:0:
320,192,165794,1,0,0:0:0:0:
448,192,165824,1,0,0:0:0:0:
320,192,165853,1,0,0:0:0:0:
192,192,165882,1,0,0:0:0:0:
64,192,165912,1,0,0:0:0:0:
192,192,165941,1,0,0:0:0:0:
320,192,165970,1,0,0:0:0:0:
448,192,166000,1,0,0:0:0:0:
64,192,166087,1,0,0:0:0:0:
192,192,166117,1,0,0:0:0:0:
320,192,166146,1,0,0:0:0:0:
448,192,166175,1,0,0:0:0:0:
448,192,166293,1,0,0:0:0:0:
320,192,166322,1,0,0:0:0:0:
192,192,166351,1,0,0:0:0:0:
64,192,166380,1,0,0:0:0:0:
448,192,166439,1,0,0:0:0:0:
320,192,166468,1,0,0:0:0:0:
192,192,166498,1,0,0:0:0:0:
64,192,166556,1,0,0:0:0:0:
192,192,166585,1,0,0:0:0:0:
320,192,166615,1,0,0:0:0:0:
448,192,166703,1,0,0:0:0:0:
320,192,166732,1,0,0:0:0:0:
192,192,166761,1,0,0:0:0:0:
64,192,166820,1,0,0:0:0:0:
192,192,166849,1,0,0:0:0:0:
320,192,166878,1,0,0:0:0:0:
448,192,166937,1,0,0:0:0:0:
320,192,166966,1,0,0:0:0:0:
192,192,166996,1,0,0:0:0:0:
64,192,167025,1,0,0:0:0:0:
192,192,167054,1,0,0:0:0:0:
320,192,167084,1,0,0:0:0:0:
448,192,167113,1,0,0:0:0:0:
320,192,167142,1,0,0:0:0:0:
192,192,167171,1,0,0:0:0:0:
64,192,167201,1,0,0:0:0:0:
192,192,167230,128,0,167699:0:0:0:0:
448,192,167347,1,0,0:0:0:0:
320,192,167464,1,0,0:0:0:0:
320,192,167582,1,0,0:0:0:0:
64,192,167699,1,0,0:0:0:0:
448,192,167699,1,0,0:0:0:0:
320,192,167699,128,0,168168:0:0:0:0:
64,192,168168,128,0,168636:0:0:0:0:
192,192,168168,1,0,0:0:0:0:
448,192,168168,1,0,0:0:0:0:
320,192,168402,1,0,0:0:0:0:
192,192,168636,1,0,0:0:0:0:
320,192,168636,1,0,0:0:0:0:
448,192,168636,128,0,168988:0:0:0:0:
64,192,168753,1,0,0:0:0:0:
192,192,168871,1,0,0:0:0:0:
448,192,169105,128,0,169457:0:0:0:0:
192,192,169105,1,0,0:0:0:0:
320,192,169105,1,0,0:0:0:0:
320,192,169339,1,0,0:0:0:0:
192,192,169457,1,0,0:0:0:0:
192,192,169574,128,0,170043:0:0:0:0:
64,192,169574,1,0,0:0:0:0:
320,192,169574,1,0,0:0:0:0:
448,192,169808,1,0,0:0:0:0:
448,192,170043,128,0,170511:0:0:0:0:
320,192,170043,1,0,0:0:0:0:
64,192,170043,1,0,0:0:0:0:
192,192,170277,1,0,0:0:0:0:
64,192,170394,1,0,0:0:0:0:
64,192,170511,128,0,170863:0:0:0:0:
192,192,170511,1,0,0:0:0:0:
320,192,170511,1,0,0:0:0:0:
448,192,170628,1,0,0:0:0:0:
320,192,170746,1,0,0:0:0:0:
64,192,170980,128,0,171332:0:0:0:0:
192,192,170980,1,0,0:0:0:0:
320,192,170980,1,0,0:0:0:0:
448,192,171214,1,0,0:0:0:0:
320,192,171332,1,0,0:0:0:0:
320,192,171449,128,0,171918:0:0:0:0:
192,192,171449,1,0,0:0:0:0:
448,192,171449,1,0,0:0:0:0:
64,192,171566,1,0,0:0:0:0:
192,192,171683,1,0,0:0:0:0:
448,192,171800,1,0,0:0:0:0:
64,192,171918,128,0,172386:0:0:0:0:
192,192,171918,1,0,0:0:0:0:
448,192,171918,1,0,0:0:0:0:
320,192,172152,1,0,0:0:0:0:
448,192,172269,1,0,0:0:0:0:
448,192,172386,128,0,172738:0:0:0:0:
192,192,172386,1,0,0:0:0:0:
320,192,172386,1,0,0:0:0:0:
64,192,172503,1,0,0:0:0:0:
192,192,172621,1,0,0:0:0:0:
448,192,172855,128,0,173207:0:0:0:0:
192,192,172855,1,0,0:0:0:0:
320,192,172855,1,0,0:0:0:0:
64,192,173089,1,0,0:0:0:0:
192,192,173207,1,0,0:0:0:0:
192,192,173324,128,0,173793:0:0:0:0:
64,192,173324,1,0,0:0:0:0:
320,192,173324,1,0,0:0:0:0:
448,192,173558,1,0,0:0:0:0:
64,192,173793,128,0,174144:0:0:0:0:
320,192,173793,1,0,0:0:0:0:
448,192,173793,1,0,0:0:0:0:
320,192,174027,1,0,0:0:0:0:
192,192,174144,1,0,0:0:0:0:
64,192,174261,128,0,174613:0:0:0:0:
320,192,174261,1,0,0:0:0:0:
448,192,174261,1,0,0:0:0:0:
192,192,174378,1,0,0:0:0:0:
320,192,174496,1,0,0:0:0:0:
64,192,174730,128,0,175082:0:0:0:0:
320,192,174730,1,0,0:0:0:0:
448,192,174730,1,0,0:0:0:0:
320,192,174964,1,0,0:0:0:0:
192,192,175082,1,0,0:0:0:0:
448,192,175199,128,0,175668:0:0:0:0:
192,192,175199,1,0,0:0:0:0:
320,192,175199,1,0,0:0:0:0:
320,192,175316,1,0,0:0:0:0:
192,192,175433,1,0,0:0:0:0:
64,192,175550,1,0,0:0:0:0:
64,192,175668,128,0,176136:0:0:0:0:
192,192,175668,1,0,0:0:0:0:
320,192,175668,1,0,0:0:0:0:
320,192,175902,1,0,0:0:0:0:
448,192,176019,1,0,0:0:0:0:
448,192,176136,128,0,176488:0:0:0:0:
192,192,176136,1,0,0:0:0:0:
320,192,176136,1,0,0:0:0:0:
64,192,176253,1,0,0:0:0:0:
192,192,176371,1,0,0:0:0:0:
448,192,176605,128,0,176957:0:0:0:0:
192,192,176605,1,0,0:0:0:0:
320,192,176605,1,0,0:0:0:0:
64,192,176839,1,0,0:0:0:0:
192,192,176957,1,0,0:0:0:0:
192,192,177074,128,0,177543:0:0:0:0:
64,192,177074,1,0,0:0:0:0:
320,192,177074,1,0,0:0:0:0:
448,192,177308,1,0,0:0:0:0:
448,192,177543,128,0,178011:0:0:0:0:
64,192,177543,1,0,0:0:0:0:
320,192,177543,1,0,0:0:0:0:
192,192,177777,1,0,0:0:0:0:
64,192,177894,1,0,0:0:0:0:
64,192,178011,128,0,178363:0:0:0:0:
192,192,178011,1,0,0:0:0:0:
320,192,178011,1,0,0:0:0:0:
448,192,178128,1,0,0:0:0:0:
320,192,178246,1,0,0:0:0:0:
64,192,178480,128,0,178832:0:0:0:0:
192,192,178480,1,0,0:0:0:0:
320,192,178480,1,0,0:0:0:0:
448,192,178714,1,0,0:0:0:0:
320,192,178832,1,0,0:0:0:0:
320,192,178949,128,0,179418:0:0:0:0:
192,192,178949,1,0,0:0:0:0:
448,192,178949,1,0,0:0:0:0:
64,192,179066,1,0,0:0:0:0:
192,192,179183,1,0,0:0:0:0:
448,192,179300,1,0,0:0:0:0:
64,192,179418,128,0,179886:0:0:0:0:
192,192,179418,1,0,0:0:0:0:
448,192,179418,1,0,0:0:0:0:
320,192,179652,1,0,0:0:0:0:
448,192,179769,1,0,0:0:0:0:
448,192,179886,128,0,180238:0:0:0:0:
192,192,179886,1,0,0:0:0:0:
320,192,179886,1,0,0:0:0:0:
64,192,180003,1,0,0:0:0:0:
192,192,180121,1,0,0:0:0:0:
448,192,180355,128,0,180707:0:0:0:0:
192,192,180355,1,0,0:0:0:0:
320,192,180355,1,0,0:0:0:0:
64,192,180589,1,0,0:0:0:0:
320,192,180707,1,0,0:0:0:0:
320,192,180824,128,0,181293:0:0:0:0:
192,192,180824,1,0,0:0:0:0:
64,192,180824,1,0,0:0:0:0:
448,192,181058,1,0,0:0:0:0:
64,192,181293,128,0,181644:0:0:0:0:
192,192,181293,1,0,0:0:0:0:
448,192,181293,1,0,0:0:0:0:
320,192,181527,1,0,0:0:0:0:
192,192,181644,1,0,0:0:0:0:
64,192,181761,128,0,182113:0:0:0:0:
320,192,181761,1,0,0:0:0:0:
448,192,181761,1,0,0:0:0:0:
192,192,181878,1,0,0:0:0:0:
320,192,181996,1,0,0:0:0:0:
64,192,182230,128,0,182582:0:0:0:0:
320,192,182230,1,0,0:0:0:0:
448,192,182230,1,0,0:0:0:0:
448,192,182464,1,0,0:0:0:0:
192,192,182699,128,0,183168:0:0:0:0:
320,192,182699,1,0,0:0:0:0:
448,192,182699,1,0,0:0:0:0:
448,192,182933,1,0,0:0:0:0:
320,192,183168,128,0,183636:0:0:0:0:
64,192,183168,128,0,183636:0:0:0:0:
448,192,183168,1,0,0:0:0:0:
192,192,183402,1,0,0:0:0:0:
448,192,183519,1,0,0:0:0:0:
448,192,183636,128,0,183988:0:0:0:0:
192,192,183636,1,0,0:0:0:0:
64,192,183753,128,0,183871:0:0:0:0:
64,192,183988,1,0,0:0:0:0:
448,192,184105,128,0,184457:0:0:0:0:
192,192,184105,1,0,0:0:0:0:
320,192,184105,1,0,0:0:0:0:
64,192,184105,128,0,184222:0:0:0:0:
64,192,184339,128,0,184457:0:0:0:0:
320,192,184574,128,0,185043:0:0:0:0:
192,192,184574,1,0,0:0:0:0:
64,192,184574,1,0,0:0:0:0:
448,192,184808,1,0,0:0:0:0:
448,192,185043,128,0,185511:0:0:0:0:
192,192,185043,1,0,0:0:0:0:
64,192,185043,1,0,0:0:0:0:
192,192,185277,1,0,0:0:0:0:
64,192,185511,128,0,185863:0:0:0:0:
192,192,185511,1,0,0:0:0:0:
320,192,185511,1,0,0:0:0:0:
448,192,185628,128,0,185746:0:0:0:0:
448,192,185863,1,0,0:0:0:0:
64,192,185980,128,0,186332:0:0:0:0:
192,192,185980,1,0,0:0:0:0:
320,192,185980,1,0,0:0:0:0:
448,192,185980,128,0,186097:0:0:0:0:
448,192,186214,128,0,186332:0:0:0:0:
192,192,186449,1,0,0:0:0:0:
448,192,186449,1,0,0:0:0:0:
320,192,186449,128,0,186918:0:0:0:0:
64,192,186566,1,0,0:0:0:0:
192,192,186683,1,0,0:0:0:0:
448,192,186800,1,0,0:0:0:0:
64,192,186918,128,0,187386:0:0:0:0:
192,192,186918,1,0,0:0:0:0:
448,192,186918,1,0,0:0:0:0:
320,192,187152,1,0,0:0:0:0:
448,192,187269,1,0,0:0:0:0:
448,192,187386,128,0,187738:0:0:0:0:
192,192,187386,128,0,187503:0:0:0:0:
320,192,187386,1,0,0:0:0:0:
192,192,187621,1,0,0:0:0:0:
192,192,187738,128,0,187855:0:0:0:0:
448,192,187855,128,0,188207:0:0:0:0:
320,192,187855,1,0,0:0:0:0:
64,192,187855,1,0,0:0:0:0:
192,192,187972,128,0,188089:0:0:0:0:
192,192,188207,1,0,0:0:0:0:
64,192,188324,1,0,0:0:0:0:
192,192,188324,1,0,0:0:0:0:
320,192,188324,128,0,188793:0:0:0:0:
448,192,188558,1,0,0:0:0:0:
64,192,188793,128,0,189144:0:0:0:0:
448,192,188793,1,0,0:0:0:0:
192,192,188793,1,0,0:0:0:0:
320,192,189027,1,0,0:0:0:0:
448,192,189144,1,0,0:0:0:0:
64,192,189261,128,0,189613:0:0:0:0:
448,192,189261,128,0,189496:0:0:0:0:
192,192,189261,1,0,0:0:0:0:
320,192,189261,1,0,0:0:0:0:
192,192,189378,1,0,0:0:0:0:
320,192,189496,1,0,0:0:0:0:
448,192,189613,1,0,0:0:0:0:
448,192,189730,128,0,189847:0:0:0:0:
64,192,189730,128,0,190082:0:0:0:0:
192,192,189730,1,0,0:0:0:0:
320,192,189730,1,0,0:0:0:0:
448,192,189964,128,0,190082:0:0:0:0:
192,192,189964,1,0,0:0:0:0:
320,192,190082,1,0,0:0:0:0:
320,192,190199,128,0,190668:0:0:0:0:
192,192,190199,1,0,0:0:0:0:
64,192,190199,1,0,0:0:0:0:
448,192,190316,1,0,0:0:0:0:
192,192,190433,1,0,0:0:0:0:
64,192,190550,1,0,0:0:0:0:
64,192,190668,128,0,191136:0:0:0:0:
192,192,190668,1,0,0:0:0:0:
448,192,190668,1,0,0:0:0:0:
320,192,190902,1,0,0:0:0:0:
448,192,191019,1,0,0:0:0:0:
192,192,191136,128,0,191371:0:0:0:0:
320,192,191136,128,0,191371:0:0:0:0:
448,192,191136,128,0,191488:0:0:0:0:
320,192,191488,1,0,0:0:0:0:
192,192,191488,1,0,0:0:0:0:
192,192,191605,128,0,191722:0:0:0:0:
320,192,191605,128,0,191722:0:0:0:0:
448,192,191605,128,0,191957:0:0:0:0:
64,192,191605,1,0,0:0:0:0:
192,192,191839,128,0,191957:0:0:0:0:
320,192,191839,128,0,191957:0:0:0:0:
192,192,192074,128,0,192543:0:0:0:0:
64,192,192074,1,0,0:0:0:0:
320,192,192074,1,0,0:0:0:0:
448,192,192308,1,0,0:0:0:0:
448,192,192543,128,0,193011:0:0:0:0:
64,192,192543,1,0,0:0:0:0:
320,192,192543,1,0,0:0:0:0:
192,192,192777,1,0,0:0:0:0:
64,192,192894,1,0,0:0:0:0:
320,192,193011,128,0,193128:0:0:0:0:
64,192,193011,128,0,193363:0:0:0:0:
192,192,193011,128,0,193128:0:0:0:0:
320,192,193246,128,0,193363:0:0:0:0:
192,192,193246,128,0,193363:0:0:0:0:
320,192,193480,1,0,0:0:0:0:
64,192,193480,128,0,193832:0:0:0:0:
192,192,193480,1,0,0:0:0:0:
320,192,193597,128,0,193714:0:0:0:0:
192,192,193597,128,0,193714:0:0:0:0:
320,192,193832,128,0,193949:0:0:0:0:
192,192,193832,128,0,193949:0:0:0:0:
448,192,193949,128,0,194418:0:0:0:0:
64,192,193949,1,0,0:0:0:0:
320,192,194066,1,0,0:0:0:0:
192,192,194183,1,0,0:0:0:0:
64,192,194300,1,0,0:0:0:0:
64,192,194418,128,0,194886:0:0:0:0:
192,192,194418,1,0,0:0:0:0:
320,192,194418,1,0,0:0:0:0:
320,192,194652,1,0,0:0:0:0:
448,192,194769,1,0,0:0:0:0:
320,192,194886,128,0,195003:0:0:0:0:
448,192,194886,128,0,195238:0:0:0:0:
192,192,194886,1,0,0:0:0:0:
320,192,195121,128,0,195238:0:0:0:0:
448,192,195355,128,0,195707:0:0:0:0:
320,192,195355,1,0,0:0:0:0:
192,192,195355,1,0,0:0:0:0:
64,192,195355,1,0,0:0:0:0:
320,192,195472,128,0,195589:0:0:0:0:
320,192,195707,128,0,195824:0:0:0:0:
192,192,195824,128,0,196293:0:0:0:0:
448,192,195824,1,0,0:0:0:0:
64,192,195824,1,0,0:0:0:0:
320,192,196058,1,0,0:0:0:0:
64,192,196293,128,0,196644:0:0:0:0:
320,192,196293,128,0,196761:0:0:0:0:
448,192,196293,1,0,0:0:0:0:
192,192,196527,1,0,0:0:0:0:
448,192,196644,1,0,0:0:0:0:
64,192,196761,128,0,197113:0:0:0:0:
448,192,196761,128,0,197699:0:0:0:0:
192,192,196761,1,0,0:0:0:0:
320,192,196878,1,0,0:0:0:0:
192,192,196996,1,0,0:0:0:0:
64,192,197230,128,0,197582:0:0:0:0:
192,192,197230,1,0,0:0:0:0:
320,192,197230,1,0,0:0:0:0:
192,192,197464,1,0,0:0:0:0:
320,192,197582,1,0,0:0:0:0:
192,192,197699,1,0,0:0:0:0:
64,192,197699,1,0,0:0:0:0:
64,192,198168,128,0,198519:0:0:0:0:
448,192,198168,1,0,0:0:0:0:
192,192,198285,1,0,0:0:0:0:
320,192,198402,1,0,0:0:0:0:
320,192,198519,128,0,198636:0:0:0:0:
448,192,198519,1,0,0:0:0:0:
448,192,198636,128,0,199105:0:0:0:0:
64,192,198636,1,0,0:0:0:0:
192,192,198871,1,0,0:0:0:0:
64,192,198988,128,0,199691:0:0:0:0:
320,192,198988,1,0,0:0:0:0:
192,192,199105,1,0,0:0:0:0:
448,192,199222,1,0,0:0:0:0:
448,192,199339,1,0,0:0:0:0:
320,192,199574,128,0,199691:0:0:0:0:
448,192,199574,1,0,0:0:0:0:
448,192,199691,128,0,200277:0:0:0:0:
192,192,199808,1,0,0:0:0:0:
320,192,199925,1,0,0:0:0:0:
64,192,200043,1,0,0:0:0:0:
320,192,200160,1,0,0:0:0:0:
192,192,200277,1,0,0:0:0:0:
448,192,200394,1,0,0:0:0:0:
64,192,200511,1,0,0:0:0:0:
320,192,200511,1,0,0:0:0:0:
192,192,200628,1,0,0:0:0:0:
448,192,200746,1,0,0:0:0:0:
192,192,200863,1,0,0:0:0:0:
64,192,200980,1,0,0:0:0:0:
192,192,201097,1,0,0:0:0:0:
448,192,201214,1,0,0:0:0:0:
320,192,201214,1,0,0:0:0:0:
192,192,201332,1,0,0:0:0:0:
320,192,201449,128,0,201918:0:0:0:0:
64,192,201449,1,0,0:0:0:0:
448,192,201683,1,0,0:0:0:0:
448,192,201918,1,0,0:0:0:0:
64,192,202035,128,0,202152:0:0:0:0:
192,192,202152,128,0,202269:0:0:0:0:
64,192,202269,1,0,0:0:0:0:
320,192,202269,128,0,202386:0:0:0:0:
448,192,202386,1,0,0:0:0:0:
64,192,202621,1,0,0:0:0:0:
320,192,202621,128,0,202738:0:0:0:0:
192,192,202738,128,0,202855:0:0:0:0:
448,192,202855,1,0,0:0:0:0:
448,192,202972,128,0,203089:0:0:0:0:
320,192,203089,128,0,203207:0:0:0:0:
64,192,203089,1,0,0:0:0:0:
192,192,203207,128,0,203324:0:0:0:0:
448,192,203324,1,0,0:0:0:0:
192,192,203441,128,0,203558:0:0:0:0:
64,192,203558,1,0,0:0:0:0:
320,192,203558,128,0,203675:0:0:0:0:
448,192,203675,128,0,203793:0:0:0:0:
64,192,203793,1,0,0:0:0:0:
320,192,203793,1,0,0:0:0:0:
192,192,203910,1,0,0:0:0:0:
64,192,204027,1,0,0:0:0:0:
448,192,204144,1,0,0:0:0:0:
64,192,204261,1,0,0:0:0:0:
320,192,204261,1,0,0:0:0:0:
192,192,204378,1,0,0:0:0:0:
448,192,204496,1,0,0:0:0:0:
192,192,204613,1,0,0:0:0:0:
64,192,204730,1,0,0:0:0:0:
448,192,204730,1,0,0:0:0:0:
192,192,204847,1,0,0:0:0:0:
448,192,204964,1,0,0:0:0:0:
320,192,205082,1,0,0:0:0:0:
64,192,205199,128,0,205550:0:0:0:0:
192,192,205433,1,0,0:0:0:0:
320,192,205550,1,0,0:0:0:0:
64,192,205668,128,0,205902:0:0:0:0:
448,192,205668,1,0,0:0:0:0:
192,192,205902,128,0,206019:0:0:0:0:
64,192,206019,128,0,206371:0:0:0:0:
320,192,206019,128,0,206136:0:0:0:0:
448,192,206136,1,0,0:0:0:0:
320,192,206371,128,0,206488:0:0:0:0:
64,192,206488,128,0,206722:0:0:0:0:
192,192,206488,128,0,206605:0:0:0:0:
448,192,206605,1,0,0:0:0:0:
320,192,206722,128,0,206839:0:0:0:0:
64,192,206839,1,0,0:0:0:0:
192,192,206839,128,0,206957:0:0:0:0:
64,192,206957,1,0,0:0:0:0:
64,192,207074,1,0,0:0:0:0:
448,192,207074,1,0,0:0:0:0:
192,192,207074,128,0,207191:0:0:0:0:
320,192,207191,128,0,207308:0:0:0:0:
64,192,207191,1,0,0:0:0:0:
64,192,207308,1,0,0:0:0:0:
448,192,207308,128,0,207425:0:0:0:0:
64,192,207543,1,0,0:0:0:0:
320,192,207660,1,0,0:0:0:0:
192,192,207777,1,0,0:0:0:0:
448,192,207894,1,0,0:0:0:0:
64,192,208011,1,0,0:0:0:0:
192,192,208011,1,0,0:0:0:0:
320,192,208128,1,0,0:0:0:0:
448,192,208246,1,0,0:0:0:0:
192,192,208363,1,0,0:0:0:0:
64,192,208480,1,0,0:0:0:0:
320,192,208597,1,0,0:0:0:0:
192,192,208714,1,0,0:0:0:0:
448,192,208832,1,0,0:0:0:0:
64,192,208949,1,0,0:0:0:0:
192,192,208949,1,0,0:0:0:0:
320,192,208949,128,0,209418:0:0:0:0:
448,192,209183,1,0,0:0:0:0:
448,192,209418,1,0,0:0:0:0:
64,192,209535,128,0,209652:0:0:0:0:
192,192,209652,128,0,209769:0:0:0:0:
320,192,209769,128,0,209886:0:0:0:0:
64,192,209769,1,0,0:0:0:0:
448,192,209886,1,0,0:0:0:0:
64,192,210121,1,0,0:0:0:0:
320,192,210121,128,0,210238:0:0:0:0:
192,192,210238,128,0,210355:0:0:0:0:
448,192,210355,1,0,0:0:0:0:
64,192,210355,128,0,210472:0:0:0:0:
192,192,210472,128,0,210589:0:0:0:0:
320,192,210589,128,0,210707:0:0:0:0:
64,192,210589,1,0,0:0:0:0:
448,192,210824,1,0,0:0:0:0:
320,192,210941,128,0,211058:0:0:0:0:
192,192,211058,128,0,211175:0:0:0:0:
64,192,211058,1,0,0:0:0:0:
64,192,211293,1,0,0:0:0:0:
320,192,211293,1,0,0:0:0:0:
192,192,211293,128,0,211410:0:0:0:0:
448,192,211293,128,0,211410:0:0:0:0:
320,192,211527,128,0,211644:0:0:0:0:
192,192,211644,128,0,211761:0:0:0:0:
320,192,211761,1,0,0:0:0:0:
448,192,211761,128,0,211878:0:0:0:0:
64,192,211761,128,0,211878:0:0:0:0:
192,192,211878,128,0,211996:0:0:0:0:
320,192,211996,128,0,212113:0:0:0:0:
448,192,212113,128,0,212230:0:0:0:0:
320,192,212230,1,0,0:0:0:0:
64,192,212230,128,0,212347:0:0:0:0:
192,192,212230,1,0,0:0:0:0:
192,192,212347,128,0,212464:0:0:0:0:
448,192,212464,1,0,0:0:0:0:
64,192,212464,128,0,212582:0:0:0:0:
192,192,212582,128,0,212699:0:0:0:0:
320,192,212699,128,0,213168:0:0:0:0:
64,192,213168,128,0,213519:0:0:0:0:
192,192,213168,1,0,0:0:0:0:
448,192,213168,1,0,0:0:0:0:
192,192,213402,128,0,213519:0:0:0:0:
320,192,213519,128,0,213636:0:0:0:0:
448,192,213636,128,0,214105:0:0:0:0:
192,192,213636,128,0,213753:0:0:0:0:
320,192,213871,128,0,213988:0:0:0:0:
64,192,213988,128,0,214691:0:0:0:0:
192,192,213988,128,0,214105:0:0:0:0:
320,192,214105,1,0,0:0:0:0:
192,192,214222,128,0,214339:0:0:0:0:
320,192,214339,128,0,214457:0:0:0:0:
448,192,214457,128,0,215160:0:0:0:0:
192,192,214457,128,0,214574:0:0:0:0:
320,192,214574,1,0,0:0:0:0:
192,192,214691,128,0,214808:0:0:0:0:
320,192,214808,128,0,214925:0:0:0:0:
64,192,215043,1,0,0:0:0:0:
192,192,215043,1,0,0:0:0:0:
320,192,215043,128,0,215160:0:0:0:0:
192,192,215160,128,0,215277:0:0:0:0:
320,192,215277,128,0,215394:0:0:0:0:
448,192,215394,128,0,215511:0:0:0:0:
64,192,215511,1,0,0:0:0:0:
192,192,215511,1,0,0:0:0:0:
320,192,215511,128,0,215628:0:0:0:0:
192,192,215628,128,0,215746:0:0:0:0:
448,192,215746,128,0,215863:0:0:0:0:
320,192,215863,128,0,215980:0:0:0:0:
64,192,215980,128,0,216097:0:0:0:0:
192,192,215980,1,0,0:0:0:0:
448,192,215980,1,0,0:0:0:0:
192,192,216097,128,0,216214:0:0:0:0:
320,192,216214,128,0,216332:0:0:0:0:
448,192,216332,128,0,216449:0:0:0:0:
320,192,216449,128,0,216566:0:0:0:0:
192,192,216449,1,0,0:0:0:0:
64,192,216449,1,0,0:0:0:0:
192,192,216566,128,0,216683:0:0:0:0:
64,192,216683,128,0,216800:0:0:0:0:
192,192,216918,128,0,217035:0:0:0:0:
64,192,216918,1,0,0:0:0:0:
320,192,216918,1,0,0:0:0:0:
448,192,216918,1,0,0:0:0:0:
320,192,217035,128,0,217152:0:0:0:0:
448,192,217152,128,0,217269:0:0:0:0:
320,192,217269,128,0,217386:0:0:0:0:
64,192,217386,128,0,217503:0:0:0:0:
192,192,217386,1,0,0:0:0:0:
448,192,217386,1,0,0:0:0:0:
448,192,217503,128,0,217621:0:0:0:0:
192,192,217621,128,0,217738:0:0:0:0:
320,192,217738,128,0,217855:0:0:0:0:
448,192,217855,128,0,217972:0:0:0:0:
192,192,217855,1,0,0:0:0:0:
64,192,217855,1,0,0:0:0:0:
320,192,217972,128,0,218089:0:0:0:0:
192,192,218089,128,0,218207:0:0:0:0:
64,192,218207,128,0,218324:0:0:0:0:
192,192,218324,128,0,218441:0:0:0:0:
320,192,218324,1,0,0:0:0:0:
448,192,218324,1,0,0:0:0:0:
320,192,218441,128,0,218558:0:0:0:0:
448,192,218558,128,0,218675:0:0:0:0:
64,192,218793,128,0,219261:0:0:0:0:
320,192,218793,1,0,0:0:0:0:
448,192,218793,1,0,0:0:0:0:
192,192,218793,128,0,218910:0:0:0:0:
448,192,218910,128,0,219027:0:0:0:0:
320,192,219027,128,0,219144:0:0:0:0:
192,192,219144,128,0,219261:0:0:0:0:
448,192,219261,128,0,220199:0:0:0:0:
320,192,219261,128,0,219496:0:0:0:0:
64,192,219496,128,0,219613:0:0:0:0:
192,192,219613,128,0,219730:0:0:0:0:
320,192,219730,1,0,0:0:0:0:
64,192,219730,128,0,219847:0:0:0:0:
320,192,219847,128,0,219964:0:0:0:0:
192,192,219964,128,0,220082:0:0:0:0:
320,192,220082,128,0,220199:0:0:0:0:
192,192,220199,1,0,0:0:0:0:
64,192,220199,128,0,220550:0:0:0:0:
192,192,220316,128,0,220433:0:0:0:0:
320,192,220433,128,0,220550:0:0:0:0:
448,192,220550,128,0,220668:0:0:0:0:
64,192,220668,128,0,220902:0:0:0:0:
192,192,220668,1,0,0:0:0:0:
320,192,220668,1,0,0:0:0:0:
192,192,220902,128,0,221019:0:0:0:0:
64,192,221019,128,0,221371:0:0:0:0:
320,192,221019,128,0,221136:0:0:0:0:
448,192,221136,1,0,0:0:0:0:
192,192,221136,1,0,0:0:0:0:
448,192,221253,128,0,221371:0:0:0:0:
320,192,221371,128,0,221488:0:0:0:0:
64,192,221488,128,0,221722:0:0:0:0:
192,192,221488,128,0,221605:0:0:0:0:
320,192,221605,1,0,0:0:0:0:
448,192,221605,1,0,0:0:0:0:
192,192,221722,128,0,221839:0:0:0:0:
64,192,221839,1,0,0:0:0:0:
320,192,221839,128,0,221957:0:0:0:0:
64,192,221957,1,0,0:0:0:0:
448,192,221957,128,0,222074:0:0:0:0:
64,192,222074,1,0,0:0:0:0:
192,192,222074,1,0,0:0:0:0:
320,192,222074,1,0,0:0:0:0:
64,192,222191,1,0,0:0:0:0:
320,192,222191,128,0,222308:0:0:0:0:
64,192,222308,1,0,0:0:0:0:
192,192,222308,128,0,222543:0:0:0:0:
320,192,222543,1,0,0:0:0:0:
448,192,222543,1,0,0:0:0:0:
320,192,222660,128,0,222777:0:0:0:0:
192,192,222777,128,0,222894:0:0:0:0:
64,192,222894,128,0,223011:0:0:0:0:
448,192,223011,1,0,0:0:0:0:
320,192,223011,1,0,0:0:0:0:
192,192,223128,128,0,223246:0:0:0:0:
64,192,223246,128,0,223363:0:0:0:0:
192,192,223363,128,0,223480:0:0:0:0:
448,192,223480,1,0,0:0:0:0:
320,192,223480,1,0,0:0:0:0:
64,192,223480,128,0,223597:0:0:0:0:
192,192,223597,128,0,223714:0:0:0:0:
320,192,223714,128,0,223832:0:0:0:0:
448,192,223949,1,0,0:0:0:0:
64,192,223949,128,0,224066:0:0:0:0:
192,192,224066,128,0,224183:0:0:0:0:
320,192,224183,128,0,224300:0:0:0:0:
64,192,224418,1,0,0:0:0:0:
448,192,224418,128,0,224535:0:0:0:0:
320,192,224535,128,0,224652:0:0:0:0:
64,192,224652,128,0,224769:0:0:0:0:
192,192,224769,128,0,224886:0:0:0:0:
64,192,224886,1,0,0:0:0:0:
448,192,224886,128,0,225003:0:0:0:0:
320,192,225003,128,0,225121:0:0:0:0:
192,192,225121,128,0,225238:0:0:0:0:
320,192,225238,128,0,225355:0:0:0:0:
64,192,225355,1,0,0:0:0:0:
448,192,225355,128,0,225472:0:0:0:0:
320,192,225472,128,0,225589:0:0:0:0:
192,192,225589,128,0,225707:0:0:0:0:
64,192,225824,1,0,0:0:0:0:
192,192,225824,128,0,225941:0:0:0:0:
320,192,225941,128,0,226058:0:0:0:0:
448,192,226058,128,0,226175:0:0:0:0:
448,192,226293,1,0,0:0:0:0:
64,192,226293,1,0,0:0:0:0:
320,192,226293,1,0,0:0:0:0:
192,192,226293,128,0,226410:0:0:0:0:
320,192,226410,128,0,226527:0:0:0:0:
64,192,226527,128,0,226644:0:0:0:0:
192,192,226644,128,0,226761:0:0:0:0:
448,192,226761,1,0,0:0:0:0:
320,192,226761,128,0,226996:0:0:0:0:
64,192,226878,128,0,227699:0:0:0:0:
448,192,226996,128,0,227113:0:0:0:0:
192,192,227113,128,0,227230:0:0:0:0:
448,192,227230,1,0,0:0:0:0:
320,192,227230,128,0,227347:0:0:0:0:
448,192,227347,128,0,227464:0:0:0:0:
320,192,227464,128,0,227582:0:0:0:0:
448,192,227699,128,0,228168:0:0:0:0:
320,192,227816,128,0,228168:0:0:0:0:
192,192,227933,128,0,228168:0:0:0:0:
64,192,228050,128,0,228168:0:0:0:0:
448,192,228285,128,0,229574:0:0:0:0:
64,192,228285,128,0,228519:0:0:0:0:
64,192,228636,128,0,228871:0:0:0:0:
64,192,228988,128,0,229339:0:0:0:0:
320,192,229105,128,0,231918:0:0:0:0:
64,192,229457,128,0,229691:0:0:0:0:
64,192,230043,1,0,0:0:0:0:
64,192,230160,1,0,0:0:0:0:
64,192,230277,1,0,0:0:0:0:
64,192,230394,1,0,0:0:0:0:
64,192,230570,1,0,0:0:0:0:
64,192,230804,1,0,0:0:0:0:
64,192,231273,1,0,0:0:0:0:
64,192,231507,1,0,0:0:0:0:
64,192,231625,1,0,0:0:0:0:
64,192,231742,1,0,0:0:0:0:
