osu file format v14

[General]
AudioFilename: audio.mp3
AudioLeadIn: 0
PreviewTime: 0
Countdown: 0
SampleSet: Normal
StackLeniency: 1
Mode: 1
LetterboxInBreaks: 0
WidescreenStoryboard: 0

[Editor]
DistanceSpacing: 0.1
BeatDivisor: 4
GridSize: 32
TimelineZoom: 2.7

[Metadata]
Title:Hanami ON THE RIFT (PV ver.)
TitleUnicode:花見 ON THE RIFT (PV ver.)
Artist:League of Legends
ArtistUnicode:リーグ・オブ・レジェンド
Creator:iloveyou4ever
Version:Muzukashii
Source:League of Legends
Tags:riot games japan dnb drum and bass sakura event Prophecy
BeatmapID:1694959
BeatmapSetID:807649

[Difficulty]
HPDrainRate:6.7
CircleSize:2
OverallDifficulty:4.5
ApproachRate:0
SliderMultiplier:1.4
SliderTickRate:1

[Events]
//Background and Video events
0,0,"ontherift2.png",0,0
//Break Periods
//Storyboard Layer 0 (Background)
//Storyboard Layer 1 (Fail)
//Storyboard Layer 2 (Pass)
//Storyboard Layer 3 (Foreground)
//Storyboard Sound Samples

[TimingPoints]
1461,375,4,1,0,20,1,0
1461,-100,4,1,0,20,0,0
11961,-100,4,1,0,25,0,0
13461,-100,4,1,0,35,0,0
26961,348.837209302326,4,1,0,36,1,0
27135,-100,4,1,0,38,0,0
27309,-100,4,1,0,40,0,0
27484,-100,4,1,0,42,0,0
27658,-100.1001001001,4,1,0,50,0,0
28356,-100,4,1,0,65,0,1
39431,-100,4,1,0,60,0,0
39867,-100,4,1,0,65,0,1
50681,-100,4,1,0,50,0,0
59054,-100,4,1,0,43,0,0
60449,-100,4,1,0,36,0,0
61844,-100,4,1,0,30,0,0

[HitObjects]
256,192,1461,5,8,0:0:0:0:
256,192,2211,1,0,0:0:0:0:
256,192,2586,1,0,0:0:0:0:
256,192,2773,1,0,0:0:0:0:
256,192,2961,1,8,0:0:0:0:
256,192,3336,1,0,0:0:0:0:
256,192,3523,1,0,0:0:0:0:
288,192,3898,1,0,0:0:0:0:
256,192,4461,1,8,0:0:0:0:
288,192,5211,1,0,0:0:0:0:
288,192,5586,1,8,0:0:0:0:
288,192,5773,1,8,0:0:0:0:
256,192,6711,1,0,0:0:0:0:
256,192,6898,1,8,0:0:0:0:
256,192,7086,1,8,0:0:0:0:
256,192,7461,1,0,0:0:0:0:
256,192,7836,1,8,0:0:0:0:
256,192,8023,1,8,0:0:0:0:
256,192,8398,1,0,0:0:0:0:
440,244,8773,1,8,0:0:0:0:
448,256,8961,1,0,0:0:0:0:
416,192,9711,1,0,0:0:0:0:
416,192,9898,1,0,0:0:0:0:
416,192,10086,1,8,0:0:0:0:
416,192,10461,1,0,0:0:0:0:
160,192,10836,1,8,0:0:0:0:
160,192,11023,1,8,0:0:0:0:
160,192,11398,1,8,0:0:0:0:
439,244,11961,1,0,0:0:0:0:
448,224,12523,1,8,0:0:0:0:
448,224,12711,1,8,0:0:0:0:
448,256,13461,1,0,0:0:0:0:
433,188,14211,1,8,0:0:0:0:
439,244,14586,1,0,0:0:0:0:
433,239,14773,1,8,0:0:0:0:
433,188,14961,1,8,0:0:0:0:
448,192,15336,1,0,0:0:0:0:
433,188,15523,1,0,0:0:0:0:
416,192,15898,1,0,0:0:0:0:
97,209,16461,1,8,0:0:0:0:
128,192,17211,1,0,0:0:0:0:
448,224,17398,1,0,0:0:0:0:
442,220,17586,1,8,0:0:0:0:
436,216,17773,1,8,0:0:0:0:
452,240,18711,1,8,0:0:0:0:
445,227,19086,1,8,0:0:0:0:
127,153,19461,1,0,0:0:0:0:
140,154,19836,1,8,0:0:0:0:
146,154,20023,1,8,0:0:0:0:
148,161,20586,1,8,0:0:0:0:
417,199,20961,1,0,0:0:0:0:
417,199,21336,1,8,0:0:0:0:
417,199,21711,1,0,0:0:0:0:
416,256,22086,1,8,0:0:0:0:
417,199,22461,1,0,0:0:0:0:
417,199,23211,1,0,0:0:0:0:
384,224,23961,1,8,0:0:0:0:
256,192,24148,12,0,26773,0:0:0:0:
317,186,26961,5,0,0:0:0:0:
317,186,27048,5,0,0:0:0:0:
317,186,27135,5,0,0:0:0:0:
323,187,27309,1,8,0:0:0:0:
317,186,27484,1,0,0:0:0:0:
317,186,27658,1,8,0:0:0:0:
317,186,27745,1,8,0:0:0:0:
317,186,27833,1,8,0:0:0:0:
317,186,28007,1,8,0:0:0:0:
341,181,28181,1,8,0:0:0:0:
320,224,28356,5,4,0:0:0:0:
320,224,28530,1,0,0:0:0:0:
320,224,28705,1,8,0:0:0:0:
512,192,29054,1,0,0:0:0:0:
512,192,29402,1,8,0:0:0:0:
512,192,29577,1,0,0:0:0:0:
512,192,29926,1,0,0:0:0:0:
480,192,30100,1,8,0:0:0:0:
480,192,30449,1,8,0:0:0:0:
480,192,30711,1,0,0:0:0:0:
478,195,30798,1,0,0:0:0:0:
448,192,30972,1,8,0:0:0:0:
448,224,31147,1,4,0:0:0:0:
448,224,31495,1,8,0:0:0:0:
443,218,31670,1,0,0:0:0:0:
448,192,31844,1,0,0:0:0:0:
438,197,32106,1,8,0:0:0:0:
435,198,32193,1,8,0:0:0:0:
384,160,32367,1,0,0:0:0:0:
192,96,32716,1,8,0:0:0:0:
448,160,32891,1,0,0:0:0:0:
288,256,33240,1,8,0:0:0:0:
293,247,33501,1,0,0:0:0:0:
294,244,33588,1,0,0:0:0:0:
292,250,33763,1,0,0:0:0:0:
384,160,33937,1,4,0:0:0:0:
384,160,34286,1,8,0:0:0:0:
384,160,34635,1,0,0:0:0:0:
416,160,34984,1,8,0:0:0:0:
320,160,35158,1,0,0:0:0:0:
320,160,35507,1,0,0:0:0:0:
416,160,35681,1,8,0:0:0:0:
416,160,36030,1,8,0:0:0:0:
377,167,36292,1,0,0:0:0:0:
320,160,36379,1,0,0:0:0:0:
384,160,36554,1,0,0:0:0:0:
320,160,36728,1,12,0:0:0:0:
377,167,37077,1,0,0:0:0:0:
480,160,37251,1,12,0:0:0:0:
468,168,37600,1,0,0:0:0:0:
256,288,37774,1,4,0:0:0:0:
273,276,38298,1,0,0:0:0:0:
448,160,38472,1,8,0:0:0:0:
288,64,38821,1,8,0:0:0:0:
416,192,38995,1,0,0:0:0:0:
416,192,39170,1,8,0:0:0:0:
416,192,39344,1,8,0:0:0:0:
413,190,39431,1,8,0:0:0:0:
448,192,39867,1,12,0:0:0:0:
448,192,40216,1,0,0:0:0:0:
448,192,40565,1,8,0:0:0:0:
448,192,40740,1,0,0:0:0:0:
448,192,41088,1,0,0:0:0:0:
448,192,41263,1,8,0:0:0:0:
416,192,41612,1,0,0:0:0:0:
416,192,41873,1,0,0:0:0:0:
416,192,41961,1,0,0:0:0:0:
416,192,42135,1,0,0:0:0:0:
416,192,42309,1,4,0:0:0:0:
416,192,42658,1,8,0:0:0:0:
416,192,42833,1,8,0:0:0:0:
409,188,43007,1,0,0:0:0:0:
400,193,43269,1,8,0:0:0:0:
448,192,43356,1,8,0:0:0:0:
448,192,43530,1,0,0:0:0:0:
448,192,43879,1,8,0:0:0:0:
448,192,44054,1,0,0:0:0:0:
448,192,44402,1,8,0:0:0:0:
448,192,44664,1,0,0:0:0:0:
416,192,44751,1,0,0:0:0:0:
409,191,44926,1,8,0:0:0:0:
96,288,45100,1,4,0:0:0:0:
96,288,45449,1,8,0:0:0:0:
425,143,45798,1,0,0:0:0:0:
412,179,46147,1,8,0:0:0:0:
416,160,46321,1,0,0:0:0:0:
412,179,46670,1,0,0:0:0:0:
384,160,46844,1,8,0:0:0:0:
384,160,47193,1,8,0:0:0:0:
384,160,47455,1,0,0:0:0:0:
384,160,47542,1,0,0:0:0:0:
462,182,47716,1,0,0:0:0:0:
301,101,47891,1,12,0:0:0:0:
288,96,48240,1,0,0:0:0:0:
421,165,48414,1,12,0:0:0:0:
416,160,48763,1,0,0:0:0:0:
421,165,48937,1,4,0:0:0:0:
457,175,49286,1,8,0:0:0:0:
457,181,49461,1,0,0:0:0:0:
457,175,49635,1,8,0:0:0:0:
457,175,49984,1,8,0:0:0:0:
447,179,50245,1,8,0:0:0:0:
437,183,50507,1,8,0:0:0:0:
277,166,50681,1,4,0:0:0:0:
256,160,51030,1,0,0:0:0:0:
464,197,51379,1,8,0:0:0:0:
447,195,51902,1,0,0:0:0:0:
447,195,52774,1,8,0:0:0:0:
416,192,53298,1,0,0:0:0:0:
416,192,53385,1,0,0:0:0:0:
148,350,53472,1,0,0:0:0:0:
159,341,53821,1,0,0:0:0:0:
448,192,54170,1,8,0:0:0:0:
448,192,54693,1,0,0:0:0:0:
416,192,55216,1,0,0:0:0:0:
448,192,55565,1,8,0:0:0:0:
128,160,56088,1,0,0:0:0:0:
128,160,56176,1,0,0:0:0:0:
128,160,56263,1,0,0:0:0:0:
128,160,56612,1,0,0:0:0:0:
448,192,56961,1,8,0:0:0:0:
448,192,57484,1,0,0:0:0:0:
416,192,58181,1,8,0:0:0:0:
416,192,58356,1,8,0:0:0:0:
416,192,58530,1,0,0:0:0:0:
423,189,58705,1,8,0:0:0:0:
416,192,59054,1,4,0:0:0:0:
256,192,59228,12,0,63240,0:0:0:0:
