osu file format v14

[General]
AudioFilename: audio.mp3
AudioLeadIn: 0
PreviewTime: 0
Countdown: 0
SampleSet: Normal
StackLeniency: 1
Mode: 1
LetterboxInBreaks: 0
WidescreenStoryboard: 0

[Editor]
DistanceSpacing: 1.2
BeatDivisor: 8
GridSize: 32
TimelineZoom: 2.1

[Metadata]
Title:Hanami ON THE RIFT (PV ver.)
TitleUnicode:花見 ON THE RIFT (PV ver.)
Artist:League of Legends
ArtistUnicode:リーグ・オブ・レジェンド
Creator:iloveyou4ever
Version:Inner Oni
Source:League of Legends
Tags:riot games japan dnb drum and bass sakura event Prophecy
BeatmapID:1694957
BeatmapSetID:807649

[Difficulty]
HPDrainRate:6
CircleSize:2
OverallDifficulty:5.5
ApproachRate:0
SliderMultiplier:1.4
SliderTickRate:1

[Events]
//Background and Video events
0,0,"ontherift2.png",0,0
//Break Periods
//Storyboard Layer 0 (Background)
//Storyboard Layer 1 (Fail)
//Storyboard Layer 2 (Pass)
//Storyboard Layer 3 (Foreground)
//Storyboard Sound Samples

[TimingPoints]
1461,375,4,1,0,20,1,0
1461,-105.263157894737,4,1,0,20,0,0
11961,-105.263157894737,4,1,0,25,0,0
13461,-100,4,1,0,35,0,0
26961,348.837209302326,4,1,0,36,1,0
26961,-105.263157894737,4,1,0,36,0,0
27048,-104.712041884817,4,1,0,36,0,0
27135,-104.166666666667,4,1,0,38,0,0
27222,-103.51966873706,4,1,0,38,0,0
27309,-102.880658436214,4,1,0,40,0,0
27397,-102.249488752556,4,1,0,40,0,0
27484,-101.522842639594,4,1,0,42,0,0
27571,-100.806451612903,4,1,0,42,0,0
27658,-100.1001001001,4,1,0,50,0,0
27745,-99.304865938431,4,1,0,50,0,0
27833,-98.5221674876847,4,1,0,50,0,0
27920,-97.7517106549365,4,1,0,50,0,0
28007,-96.8992248062015,4,1,0,50,0,0
28094,-95.9692898272553,4,1,0,50,0,0
28181,-95.0570342205323,4,1,0,50,0,0
28356,-93.4579439252336,4,1,0,65,0,1
39431,-93.4579439252336,4,1,0,60,0,0
39867,-93.4579439252336,4,1,0,65,0,1
50681,-93.4579439252336,4,1,0,50,0,0
50856,-95.0118764845606,4,1,0,50,0,0
51030,-96.6183574879227,4,1,0,50,0,0
51205,-98.2800982800983,4,1,0,50,0,0
51554,-100,4,1,0,50,0,0
59054,-100,4,1,0,43,0,0
60449,-100,4,1,0,36,0,0
61844,-100,4,1,0,30,0,0

[HitObjects]
384,192,1461,5,8,0:0:0:0:
416,160,1836,1,0,0:0:0:0:
416,160,2211,1,0,0:0:0:0:
416,160,2586,1,0,0:0:0:0:
425,247,2773,1,8,0:0:0:0:
416,160,2961,1,8,0:0:0:0:
425,247,3336,1,0,0:0:0:0:
368,220,3523,1,0,0:0:0:0:
381,219,3898,1,0,0:0:0:0:
416,160,4461,1,8,0:0:0:0:
508,372,5023,1,8,0:0:0:0:
448,172,5211,1,0,0:0:0:0:
448,172,5398,1,0,0:0:0:0:
448,172,5586,1,8,0:0:0:0:
448,172,5773,1,8,0:0:0:0:
448,172,5961,1,0,0:0:0:0:
448,172,6336,1,0,0:0:0:0:
448,172,6711,1,0,0:0:0:0:
448,172,6898,1,8,0:0:0:0:
448,172,7086,1,8,0:0:0:0:
448,352,7461,1,8,0:0:0:0:
435,337,7507,1,8,0:0:0:0:
288,128,7836,1,8,0:0:0:0:
448,172,8023,1,8,0:0:0:0:
448,256,8211,1,0,0:0:0:0:
448,172,8398,1,8,0:0:0:0:
288,96,8773,1,8,0:0:0:0:
352,160,8961,1,0,0:0:0:0:
448,192,9336,1,0,0:0:0:0:
448,192,9711,1,0,0:0:0:0:
448,192,9898,1,8,0:0:0:0:
352,192,10086,1,8,0:0:0:0:
480,256,10461,1,8,0:0:0:0:
479,177,10836,1,8,0:0:0:0:
479,177,11023,1,8,0:0:0:0:
395,164,11211,1,0,0:0:0:0:
479,177,11398,1,8,0:0:0:0:
325,376,11961,1,0,0:0:0:0:
465,166,12523,1,8,0:0:0:0:
419,236,12711,1,8,0:0:0:0:
456,218,13461,1,0,0:0:0:0:
465,166,14211,1,0,0:0:0:0:
465,166,14586,1,0,0:0:0:0:
497,186,14773,1,8,0:0:0:0:
497,186,14961,1,8,0:0:0:0:
497,186,15336,1,0,0:0:0:0:
497,186,15523,1,0,0:0:0:0:
416,320,15898,1,8,0:0:0:0:
497,186,16461,1,8,0:0:0:0:
245,178,17023,1,0,0:0:0:0:
497,186,17211,1,0,0:0:0:0:
497,186,17398,1,0,0:0:0:0:
416,160,17586,1,8,0:0:0:0:
480,192,17773,1,8,0:0:0:0:
416,160,17961,1,0,0:0:0:0:
96,288,18711,1,8,0:0:0:0:
256,224,19086,1,8,0:0:0:0:
416,160,19461,1,0,0:0:0:0:
416,160,19836,1,8,0:0:0:0:
416,160,20023,1,8,0:0:0:0:
393,76,20586,1,8,0:0:0:0:
416,160,20961,1,0,0:0:0:0:
386,325,21336,1,8,0:0:0:0:
416,160,21711,1,0,0:0:0:0:
416,160,22086,1,8,0:0:0:0:
384,256,22273,1,8,0:0:0:0:
416,160,22461,1,0,0:0:0:0:
448,320,22836,1,0,0:0:0:0:
451,169,23211,1,8,0:0:0:0:
451,169,23586,1,0,0:0:0:0:
288,210,23961,1,8,0:0:0:0:
307,204,24007,1,8,0:0:0:0:
256,192,24148,12,0,26773,0:0:0:0:
416,192,26961,5,0,0:0:0:0:
455,186,27048,1,0,0:0:0:0:
455,186,27135,1,0,0:0:0:0:
455,186,27222,1,0,0:0:0:0:
416,192,27309,1,8,0:0:0:0:
416,192,27397,1,8,0:0:0:0:
376,179,27484,1,0,0:0:0:0:
336,166,27571,1,0,0:0:0:0:
376,179,27658,1,8,0:0:0:0:
455,186,27745,1,8,0:0:0:0:
376,179,27833,1,8,0:0:0:0:
376,179,27920,1,8,0:0:0:0:
455,186,28007,1,8,0:0:0:0:
455,186,28094,1,8,0:0:0:0:
376,179,28181,1,8,0:0:0:0:
349,92,28356,1,4,0:0:0:0:
376,179,28530,1,0,0:0:0:0:
414,169,28705,1,8,0:0:0:0:
414,169,28879,1,0,0:0:0:0:
414,169,28966,1,0,0:0:0:0:
456,184,29054,1,8,0:0:0:0:
376,179,29228,1,8,0:0:0:0:
376,179,29315,1,8,0:0:0:0:
376,179,29402,1,0,0:0:0:0:
376,179,29577,1,0,0:0:0:0:
376,179,29926,1,8,0:0:0:0:
376,179,30100,1,8,0:0:0:0:
414,169,30274,1,0,0:0:0:0:
414,169,30362,1,0,0:0:0:0:
414,169,30449,1,0,0:0:0:0:
376,179,30536,1,8,0:0:0:0:
414,169,30623,1,0,0:0:0:0:
414,169,30711,1,0,0:0:0:0:
414,169,30798,1,8,0:0:0:0:
324,161,30972,1,8,0:0:0:0:
414,169,31059,1,8,0:0:0:0:
376,179,31147,1,4,0:0:0:0:
448,256,31321,1,0,0:0:0:0:
414,169,31495,1,8,0:0:0:0:
414,169,31670,1,8,0:0:0:0:
414,169,31844,1,0,0:0:0:0:
460,173,31931,1,8,0:0:0:0:
414,169,32019,1,0,0:0:0:0:
414,169,32106,1,0,0:0:0:0:
414,169,32193,1,8,0:0:0:0:
414,169,32367,1,0,0:0:0:0:
234,180,32716,1,8,0:0:0:0:
414,169,32891,1,0,0:0:0:0:
384,128,33065,1,0,0:0:0:0:
384,128,33152,1,0,0:0:0:0:
414,169,33240,1,8,0:0:0:0:
414,169,33327,1,8,0:0:0:0:
369,170,33414,1,0,0:0:0:0:
384,128,33501,1,8,0:0:0:0:
414,160,33588,1,0,0:0:0:0:
368,163,33676,1,8,0:0:0:0:
414,169,33763,1,8,0:0:0:0:
414,169,33937,1,4,0:0:0:0:
414,169,34112,1,0,0:0:0:0:
414,169,34286,1,8,0:0:0:0:
458,167,34461,1,8,0:0:0:0:
458,167,34548,1,8,0:0:0:0:
458,167,34635,1,0,0:0:0:0:
372,139,34809,1,0,0:0:0:0:
372,139,34897,1,8,0:0:0:0:
414,169,34984,1,0,0:0:0:0:
414,169,35158,1,0,0:0:0:0:
326,145,35507,1,8,0:0:0:0:
326,145,35681,1,8,0:0:0:0:
352,224,35856,1,0,0:0:0:0:
416,192,35943,1,0,0:0:0:0:
371,190,36030,1,0,0:0:0:0:
371,190,36117,1,8,0:0:0:0:
371,190,36205,1,8,0:0:0:0:
380,165,36292,1,0,0:0:0:0:
380,165,36379,1,8,0:0:0:0:
326,145,36554,1,0,0:0:0:0:
326,145,36641,1,0,0:0:0:0:
352,160,36728,1,12,0:0:0:0:
448,192,36902,1,0,0:0:0:0:
352,160,37077,1,0,0:0:0:0:
352,160,37251,1,12,0:0:0:0:
384,128,37600,1,8,0:0:0:0:
414,169,37774,1,4,0:0:0:0:
414,169,38298,1,0,0:0:0:0:
414,169,38472,1,8,0:0:0:0:
414,169,38647,1,0,0:0:0:0:
414,169,38821,1,8,0:0:0:0:
414,169,38908,1,0,0:0:0:0:
414,169,38995,1,0,0:0:0:0:
414,169,39083,1,0,0:0:0:0:
384,192,39170,1,8,0:0:0:0:
414,169,39257,1,0,0:0:0:0:
414,169,39344,1,8,0:0:0:0:
414,169,39431,1,8,0:0:0:0:
288,128,39693,1,0,0:0:0:0:
458,177,39867,1,12,0:0:0:0:
414,169,40042,1,0,0:0:0:0:
384,192,40129,1,0,0:0:0:0:
384,192,40216,1,8,0:0:0:0:
384,192,40304,1,0,0:0:0:0:
414,169,40391,1,8,0:0:0:0:
369,163,40478,1,8,0:0:0:0:
414,169,40565,1,0,0:0:0:0:
384,96,40740,1,0,0:0:0:0:
369,163,41088,1,8,0:0:0:0:
369,163,41263,1,8,0:0:0:0:
414,169,41437,1,0,0:0:0:0:
387,132,41524,1,0,0:0:0:0:
387,132,41612,1,8,0:0:0:0:
414,169,41699,1,8,0:0:0:0:
414,169,41786,1,0,0:0:0:0:
414,169,41873,1,8,0:0:0:0:
369,163,41961,1,8,0:0:0:0:
369,163,42135,1,8,0:0:0:0:
369,163,42222,1,8,0:0:0:0:
369,163,42309,1,4,0:0:0:0:
448,224,42484,1,0,0:0:0:0:
448,224,42571,1,0,0:0:0:0:
369,163,42658,1,8,0:0:0:0:
448,192,42833,1,8,0:0:0:0:
413,170,43007,1,0,0:0:0:0:
413,170,43094,1,8,0:0:0:0:
413,170,43181,1,8,0:0:0:0:
413,170,43269,1,0,0:0:0:0:
413,170,43356,1,8,0:0:0:0:
369,163,43530,1,0,0:0:0:0:
369,163,43879,1,8,0:0:0:0:
456,160,44054,1,0,0:0:0:0:
413,170,44228,1,8,0:0:0:0:
413,170,44315,1,0,0:0:0:0:
413,170,44402,1,8,0:0:0:0:
369,163,44490,1,8,0:0:0:0:
413,170,44577,1,0,0:0:0:0:
413,170,44664,1,8,0:0:0:0:
413,170,44751,1,0,0:0:0:0:
369,163,44838,1,8,0:0:0:0:
369,163,44926,1,8,0:0:0:0:
369,163,45100,1,4,0:0:0:0:
448,192,45274,1,0,0:0:0:0:
448,192,45362,1,0,0:0:0:0:
413,170,45449,1,8,0:0:0:0:
413,170,45623,1,0,0:0:0:0:
352,128,45798,1,8,0:0:0:0:
448,160,45885,1,8,0:0:0:0:
448,160,45972,1,0,0:0:0:0:
448,192,46059,1,0,0:0:0:0:
413,170,46147,1,8,0:0:0:0:
413,170,46321,1,0,0:0:0:0:
261,72,46670,1,8,0:0:0:0:
413,170,46844,1,8,0:0:0:0:
413,170,47019,1,0,0:0:0:0:
413,170,47106,1,0,0:0:0:0:
413,170,47193,1,8,0:0:0:0:
413,170,47280,1,0,0:0:0:0:
413,170,47367,1,0,0:0:0:0:
413,170,47455,1,8,0:0:0:0:
413,170,47542,1,8,0:0:0:0:
413,170,47716,1,0,0:0:0:0:
413,170,47804,1,0,0:0:0:0:
416,160,47891,1,12,0:0:0:0:
326,165,48065,1,0,0:0:0:0:
358,93,48240,1,0,0:0:0:0:
404,171,48414,1,12,0:0:0:0:
413,170,48763,1,8,0:0:0:0:
404,171,48937,1,4,0:0:0:0:
404,171,49286,1,8,0:0:0:0:
358,93,49461,1,0,0:0:0:0:
383,129,49548,1,0,0:0:0:0:
383,129,49635,1,8,0:0:0:0:
383,129,49809,1,0,0:0:0:0:
367,200,49984,1,8,0:0:0:0:
410,188,50071,1,0,0:0:0:0:
410,188,50158,1,0,0:0:0:0:
410,188,50245,1,8,0:0:0:0:
410,188,50333,1,0,0:0:0:0:
404,175,50420,1,8,0:0:0:0:
448,160,50507,1,8,0:0:0:0:
448,160,50594,1,8,0:0:0:0:
377,155,50681,1,4,0:0:0:0:
448,160,50856,1,8,0:0:0:0:
448,160,51030,1,8,0:0:0:0:
448,160,51205,1,0,0:0:0:0:
404,175,51554,1,8,0:0:0:0:
404,175,51728,1,0,0:0:0:0:
404,175,51902,1,0,0:0:0:0:
404,175,52774,1,8,0:0:0:0:
382,159,53123,1,0,0:0:0:0:
448,224,53298,1,0,0:0:0:0:
404,175,53385,1,8,0:0:0:0:
423,166,53472,1,0,0:0:0:0:
373,97,53647,1,0,0:0:0:0:
423,166,53821,1,8,0:0:0:0:
423,166,53995,1,0,0:0:0:0:
308,43,54344,1,8,0:0:0:0:
376,91,54519,1,0,0:0:0:0:
444,139,54693,1,0,0:0:0:0:
50,285,55565,1,8,0:0:0:0:
216,260,55914,1,0,0:0:0:0:
354,174,56088,1,8,0:0:0:0:
418,153,56176,1,8,0:0:0:0:
354,174,56263,1,0,0:0:0:0:
368,141,56437,1,8,0:0:0:0:
416,224,56612,1,8,0:0:0:0:
469,162,56786,1,0,0:0:0:0:
418,153,57135,1,8,0:0:0:0:
469,162,57309,1,0,0:0:0:0:
469,162,57484,1,0,0:0:0:0:
133,148,58181,1,8,0:0:0:0:
175,149,58269,1,8,0:0:0:0:
216,151,58356,1,8,0:0:0:0:
299,159,58530,1,0,0:0:0:0:
383,161,58705,1,8,0:0:0:0:
466,166,58879,1,8,0:0:0:0:
392,206,59054,1,4,0:0:0:0:
256,192,59228,12,0,63240,0:0:0:0:
