osu file format v14

[General]
AudioFilename: audio.mp3
AudioLeadIn: 0
PreviewTime: 28355
Countdown: 0
SampleSet: Soft
StackLeniency: 0.2
Mode: 0
LetterboxInBreaks: 0
WidescreenStoryboard: 1

[Editor]
DistanceSpacing: 0.3
BeatDivisor: 4
GridSize: 32
TimelineZoom: 1.9

[Metadata]
Title:Hanami ON THE RIFT (PV ver.)
TitleUnicode:花見 ON THE RIFT (PV ver.)
Artist:League of Legends
ArtistUnicode:リーグ・オブ・レジェンド
Creator:Log Off Now
Version:Lasse's Expert
Source:League of Legends
Tags:riot games japan dnb drum and bass sakura event akitoshi hootowlstar hos lasse
BeatmapID:1444745
BeatmapSetID:589691

[Difficulty]
HPDrainRate:7
CircleSize:4.3
OverallDifficulty:8.4
ApproachRate:9.2
SliderMultiplier:1.92
SliderTickRate:1

[Events]
//Background and Video events
0,0,"yasuoiguess.jpg",0,0
//Break Periods
//Storyboard Layer 0 (Background)
//Storyboard Layer 1 (Fail)
//Storyboard Layer 2 (Pass)
//Storyboard Layer 3 (Foreground)
//Storyboard Sound Samples

[TimingPoints]
1460,375,4,2,21,30,1,0
1460,-200,4,2,21,30,0,0
13460,-166.666666666667,4,2,21,34,0,0
24006,-166.666666666667,4,2,21,10,0,0
26960,348.837209302326,4,2,22,38,1,0
27047,-100,4,2,22,40,0,0
27134,-100,4,2,22,42,0,0
27221,-100,4,2,22,44,0,0
27308,-100,4,2,22,46,0,0
27396,-100,4,2,22,48,0,0
27483,-100,4,2,22,50,0,0
27570,-100,4,2,22,52,0,0
27657,-100,4,2,22,54,0,0
27744,-100,4,2,22,56,0,0
27832,-100,4,2,22,58,0,0
27919,-100,4,2,22,60,0,0
28006,-100,4,2,22,62,0,0
28093,-100,4,2,22,64,0,0
28180,-100,4,2,22,66,0,0
28268,-100,4,2,22,68,0,0
28355,-83.3333333333333,4,2,22,70,0,1
29576,-62.5,4,2,22,70,0,1
29925,-83.3333333333333,4,2,22,70,0,1
31146,-71.4285714285714,4,2,22,70,0,1
31320,-83.3333333333333,4,2,22,70,0,1
32366,-71.4285714285714,4,2,22,70,0,1
32715,-83.3333333333333,4,2,22,70,0,1
32890,-83.3333333333333,4,2,22,70,0,1
35157,-62.5,4,2,22,70,0,1
35419,-83.3333333333333,4,2,22,70,0,1
36553,-66.6666666666667,4,2,22,70,0,1
36727,-66.6666666666667,4,2,22,74,0,1
37250,-58.8235294117647,4,2,22,74,0,1
37599,-200,4,2,22,70,0,1
37686,-200,4,2,21,5,0,1
37773,-50,4,2,22,78,0,1
38122,-83.3333333333333,4,2,22,60,0,1
38820,-100,4,2,22,70,0,1
39430,-200,4,2,22,70,0,1
39692,-200,4,2,22,60,0,1
39866,-45.4545454545455,4,2,22,70,0,1
40215,-76.9230769230769,4,2,22,70,0,1
40739,-58.8235294117647,4,2,22,70,0,1
41000,-76.9230769230769,4,2,22,70,0,1
42308,-66.6666666666667,4,2,22,70,0,1
42483,-76.9230769230769,4,2,22,70,0,1
43529,-62.5,4,2,22,70,0,1
43878,-76.9230769230769,4,2,22,70,0,1
45099,-66.6666666666667,4,2,22,70,0,1
45273,-76.9230769230769,4,2,22,70,0,1
46320,-58.8235294117647,4,2,22,70,0,1
46669,-76.9230769230769,4,2,22,70,0,1
47715,-62.5,4,2,22,74,0,1
48413,-55.5555555555556,4,2,22,74,0,1
48762,-200,4,2,22,70,0,1
48849,-200,4,2,21,5,0,1
48936,-47.6190476190476,4,2,22,78,0,1
49285,-76.9230769230769,4,2,22,70,0,1
50680,-166.666666666667,4,2,21,40,0,0
51553,-166.666666666667,4,2,21,40,0,0
51901,-833.333333333333,4,2,21,40,0,0
53297,-166.666666666667,4,2,21,40,0,0
54692,-833.333333333333,4,2,21,40,0,0
56087,-166.666666666667,4,2,21,40,0,0
57483,-666.666666666667,4,2,21,40,0,0

[Colours]
Combo1 : 255,198,64
Combo2 : 192,192,192
Combo3 : 128,128,128
Combo4 : 255,0,0
Combo5 : 255,128,0

[HitObjects]
153,108,1460,6,0,P|109:95|49:100,2,96,2|8|8,0:1|0:0|0:0,0:0:0:0:
238,224,2585,1,8,0:0:0:0:
240,214,2772,1,8,0:0:0:0:
268,290,2960,1,2,0:0:0:0:
334,139,3335,5,8,0:0:0:0:
331,148,3522,2,0,P|285:137|236:103,1,96,2|2,0:0|0:0,0:0:0:0:
244,111,4460,2,0,P|290:122|330:147,1,96,2|0,0:0|0:0,0:0:0:0:
371,270,5210,53,8,0:0:0:0:
377,277,5397,1,8,0:0:0:0:
444,239,5585,1,2,0:0:0:0:
451,256,5772,1,2,0:0:0:0:
454,264,5960,6,0,L|458:160,1,96,8|2,0:0|0:0,0:0:0:0:
395,40,6710,1,8,0:0:0:0:
394,49,6897,1,8,0:0:0:0:
326,11,7085,1,2,0:0:0:0:
247,152,7460,53,2,0:0:0:0:
165,14,7835,1,2,0:0:0:0:
109,62,8022,1,2,0:0:0:0:
109,71,8210,1,8,0:0:0:0:
170,21,8397,1,2,0:0:0:0:
247,152,8772,5,2,0:0:0:0:
249,142,8960,2,0,P|202:127|156:163,1,96,8|2,0:0|0:0,0:0:0:0:
109,297,9710,1,2,0:0:0:0:
110,287,9897,1,2,0:0:0:0:
151,358,10085,1,8,0:0:0:0:
241,228,10460,53,8,0:0:0:0:
308,370,10835,1,2,0:0:0:0:
365,326,11022,1,2,0:0:0:0:
366,316,11210,1,8,0:0:0:0:
299,366,11397,1,2,0:0:0:0:
299,366,11960,6,0,P|281:315|303:257,1,96,2|0,0:0|0:0,0:0:0:0:
402,109,12522,1,2,0:0:0:0:
490,289,12710,1,2,0:0:0:0:
490,289,13460,54,0,P|430:278|372:269,1,115.199996484375,2|8,0:1|0:0,0:0:0:0:
304,123,14210,1,2,0:0:0:0:
182,231,14585,1,2,0:0:0:0:
179,219,14772,1,2,0:0:0:0:
160,304,14960,1,8,0:0:0:0:
38,187,15335,5,8,0:0:0:0:
46,178,15522,2,0,P|55:118|50:58,1,115.199996484375,8|8,0:0|0:0,0:0:0:0:
51,64,16460,2,0,P|42:124|47:184,1,115.199996484375,2|0,0:0|0:0,0:0:0:0:
94,272,17210,53,8,0:0:0:0:
102,264,17397,1,8,0:0:0:0:
151,318,17585,1,2,0:0:0:0:
156,216,17772,1,2,0:0:0:0:
165,222,17960,6,0,P|217:228|261:180,1,115.199996484375,8|0,0:0|0:0,0:0:0:0:
473,158,18710,2,0,P|421:152|377:200,1,115.199996484375,2|8,0:0|0:0,0:0:0:0:
322,334,19460,53,8,0:0:0:0:
460,302,19835,1,2,0:0:0:0:
459,314,20022,1,8,0:0:0:0:
464,199,20210,2,0,L|459:315,1,115.199996484375,8|0,0:0|0:0,0:0:0:0:
286,135,20960,6,0,P|334:116|405:131,1,115.199996484375,2|8,0:0|0:0,0:0:0:0:
128,236,21710,2,0,P|176:255|247:240,1,115.199996484375,2|8,0:0|0:0,0:0:0:0:
395,125,22460,54,0,P|347:106|276:121,1,115.199996484375,2|8,0:0|0:0,0:0:0:0:
472,242,23210,2,0,P|424:261|353:246,1,115.199996484375,2|8,0:0|0:0,0:0:0:0:
106,175,23960,22,0,L|104:150,2,14.3999995605469,6|2|2,0:1|0:0|0:1,0:0:0:0:
136,335,26960,37,0,1:3:0:0:
136,335,27047,1,0,1:3:0:0:
136,335,27134,1,0,1:3:0:0:
136,335,27221,1,0,1:3:0:0:
135,334,27308,5,0,1:0:0:0:
118,318,27396,1,0,1:0:0:0:
109,296,27483,1,0,1:0:0:0:
109,273,27570,1,0,1:0:0:0:
119,251,27657,53,0,1:0:0:0:
138,233,27744,1,0,1:0:0:0:
148,208,27832,1,0,1:0:0:0:
148,182,27919,1,0,1:0:0:0:
137,158,28006,5,0,1:0:0:0:
116,138,28093,1,0,1:0:0:0:
105,110,28180,1,0,1:0:0:0:
105,82,28268,1,0,1:0:0:0:
117,55,28355,22,0,L|238:47,1,115.199996484375,6|2,3:2|0:0,0:0:0:0:
432,122,28704,2,0,P|413:102|410:58,1,57.5999982421876,10|0,0:2|0:2,0:2:0:0:
284,113,28878,2,0,P|305:96|314:53,1,57.5999982421876,2|0,0:2|0:2,0:2:0:0:
346,268,29053,6,0,L|353:153,1,115.199996484375,2|0,3:2|0:2,0:2:0:0:
388,87,29314,1,2,0:2:0:0:
406,73,29401,1,8,0:2:0:0:
476,251,29576,54,2,B|396:242|396:242|345:269|345:269|249:259,1,230.4,2|0,3:1|0:2,0:1:0:0:
230,256,29925,1,2,3:2:0:0:
409,375,30099,2,0,B|415:348|415:348|413:318,1,57.5999982421876,10|0,0:2|0:2,0:2:0:0:
324,188,30273,5,2,0:2:0:0:
311,168,30361,1,2,0:2:0:0:
307,145,30448,1,2,3:2:0:0:
311,122,30535,2,0,B|317:95|317:95|315:65,1,57.5999982421876,8|0,0:2|3:2,0:2:0:0:
201,122,30710,1,2,0:2:0:0:
201,122,30797,2,0,B|195:95|195:95|197:65,1,57.5999982421876,8|0,0:2|0:2,0:2:0:0:
78,98,30971,2,0,B|84:71|84:71|82:41,1,57.5999982421876,2|0,0:2|0:2,0:2:0:0:
35,207,31146,54,0,P|90:172|154:189,1,134.399995898438,4|0,3:2|0:2,0:2:0:0:
184,254,31407,1,2,0:2:0:0:
186,276,31494,1,10,0:2:0:0:
201,122,31669,1,2,0:2:0:0:
385,218,31843,6,0,P|331:200|280:223,1,115.199996484375,2|0,3:2|0:2,0:2:0:0:
264,293,32105,1,2,0:2:0:0:
262,315,32192,1,8,0:2:0:0:
414,285,32366,54,2,B|417:237|417:237|426:221|426:221|419:205|419:205|429:61,1,201.599993847656,2|0,3:2|0:2,0:1:0:0:
503,62,32715,5,2,3:2:0:0:
425,296,32890,2,2,B|429:239|429:239|438:223|438:223|431:207|431:207|437:118,1,172.799994726563,10|0,0:2|0:2,0:1:0:0:
349,98,33239,53,10,0:2:0:0:
329,86,33326,1,2,0:2:0:0:
306,82,33413,1,2,3:2:0:0:
283,87,33500,2,0,P|246:85|216:64,1,57.5999982421876,10|0,0:2|0:2,0:2:0:0:
356,207,33675,2,0,P|393:209|423:230,1,57.5999982421876,10|0,0:2|0:2,0:2:0:0:
214,310,33849,1,2,0:2:0:0:
199,293,33936,6,0,L|192:173,1,115.199996484375,6|2,3:2|0:2,0:2:0:0:
93,97,34285,2,0,P|113:115|118:159,1,57.5999982421876,10|0,0:2|0:2,0:2:0:0:
283,87,34460,2,0,P|265:107|264:152,1,57.5999982421876,2|0,0:2|0:2,0:2:0:0:
51,275,34634,54,0,L|44:159,1,115.199996484375,2|0,3:2|0:2,0:2:0:0:
16,92,34896,1,2,0:2:0:0:
4,72,34983,1,8,0:2:0:0:
166,42,35157,6,2,B|217:54|253:35|253:35|288:48|288:48|332:25|390:37,1,230.4,2|0,3:1|0:2,0:1:0:0:
410,49,35506,1,2,3:2:0:0:
249,177,35680,2,0,B|241:152|241:152|245:120,1,57.5999982421876,10|0,0:2|0:2,0:2:0:0:
375,254,35855,53,2,0:2:0:0:
377,230,35942,1,2,0:2:0:0:
389,210,36029,1,2,3:2:0:0:
406,195,36116,2,0,B|414:170|414:170|410:138,1,57.5999982421876,10|0,0:2|3:2,0:2:0:0:
253,181,36291,1,2,0:2:0:0:
253,181,36378,2,0,B|245:156|245:156|249:124,1,57.5999982421876,10|0,0:2|0:2,0:2:0:0:
391,364,36553,1,2,3:2:0:0:
351,346,36640,1,2,0:2:0:0:
308,341,36727,6,0,L|220:337,1,72.0000027465821,6|0,3:2|0:2,0:2:0:0:
177,128,36901,2,0,L|248:124,1,72.0000027465821,2|0,0:2|0:2,0:2:0:0:
125,329,37076,2,0,L|37:325,1,72.0000027465821,8|0,0:2|0:2,0:2:0:0:
22,100,37250,54,2,B|52:22|52:22|68:182,1,244.80000466919,6|0,3:2|0:2,0:1:0:0:
158,243,37599,22,0,L|161:217,1,24,10|0,0:2|0:2,0:2:0:0:
427,131,37773,38,2,B|390:18|390:18|360:281,1,384,6|0,3:2|0:2,0:1:0:0:
360,281,38297,21,0,3:2:0:0:
445,125,38471,2,0,L|404:4,1,115.199996484375,10|0,0:2|0:2,0:2:0:0:
236,94,38820,6,0,L|171:85,1,48,0|0,1:2|1:2,0:2:0:0:
126,43,38994,2,0,L|61:34,1,48,0|0,1:2|1:2,0:2:0:0:
15,163,39169,21,2,1:2:0:0:
36,167,39256,1,2,1:2:0:0:
52,183,39343,1,2,1:2:0:0:
58,195,39430,22,2,L|136:190,1,72,2|2,0:2|0:2,1:1:0:0:
268,347,39866,22,0,P|241:312|254:239,1,105.600003222656,14|0,0:2|0:2,0:2:0:0:
245,115,40041,2,0,P|272:80|259:7,1,105.600003222656,2|0,0:2|0:2,0:2:0:0:
349,179,40215,6,0,L|477:169,1,124.79999428711,2|0,3:2|0:2,0:2:0:0:
504,92,40477,1,2,0:2:0:0:
509,67,40564,1,8,0:2:0:0:
245,115,40739,6,2,B|370:97|343:198|477:169,1,244.80000466919,2|0,3:1|0:2,0:1:0:0:
496,161,41087,1,2,3:2:0:0:
278,260,41262,2,0,B|268:229|285:199,1,62.3999971435548,10|0,0:2|0:2,0:2:0:0:
460,309,41436,53,2,0:2:0:0:
452,284,41523,1,2,0:2:0:0:
437,264,41611,1,2,3:2:0:0:
416,249,41698,2,0,B|389:231|355:239,1,62.3999971435548,10|0,0:2|3:2,0:2:0:0:
298,338,41872,1,2,0:2:0:0:
298,338,41960,2,0,B|324:355|358:347,1,62.3999971435548,10|0,0:2|0:2,0:2:0:0:
284,199,42134,2,0,B|258:182|224:190,1,62.3999971435548,2|0,0:2|0:2,0:2:0:0:
72,273,42308,6,0,B|116:249|157:276|157:276|187:279|206:257,1,144.000005493164,6|0,3:2|0:2,0:2:0:0:
224,190,42570,1,2,0:2:0:0:
217,166,42657,1,8,0:2:0:0:
112,336,42832,1,2,0:2:0:0:
250,101,43006,54,0,B|213:83|174:103|174:103|147:106|131:86,1,124.79999428711,2|0,3:2|0:2,0:2:0:0:
87,34,43268,1,2,0:2:0:0:
73,13,43355,1,8,0:2:0:0:
64,240,43529,6,2,B|70:184|70:184|108:140|108:140|116:77|116:77|83:29,1,230.4,2|0,3:2|0:2,0:1:0:0:
32,101,43878,53,2,3:2:0:0:
143,221,44053,2,0,L|228:221,1,62.3999971435548,10|0,0:2|0:2,0:2:0:0:
313,73,44227,5,2,0:2:0:0:
302,95,44314,1,2,0:2:0:0:
299,118,44401,2,0,P|299:149|292:179,1,62.3999971435548,10|0,0:2|0:2,0:2:0:0:
163,89,44576,1,2,3:2:0:0:
163,89,44663,2,0,P|189:72|219:64,1,62.3999971435548,10|0,0:2|0:2,0:2:0:0:
205,221,44837,2,0,P|177:206|155:184,1,62.3999971435548,10|0,0:2|0:2,0:2:0:0:
302,95,45012,1,2,0:2:0:0:
299,118,45099,54,0,B|282:64|305:1|305:1|312:37,1,144.000005493164,6|2,3:2|0:2,0:2:0:0:
405,205,45448,2,0,L|345:187,1,62.3999971435548,10|0,0:2|0:2,0:2:0:0:
205,221,45622,2,0,L|262:195,1,62.3999971435548,2|0,0:2|0:2,0:2:0:0:
301,383,45797,6,0,B|302:361|297:340|297:340|302:327|312:316|312:316|305:290|308:263,1,124.79999428711,2|0,3:2|0:2,0:2:0:0:
345,187,46058,1,2,0:2:0:0:
352,163,46146,1,8,0:2:0:0:
454,344,46320,54,2,B|399:325|399:325|354:349|354:349|184:335,1,244.80000466919,2|0,3:1|0:2,0:1:0:0:
193,335,46669,1,0,3:2:0:0:
46,355,46843,2,0,B|57:326|57:326|51:277,1,62.3999971435548,10|0,0:2|0:2,0:2:0:0:
0,120,47018,5,2,0:2:0:0:
22,130,47105,1,2,0:2:0:0:
46,131,47192,1,2,3:2:0:0:
70,128,47279,2,0,P|98:115|136:110,1,62.3999971435548,10|0,0:2|3:2,0:2:0:0:
237,194,47454,1,2,0:2:0:0:
237,194,47541,2,0,P|206:189|178:175,1,62.3999971435548,10|0,2:2|0:2,0:2:0:0:
376,2,47715,1,2,0:2:0:0:
336,26,47803,1,2,0:2:0:0:
317,68,47890,54,0,L|308:153,1,76.8,4|0,3:2|0:2,0:2:0:0:
450,268,48064,2,0,L|459:183,1,76.8,2|0,0:2|0:2,0:2:0:0:
294,283,48239,2,0,L|285:368,1,76.8,10|0,0:2|0:2,0:2:0:0:
504,92,48413,6,2,B|482:18|482:18|442:138|442:138|457:191,1,259.199992089844,6|0,3:2|0:2,0:1:0:0:
372,254,48762,6,0,L|367:218,1,24,10|0,0:2|0:2,0:2:0:0:
146,98,48936,54,2,B|171:10|171:10|219:152|219:152|201:216,1,302.399990771485,6|0,0:2|0:2,3:1:0:0:
193,234,49285,37,8,0:2:0:0:
54,114,49460,1,0,3:2:0:0:
243,141,49634,5,8,0:2:0:0:
44,225,49808,1,0,3:2:0:0:
255,320,49983,53,8,0:2:0:0:
146,98,50157,1,0,3:2:0:0:
137,116,50244,2,0,P|130:152|139:181,1,62.3999971435548,8|0,0:2|3:2,0:2:0:0:
359,123,50419,1,10,3:2:0:0:
352,103,50506,2,2,P|330:72|304:58,1,62.3999971435548,10|0,0:2|0:2,0:2:0:0:
182,288,50680,38,0,P|195:253|187:213,2,57.5999982421876,6|8|8,3:2|0:0|0:0,0:0:0:0:
83,193,51204,2,0,P|108:180|136:176,1,57.5999982421876,2|8,0:0|0:1,0:0:0:0:
103,309,51553,2,0,P|78:295|62:272,1,57.5999982421876,2|0,0:0|3:0,0:0:0:0:
182,288,51901,6,0,P|193:262|194:234,1,57.5999982421876,2|8,3:2|0:1,0:0:0:0:
250,113,53297,53,2,0:0:0:0:
250,113,53384,1,2,0:0:0:0:
250,113,53471,2,0,P|273:141|312:154,2,57.5999982421876,2|8|8,3:2|0:0|0:0,0:0:0:0:
382,74,53994,2,0,P|380:102|370:128,1,57.5999982421876,2|8,0:0|0:1,0:0:0:0:
272,34,54343,2,0,P|296:19|324:16,1,57.5999982421876,2|0,0:0|3:0,0:0:0:0:
250,113,54692,6,0,P|267:135|290:150,1,57.5999982421876,2|8,3:2|2:1,0:0:0:0:
447,240,56087,53,2,0:0:0:0:
447,240,56175,1,2,0:0:0:0:
447,240,56262,2,0,P|410:246|379:273,2,57.5999982421876,2|8|8,3:2|0:0|0:0,0:0:0:0:
415,374,56785,2,0,P|391:358|373:336,1,57.5999982421876,2|8,0:0|0:1,0:0:0:0:
504,298,57134,2,0,P|504:326|492:352,1,57.5999982421876,2|0,0:0|3:0,0:0:0:0:
447,240,57483,6,0,P|418:243|394:256,1,57.5999982421876,2|2,3:2|0:0,0:0:0:0:
393,256,58268,1,2,0:0:0:0:
393,256,58355,53,10,0:1:0:0:
338,316,58529,1,2,0:0:0:0:
273,224,58704,1,2,0:0:0:0:
205,333,58878,1,2,0:0:0:0:
139,197,59053,21,6,3:1:0:0:
