osu file format v14

[General]
AudioFilename: audio.mp3
AudioLeadIn: 0
PreviewTime: 28355
Countdown: 0
SampleSet: Soft
StackLeniency: 0.5
Mode: 0
LetterboxInBreaks: 0
WidescreenStoryboard: 0

[Editor]
Bookmarks: 28355,50680,59053,63936
DistanceSpacing: 0.4
BeatDivisor: 4
GridSize: 8
TimelineZoom: 1

[Metadata]
Title:Hanami ON THE RIFT (PV ver.)
TitleUnicode:花見 ON THE RIFT (PV ver.)
Artist:League of Legends
ArtistUnicode:リーグ・オブ・レジェンド
Creator:Log Off Now
Version:Insane
Source:League of Legends
Tags:riot games japan dnb drum and bass sakura event akitoshi hootowlstar hos lasse
BeatmapID:1248136
BeatmapSetID:589691

[Difficulty]
HPDrainRate:6
CircleSize:4
OverallDifficulty:7.8
ApproachRate:9
SliderMultiplier:1.8
SliderTickRate:1

[Events]
//Background and Video events
0,0,"yasuoiguess.jpg",0,0
//Break Periods
//Storyboard Layer 0 (Background)
//Storyboard Layer 1 (Fail)
//Storyboard Layer 2 (Pass)
//Storyboard Layer 3 (Foreground)
//Storyboard Sound Samples

[TimingPoints]
1460,375,4,2,1,30,1,0
1460,-166.666666666667,4,2,1,30,0,0
22460,-200,4,2,1,30,0,0
26960,348.837209302326,4,2,1,50,1,0
28180,-100,4,2,1,20,0,0
28355,-100,4,2,3,70,0,1
29576,-83.3333333333333,4,2,3,70,0,1
30448,-100,4,2,3,70,0,1
32366,-83.3333333333333,4,2,3,70,0,1
33239,-100,4,2,3,70,0,1
35157,-83.3333333333333,4,2,3,70,0,1
36029,-100,4,2,3,70,0,1
37773,-125,4,2,3,70,0,1
38122,-100,4,2,3,70,0,1
39866,-76.9230769230769,4,2,3,70,0,1
40041,-100,4,2,3,70,0,1
40739,-83.3333333333333,4,2,3,70,0,1
41611,-100,4,2,3,70,0,1
43529,-83.3333333333333,4,2,3,70,0,1
45099,-100,4,2,3,70,0,1
46320,-83.3333333333333,4,2,3,70,0,1
47192,-100,4,2,3,70,0,1
48936,-125,4,2,3,70,0,1
49285,-100,4,2,3,70,0,1
50680,-142.857142857143,4,2,1,40,0,0

[Colours]
Combo1 : 255,198,64
Combo2 : 151,151,255
Combo3 : 100,177,255
Combo4 : 215,0,0
Combo5 : 255,128,0

[HitObjects]
184,224,1460,6,0,L|192:344,1,107.999996704102,2|0,0:0|0:0,0:0:0:0:
298,253,2210,2,0,L|306:133,1,107.999996704102,0|2,0:0|0:0,0:0:0:0:
309,113,2772,1,0,0:0:0:0:
242,44,2960,6,0,P|184:25|133:39,1,107.999996704102,2|0,0:0|0:0,0:0:0:0:
86,128,3522,2,0,P|118:140|153:137,1,53.9999983520508,2|0,0:0|0:0,0:0:0:0:
184,124,3897,1,2,0:0:0:0:
184,124,4460,54,0,L|176:255,1,107.999996704102,2|0,0:0|0:0,0:0:0:0:
256,305,5022,1,0,0:0:0:0:
259,326,5210,1,0,0:0:0:0:
361,220,5398,1,2,0:0:0:0:
360,251,5585,1,2,0:0:0:0:
359,282,5773,1,2,0:0:0:0:
276,231,5960,6,0,P|213:250|163:237,1,107.999996704102
93,77,6710,1,2,0:0:0:0:
91,98,6897,1,2,0:0:0:0:
77,183,7085,1,2,0:0:0:0:
77,183,7460,54,0,P|129:175|180:193,1,107.999996704102,2|0,0:0|0:0,0:0:0:0:
273,257,8022,2,0,L|268:137,2,107.999996704102,2|2|2,0:0|0:0|0:0,0:0:0:0:
237,331,8960,2,0,P|190:346|125:339,1,107.999996704102
180,193,9710,1,2,0:0:0:0:
201,196,9897,1,2,0:0:0:0:
286,209,10085,1,2,0:0:0:0:
286,209,10460,6,0,P|300:155|288:103,1,107.999996704102,2|0,0:0|0:0,0:0:0:0:
199,52,11022,2,0,L|79:57,1,107.999996704102,2|0,0:0|0:0,0:0:0:0:
91,56,11960,54,0,P|77:110|89:162,1,107.999996704102,2|0,0:0|0:0,0:0:0:0:
144,240,12522,1,2,0:0:0:0:
208,128,12710,1,2,0:0:0:0:
208,128,13460,6,0,L|216:248,1,107.999996704102,2|0,0:0|0:0,0:0:0:0:
320,336,14210,2,0,L|328:216,1,107.999996704102,0|2,0:0|0:0,0:0:0:0:
329,195,14772,1,0,0:0:0:0:
385,113,14960,2,0,P|405:105|495:131,1,107.999996704102,2|0,0:0|0:0,0:0:0:0:
428,201,15522,2,0,P|408:209|353:205,1,53.9999983520508,2|0,0:0|0:0,0:0:0:0:
329,195,15897,1,2,0:0:0:0:
329,195,16460,54,0,L|337:315,1,107.999996704102,2|0,0:0|0:0,0:0:0:0:
237,338,17022,1,0,0:0:0:0:
233,359,17210,1,0,0:0:0:0:
229,380,17397,1,0,0:0:0:0:
139,275,17585,1,2,0:0:0:0:
140,306,17773,1,2,0:0:0:0:
237,248,17960,6,0,P|293:279|346:275,1,107.999996704102
433,166,18710,1,2,0:0:0:0:
464,297,19085,1,2,0:0:0:0:
436,182,19460,54,0,P|380:151|327:155,1,107.999996704102,2|2,0:0|0:0,0:0:0:0:
266,210,20022,1,2,0:0:0:0:
197,154,20210,2,0,L|204:39,1,107.999996704102
323,139,20960,6,0,L|330:254,1,107.999996704102,2|0,0:0|0:0,0:0:0:0:
232,344,21710,2,0,L|239:229,1,107.999996704102
252,103,22460,2,0,B|208:74|166:93|166:93|127:133|70:118,2,180,0|0|2,0:0|0:0|0:0,0:0:0:0:
256,192,24053,12,0,28180,2:2:0:0:
205,318,28355,5,4,1:2:0:0:
308,211,28529,1,0,0:0:0:0:
214,130,28704,2,0,L|220:237,1,90,8|0,0:0|0:0,0:0:0:0:
317,313,29053,2,0,L|323:205,1,90,0|0,1:2|0:0,0:0:0:0:
326,187,29314,1,0,0:0:0:0:
329,151,29401,1,8,0:0:0:0:
208,58,29576,6,0,P|215:145|220:246,1,161.999995056153,4|0,1:2|0:0,0:0:0:0:
221,253,29925,1,4,1:2:0:0:
143,116,30099,2,0,P|203:145|289:89,1,161.999995056153,12|0,0:2|0:0,0:0:0:0:
301,79,30448,5,0,1:0:0:0:
298,41,30535,1,8,0:0:0:0:
295,4,30622,1,0,1:0:0:0:
326,172,30797,1,8,0:0:0:0:
414,43,30971,1,0,0:0:0:0:
488,202,31146,37,4,1:2:0:0:
372,109,31320,1,0,0:0:0:0:
411,234,31494,2,0,B|422:279|422:279|400:347,1,90,8|0,0:0|0:0,0:0:0:0:
285,376,31843,2,0,B|274:330|274:330|282:289,1,90,0|0,1:2|0:0,0:0:0:0:
292,253,32105,1,0,0:0:0:0:
299,217,32192,1,8,0:0:0:0:
185,53,32366,6,0,P|192:140|197:241,1,161.999995056153,4|0,1:2|0:0,0:0:0:0:
198,248,32715,1,4,1:2:0:0:
124,166,32890,2,0,P|207:128|275:180,1,161.999995056153,12|0,0:0|0:0,0:0:0:0:
283,190,33239,5,10,0:0:0:0:
284,227,33326,1,0,0:0:0:0:
260,256,33413,1,0,1:2:0:0:
225,270,33500,1,10,0:0:0:0:
187,275,33587,1,0,0:0:0:0:
151,261,33675,1,10,0:0:0:0:
118,241,33762,1,2,0:0:0:0:
80,244,33849,1,2,0:0:0:0:
49,265,33936,37,6,1:2:0:0:
199,196,34111,1,0,0:0:0:0:
109,331,34285,1,8,0:0:0:0:
90,159,34460,1,0,0:0:0:0:
187,275,34634,2,0,B|234:281|234:281|292:264,1,90,0|0,1:2|0:0,0:0:0:0:
309,257,34896,1,0,0:0:0:0:
343,246,34983,1,8,0:0:0:0:
223,13,35157,6,0,P|229:93|234:174,1,161.999995056153,4|0,1:2|0:0,0:0:0:0:
236,208,35506,1,4,1:2:0:0:
369,84,35680,2,0,P|434:77|433:160,1,161.999995056153,12|0,0:0|0:0,0:0:0:0:
401,175,36029,5,0,1:2:0:0:
359,161,36116,1,8,0:0:0:0:
352,117,36204,1,0,1:2:0:0:
494,28,36378,1,8,0:0:0:0:
512,188,36553,1,0,1:2:0:0:
509,231,36640,1,0,0:0:0:0:
505,266,36727,38,0,L|497:367,1,90,4|0,1:2|0:0,0:0:0:0:
430,209,37076,1,8,0:0:0:0:
379,366,37250,6,0,L|371:265,1,90,4|0,1:2|0:0,0:0:0:0:
356,132,37599,1,8,0:0:0:0:
287,260,37773,6,0,P|221:248|265:191,1,144,4|0,1:2|0:0,0:0:0:0:
356,132,38297,37,0,1:2:0:0:
371,277,38471,1,8,0:0:0:0:
455,163,38646,1,0,1:2:0:0:
279,191,38820,5,8,0:0:0:0:
234,198,38907,1,8,0:0:0:0:
190,205,38994,1,8,0:0:0:0:
107,72,39169,1,8,0:0:0:0:
151,79,39256,1,8,0:0:0:0:
196,86,39343,1,8,0:0:0:0:
196,86,39866,6,0,L|74:68,1,116.999994644165,12|0,1:2|0:0,0:0:0:0:
7,184,40215,2,0,B|3:226|3:226|18:271,1,90,0|0,1:2|0:0,0:0:0:0:
31,305,40477,1,0,0:0:0:0:
42,338,40564,1,8,0:0:0:0:
202,250,40739,38,0,P|211:154|214:62,1,161.999995056153,4|0,1:2|0:0,0:0:0:0:
215,55,41088,1,4,1:2:0:0:
138,197,41262,2,0,P|208:168|279:225,1,161.999995056153,12|0,0:0|0:0,0:0:0:0:
289,244,41611,5,0,1:2:0:0:
286,288,41698,1,8,0:0:0:0:
283,332,41785,1,0,1:2:0:0:
348,175,41960,1,8,0:0:0:0:
202,250,42134,1,0,0:0:0:0:
364,312,42308,5,4,1:2:0:0:
274,213,42483,1,0,0:0:0:0:
418,135,42657,2,0,B|464:123|464:123|534:143,1,90,8|0,0:0|0:0,0:0:0:0:
443,286,43006,2,0,B|402:297|402:297|356:285,1,90,0|0,1:2|0:0,0:0:0:0:
342,249,43268,1,0,0:0:0:0:
336,213,43355,1,8,0:0:0:0:
204,55,43529,38,0,P|197:142|192:243,1,161.999995056153,4|0,1:2|0:0,0:0:0:0:
191,250,43878,1,4,1:2:0:0:
307,113,44053,2,0,P|363:106|400:151,1,107.999996704102,12|2,0:0|0:0,0:0:0:0:
395,182,44314,1,2,0:0:0:0:
369,216,44401,2,0,P|341:228|309:223,1,53.9999983520508,10|0,0:0|0:0,0:0:0:0:
190,179,44576,2,0,P|218:167|250:172,1,53.9999983520508,2|8,1:2|0:0,0:0:0:0:
194,274,44750,5,2,0:0:0:0:
147,263,44837,1,10,0:0:0:0:
111,230,44924,1,2,0:0:0:0:
96,185,45011,1,2,0:0:0:0:
105,137,45098,5,6,1:2:0:0:
213,55,45273,1,0,0:0:0:0:
261,192,45448,2,0,L|255:298,1,90,8|0,0:0|0:0,0:0:0:0:
375,205,45797,2,0,L|369:99,1,90,0|0,1:2|0:0,0:0:0:0:
366,79,46058,1,0,0:0:0:0:
362,42,46146,1,8,0:0:0:0:
490,173,46320,38,0,P|484:253|479:334,1,161.999995056153,4|0,1:2|0:0,0:0:0:0:
477,368,46669,1,4,1:2:0:0:
360,236,46843,2,4,P|295:229|296:312,1,161.999995056153,12|0,0:0|0:0,0:0:0:0:
328,327,47192,5,0,1:2:0:0:
370,313,47279,1,8,0:0:0:0:
377,269,47367,1,0,1:2:0:0:
304,141,47541,1,8,0:0:0:0:
182,197,47716,1,0,0:0:0:0:
185,240,47803,1,0,0:0:0:0:
189,275,47890,6,0,L|197:376,1,90,4|0,1:2|0:0,0:0:0:0:
268,228,48239,1,8,0:0:0:0:
100,208,48413,38,0,L|108:309,1,90,4|0,1:2|0:0,0:0:0:0:
179,161,48762,1,8,0:0:0:0:
11,141,48936,6,0,L|20:263,1,108,4|0,1:2|0:0,0:0:0:0:
22,284,49285,5,8,0:0:0:0:
199,205,49460,1,0,0:2:0:0:
89,360,49634,1,8,0:0:0:0:
92,177,49808,1,0,0:2:0:0:
202,319,49983,1,8,0:0:0:0:
300,186,50157,37,0,1:2:0:0:
297,150,50244,1,8,0:0:0:0:
180,59,50418,5,8,0:0:0:0:
182,94,50505,1,8,0:0:0:0:
191,273,50680,22,0,P|231:286|277:278,1,62.9999980773926,6|0,1:2|0:0,0:0:0:0:
344,248,51029,1,0,0:0:0:0:
444,302,51204,2,0,L|439:378,1,62.9999980773926,2|8,0:0|0:0,0:0:0:0:
348,310,51553,2,0,L|343:234,1,62.9999980773926,2|0,0:0|1:0,0:0:0:0:
334,129,51901,2,0,P|306:93|281:178,1,188.999994232178,2|0,1:2|0:0,0:0:0:0:
275,176,52773,1,8,0:0:0:0:
113,69,53297,5,2,0:0:0:0:
113,69,53384,1,2,0:0:0:0:
113,69,53471,2,0,P|118:132|113:151,1,62.9999980773926,2|0,1:2|0:0,0:0:0:0:
94,216,53820,1,2,0:0:0:0:
161,284,53994,2,0,L|234:278,1,62.9999980773926,2|8,0:0|0:0,0:0:0:0:
290,184,54343,2,0,L|227:189,1,62.9999980773926,2|0,0:0|1:0,0:0:0:0:
320,288,54692,2,0,P|356:314|357:226,1,188.999994232178,2|0,1:2|0:0,0:0:0:0:
360,226,55564,1,8,0:0:0:0:
458,57,56087,53,2,0:0:0:0:
458,57,56174,1,2,0:0:0:0:
458,57,56262,2,0,P|463:103|456:141,1,62.9999980773926,2|0,1:2|0:0,0:0:0:0:
375,176,56611,1,2,0:0:0:0:
289,109,56785,2,0,L|285:38,1,62.9999980773926,2|8,0:0|0:0,0:0:0:0:
378,113,57134,2,0,L|374:184,1,62.9999980773926,2|0,0:0|1:0,0:0:0:0:
357,317,57483,2,0,P|333:354|299:273,1,188.999994232178,2|0,1:2|0:0,0:0:0:0:
388,249,58180,5,2,0:0:0:0:
419,254,58267,1,2,0:0:0:0:
450,259,58355,2,0,P|487:261|527:256,1,62.9999980773926,10|0,0:0|0:0,0:0:0:0:
429,140,58704,2,0,P|397:137|366:140,1,62.9999980773926,2|0,0:0|0:0,0:0:0:0:
291,188,59053,1,4,3:0:0:0:
