osu file format v14

[General]
AudioFilename: audio.mp3
AudioLeadIn: 0
PreviewTime: 28355
Countdown: 0
SampleSet: Soft
StackLeniency: 0.5
Mode: 0
LetterboxInBreaks: 0
WidescreenStoryboard: 1

[Editor]
Bookmarks: 28355,50680,59053,63936
DistanceSpacing: 1
BeatDivisor: 4
GridSize: 8
TimelineZoom: 1

[Metadata]
Title:Hanami ON THE RIFT (PV ver.)
TitleUnicode:花見 ON THE RIFT (PV ver.)
Artist:League of Legends
ArtistUnicode:リーグ・オブ・レジェンド
Creator:Log Off Now
Version:Easy
Source:League of Legends
Tags:riot games japan dnb drum and bass sakura event akitoshi hootowlstar hos lasse
BeatmapID:1248771
BeatmapSetID:589691

[Difficulty]
HPDrainRate:2
CircleSize:3
OverallDifficulty:2
ApproachRate:3
SliderMultiplier:0.899999999999999
SliderTickRate:1

[Events]
//Background and Video events
0,0,"yasuoiguess.jpg",0,0
//Break Periods
//Storyboard Layer 0 (Background)
//Storyboard Layer 1 (Fail)
//Storyboard Layer 2 (Pass)
//Storyboard Layer 3 (Foreground)
//Storyboard Sound Samples

[TimingPoints]
1460,375,4,2,1,30,1,0
26960,348.837209302326,4,2,1,50,1,0
28355,-100,4,2,3,70,0,1
50680,-100,4,2,1,40,0,0

[Colours]
Combo1 : 255,198,64
Combo2 : 151,151,255
Combo3 : 100,177,255
Combo4 : 215,0,0
Combo5 : 255,128,0

[HitObjects]
56,128,1460,6,0,L|64:232,1,89.9999999999999,2|0,0:0|0:0,0:0:0:0:
136,272,2210,2,0,P|184:256|240:264,1,89.9999999999999,0|2,0:0|0:0,0:0:0:0:
304,296,2960,2,0,B|352:312|352:312|448:296,2,135,2|2|0,0:0|0:0|0:0,0:0:0:0:
296,208,4460,5,2,0:0:0:0:
192,64,5210,2,0,P|147:56|104:66,1,89.9999999999999,2|0,0:0|0:0,0:0:0:0:
42,133,5960,1,0,0:0:0:0:
165,266,6710,2,0,P|209:267|251:252,1,89.9999999999999,2|2,0:0|0:0,0:0:0:0:
318,191,7460,54,0,B|309:144|309:144|322:46,2,135,2|2|0,0:0|0:0|0:0,0:0:0:0:
341,278,8960,1,0,0:0:0:0:
192,176,9710,2,0,P|149:160|105:162,1,89.9999999999999,2|2,0:0|0:0,0:0:0:0:
40,225,10460,6,0,B|49:272|49:272|36:370,2,135,2|2|0,0:0|0:0|0:0,0:0:0:0:
19,137,11960,1,2,0:0:0:0:
183,62,12710,1,2,0:0:0:0:
343,142,13460,54,0,L|337:244,1,89.9999999999999,2|0,0:0|0:0,0:0:0:0:
290,308,14210,2,0,P|245:322|193:301,1,89.9999999999999,0|2,0:0|0:0,0:0:0:0:
130,259,14960,2,0,B|82:243|82:243|-1:256,2,135,2|2|0,0:0|0:0|0:0,0:0:0:0:
126,348,16460,5,2,0:0:0:0:
286,267,17210,2,0,P|293:222|286:178,1,89.9999999999999,0|2,0:0|0:0,0:0:0:0:
259,92,17961,1,0,0:0:0:0:
133,221,18710,2,0,P|127:288|136:320,1,89.9999999999999,2|2,0:0|0:0,0:0:0:0:
220,327,19460,54,0,B|309:316|309:316|360:330,2,135,2|2|0,0:0|0:0|0:0,0:0:0:0:
152,267,20960,2,0,L|62:256,2,89.9999999999999,2|0|0,0:0|0:0|0:0,0:0:0:0:
221,209,22085,1,0,0:0:0:0:
308,229,22460,6,0,B|349:241|388:203|388:203|437:182|483:215,2,180,0|0|2,0:0|0:0|0:0,0:0:0:0:
256,192,24147,12,0,26960,0:0:0:0:
422,45,28355,5,4,1:2:0:0:
364,114,28704,2,0,B|345:201|345:201|360:252,1,135,8|0,0:0|0:0,0:0:0:0:
314,323,29576,2,0,B|268:313|268:313|218:323|218:323|175:314,1,135,4|12,1:2|0:2,0:0:0:0:
125,246,30448,2,0,L|118:142,1,89.9999999999999,0|8,1:0|0:0,0:0:0:0:
112,66,31146,5,4,1:2:0:0:
195,98,31494,2,0,B|280:122|280:122|331:106,1,135,8|0,0:0|0:0,0:0:0:0:
407,143,32366,2,0,B|418:191|418:191|407:239|407:239|416:278,1,135,4|12,1:2|0:0,0:0:0:0:
346,333,33239,1,10,0:0:0:0:
268,288,33587,1,2,0:0:0:0:
184,322,33936,5,6,1:2:0:0:
110,270,34285,2,0,B|91:183|91:183|106:132,1,135,8|0,0:0|0:0,0:0:0:0:
185,100,35157,2,0,B|220:105|220:105|261:130|261:130|313:137,1,135,4|12,1:2|0:0,0:0:0:0:
380,195,36029,2,0,L|373:299,1,89.9999999999999,0|8,1:2|0:0,0:0:0:0:
304,343,36727,38,0,B|238:369|238:319|159:349,2,135,4|4|4,1:2|1:2|1:2,0:0:0:0:
446,230,38471,1,8,0:0:0:0:
409,147,38820,1,8,0:0:0:0:
458,71,39169,1,8,0:0:0:0:
280,41,39866,6,0,L|141:51,1,135,12|0,1:2|0:0,0:0:0:0:
88,120,40739,2,0,B|92:176|92:176|117:211|117:211|121:251,1,135,4|12,1:2|0:0,0:0:0:0:
188,305,41611,2,0,L|287:298,1,89.9999999999999,0|8,1:2|0:0,0:0:0:0:
367,289,42308,5,4,1:2:0:0:
343,201,42657,2,0,B|324:114|324:114|339:63,1,135,8|0,0:0|0:0,0:0:0:0:
271,8,43529,2,0,B|235:11|235:11|200:36|200:36|144:40,1,135,4|12,1:2|0:0,0:0:0:0:
72,95,44401,1,10,0:0:0:0:
104,178,44750,1,2,0:0:0:0:
62,258,45099,37,6,1:2:0:0:
123,323,45448,2,0,B|210:342|210:342|254:329,1,135,8|0,0:0|0:0,0:0:0:0:
304,254,46320,2,0,B|295:205|295:205|304:158|304:158|296:113,1,135,4|12,1:2|0:0,0:0:0:0:
228,64,47192,2,0,L|131:78,1,89.9999999999999,0|8,1:2|0:0,0:0:0:0:
93,154,47890,6,0,B|67:219|117:220|87:299,2,135,4|4|4,1:2|1:2|1:2,0:0:0:0:
183,154,49285,2,0,L|280:168,1,89.9999999999999,8|8,0:0|0:0,0:0:0:0:
343,221,49983,1,8,0:0:0:0:
413,164,50332,1,0,1:0:0:0:
494,202,50680,22,0,B|464:288|530:288|498:377,1,180,6|8,1:2|0:0,0:0:0:0:
419,332,51727,2,0,P|345:299|253:338,1,180,0|0,1:0|0:0,0:0:0:0:
177,374,52773,1,8,0:0:0:0:
42,254,53471,6,0,B|74:165|8:165|41:72,1,180,2|8,1:2|0:0,0:0:0:0:
118,36,54518,2,0,P|167:33|197:143,1,180,0|0,1:0|0:0,0:0:0:0:
138,204,55564,1,8,0:0:0:0:
211,368,56262,54,0,B|297:398|297:332|386:364,1,180,2|8,1:2|0:0,0:0:0:0:
475,375,57308,2,0,P|507:330|444:227,1,180,0|0,1:0|0:0,0:0:0:0:
366,247,58355,2,0,P|323:250|277:239,1,89.9999999999999,10|2,0:0|0:0,0:0:0:0:
219,170,59053,1,4,3:0:0:0:
