osu file format v14

[General]
AudioFilename: audio.mp3
AudioLeadIn: 0
PreviewTime: 28355
Countdown: 0
SampleSet: Soft
StackLeniency: 0.5
Mode: 0
LetterboxInBreaks: 0
WidescreenStoryboard: 0

[Editor]
Bookmarks: 28355,50680,59053,63936
DistanceSpacing: 1
BeatDivisor: 4
GridSize: 8
TimelineZoom: 1

[Metadata]
Title:Hanami ON THE RIFT (PV ver.)
TitleUnicode:花見 ON THE RIFT (PV ver.)
Artist:League of Legends
ArtistUnicode:リーグ・オブ・レジェンド
Creator:Log Off Now
Version:Akitoshi's Normal
Source:League of Legends
Tags:riot games japan dnb drum and bass sakura event akitoshi hootowlstar hos lasse
BeatmapID:1249018
BeatmapSetID:589691

[Difficulty]
HPDrainRate:4
CircleSize:3.3
OverallDifficulty:4
ApproachRate:5
SliderMultiplier:1.05
SliderTickRate:1

[Events]
//Background and Video events
0,0,"yasuoiguess.jpg",0,0
//Break Periods
//Storyboard Layer 0 (Background)
//Storyboard Layer 1 (Fail)
//Storyboard Layer 2 (Pass)
//Storyboard Layer 3 (Foreground)
//Storyboard Sound Samples

[TimingPoints]
1460,375,4,2,1,30,1,0
1460,-100,4,2,1,30,0,0
22460,-100,4,2,1,30,0,0
26960,348.837209302326,4,2,1,50,1,0
28355,-100,4,2,3,60,0,1
50680,-100,4,2,1,40,0,0

[Colours]
Combo1 : 255,198,64
Combo2 : 151,151,255
Combo3 : 100,177,255
Combo4 : 215,0,0
Combo5 : 255,128,0

[HitObjects]
34,244,1460,6,0,P|30:195|40:128,2,105,2|0|0,0:0|0:0|0:0,0:0:0:0:
79,338,2585,1,2,0:0:0:0:
162,274,2960,2,0,P|215:258|312:289,1,157.5,2|2,0:0|0:0,0:0:0:0:
395,348,3897,1,2,0:0:0:0:
501,231,4460,6,0,B|509:83|509:83|456:33,1,210,2|0,0:0|0:0,0:0:0:0:
363,10,5585,1,2,0:0:0:0:
260,34,5960,2,0,B|252:182|252:182|305:232,1,210,0|2,0:0|0:0,0:0:0:0:
383,283,7085,1,2,0:0:0:0:
313,360,7460,54,0,P|238:376|154:340,1,157.5,2|2,0:0|0:0,0:0:0:0:
94,269,8397,1,2,0:0:0:0:
221,175,8960,2,0,P|218:130|67:74,1,210,0|2,0:0|0:0,0:0:0:0:
7,134,10085,1,2,0:0:0:0:
3,238,10460,6,0,P|69:272|151:238,1,157.5,2|2,0:0|0:0,0:0:0:0:
221,175,11397,1,0,0:0:0:0:
360,102,11960,2,0,P|436:121|482:199,1,157.5,2|2,0:0|0:0,0:0:0:0:
480,235,12710,1,2,0:0:0:0:
300,343,13460,54,0,B|213:311|178:383|79:342,1,210,2|0,0:0|0:0,0:0:0:0:
14,278,14585,1,2,0:0:0:0:
110,235,14960,2,0,B|133:186|133:186|117:78,1,157.5,2|2,0:0|0:0,0:0:0:0:
200,19,15897,1,0,0:0:0:0:
293,146,16460,6,0,L|504:127,1,210,2|0,0:0|0:0,0:0:0:0:
376,295,17960,2,0,L|165:314,1,210,0|2,0:0|0:0,0:0:0:0:
75,261,19085,1,2,0:0:0:0:
141,179,19460,54,0,P|151:116|108:27,2,157.5,2|2|0,0:0|0:0|0:0,0:0:0:0:
75,261,20960,2,0,P|65:315|86:369,1,105,2|0,0:0|0:0,0:0:0:0:
171,307,21710,2,0,P|225:297|279:318,1,105,0|0,0:0|0:0,0:0:0:0:
368,353,22460,6,0,L|363:138,1,210
182,36,23960,1,2,0:0:0:0:
256,192,24147,12,0,26960,0:0:0:0:
180,101,28355,6,0,P|234:73|294:78,1,105,4|8,1:2|0:0,0:0:0:0:
321,102,28878,1,0,0:0:0:0:
321,102,29053,2,0,L|433:94,1,105,0|8,1:2|0:0,0:0:0:0:
475,112,29576,2,0,P|493:155|491:218,1,105,4|4,1:2|1:2,0:0:0:0:
471,261,30099,1,12,0:2:0:0:
368,282,30448,2,0,P|370:316|360:365,2,78.75,2|2|2,1:2|0:0|0:0,0:2:0:0:
326,250,31146,6,0,B|273:236|273:236|204:243,1,105,4|8,1:2|0:0,0:0:0:0:
175,247,31669,1,0,0:0:0:0:
175,247,31843,2,0,P|152:199|155:134,1,105,0|8,1:2|0:0,0:0:0:0:
159,96,32366,2,0,B|212:110|212:110|279:99,1,105,4|4,1:2|1:2,0:0:0:0:
312,85,32890,1,12,0:0:0:0:
407,125,33239,2,0,P|471:112|503:113,2,78.75,10|10|2,0:0|0:0|0:0,0:0:0:0:
370,162,33936,6,0,B|360:213|360:213|374:271,1,105,6|8,1:2|0:0,0:0:0:0:
315,352,34634,2,0,P|258:368|203:357,1,105,0|8,1:2|0:0,0:0:0:0:
176,324,35157,2,0,L|63:332,1,105,4|4,1:2|1:2,0:0:0:0:
22,312,35680,1,12,0:0:0:0:
41,208,36029,2,0,L|35:112,2,78.75,2|2|2,1:2|0:0|0:0,0:0:0:0:
86,236,36727,38,0,P|158:241|203:216,1,105,4|8,1:2|0:0,0:0:0:0:
222,189,37250,2,0,L|347:195,1,105,4|8,1:2|0:0,0:0:0:0:
374,171,37773,2,0,P|386:112|331:25,1,157.5,4|0,1:2|1:2,0:0:0:0:
288,17,38471,1,8,0:0:0:0:
185,38,38820,1,8,0:0:0:0:
134,131,39169,2,0,L|144:292,1,157.5,8|0,0:0|0:0,0:0:0:0:
146,340,39866,5,12,1:2:0:0:
248,362,40215,2,0,P|300:356|347:318,1,105,0|8,1:2|0:0,0:0:0:0:
360,276,40739,2,0,L|473:270,1,105,4|4,1:2|1:2,0:0:0:0:
497,228,41262,1,12,0:0:0:0:
471,126,41611,2,0,L|468:71,2,52.5,0|0|8,1:2|1:2|0:0,0:0:0:0:
373,165,42308,6,0,P|318:171|262:143,1,105,4|8,1:2|0:0,0:0:0:0:
247,113,42832,1,0,0:0:0:0:
247,113,43006,2,0,L|121:108,1,105,0|8,1:2|0:0,0:0:0:0:
89,108,43529,2,0,P|77:160|89:220,1,105,4|4,1:2|1:2,0:0:0:0:
101,260,44053,1,12,0:0:0:0:
198,297,44401,2,0,L|204:375,2,78.75,10|8|2,0:0|0:0|0:0,0:0:0:0:
205,244,45099,38,0,P|253:222|326:232,1,105,6|8,1:2|0:0,0:0:0:0:
365,309,45797,2,0,L|473:300,1,105,0|8,1:2|0:0,0:0:0:0:
506,262,46320,2,0,P|509:208|491:155,1,105,4|4,1:2|1:2,0:0:0:0:
459,120,46843,1,12,0:0:0:0:
358,88,47192,2,2,L|370:-4,2,78.75,2|2|2,1:2|0:0|0:0,0:0:0:0:
322,127,47890,6,0,P|267:124|206:130,1,105,4|8,1:2|0:0,0:0:0:0:
175,160,48413,2,0,L|181:287,1,105,4|8,1:2|0:0,0:0:0:0:
172,317,48936,2,0,P|95:340|26:289,1,157.5,4|0,1:2|1:2,0:0:0:0:
7,255,49634,1,8,0:0:0:0:
40,155,49983,2,0,L|53:45,1,105,8|0,0:0|1:0,0:0:0:0:
97,21,50506,1,8,0:0:0:0:
97,21,50680,22,0,P|150:52|249:34,1,157.5,6|2,1:2|0:0,0:0:0:0:
288,13,51378,1,8,0:0:0:0:
380,74,51727,1,0,1:0:0:0:
380,74,51901,2,0,L|368:240,1,157.5,2|0,1:2|0:0,0:0:0:0:
341,332,52773,2,0,P|302:342|232:326,1,105,8|0,0:0|0:0,0:0:0:0:
220,226,53471,6,0,P|281:206|380:240,1,157.5,2|2,1:2|0:0,0:0:0:0:
408,264,54169,1,8,0:0:0:0:
480,187,54518,1,0,1:0:0:0:
480,187,54692,2,0,L|461:17,1,157.5,2|0,1:2|0:0,0:0:0:0:
361,57,55564,2,0,P|327:68|260:59,1,105,8|0,0:0|0:0,0:0:0:0:
162,18,56262,54,0,L|170:195,1,157.5,2|2,1:2|0:0,0:0:0:0:
170,227,56960,1,8,0:0:0:0:
231,312,57308,1,0,1:0:0:0:
231,312,57483,2,0,P|265:321|375:275,1,157.5,2|0,1:2|0:0,0:0:0:0:
441,196,58355,2,0,L|498:205,2,52.5,10|0|2,0:0|0:0|0:0,0:0:0:0:
354,135,59053,5,4,3:0:0:0:
