osu file format v14

[General]
AudioFilename: audio.mp3
AudioLeadIn: 0
PreviewTime: 28268
Countdown: 0
SampleSet: Soft
StackLeniency: 0.7
Mode: 2
LetterboxInBreaks: 0
WidescreenStoryboard: 0

[Editor]
Bookmarks: 63239
DistanceSpacing: 1.1
BeatDivisor: 4
GridSize: 4
TimelineZoom: 2.1

[Metadata]
Title:Hanami ON THE RIFT (PV ver.)
TitleUnicode:花見 ON THE RIFT (PV ver.)
Artist:League of Legends
ArtistUnicode:リーグ・オブ・レジェンド
Creator:Ascendance
Version:celerih's Rain
Source:League of Legends
Tags:riot games japan dnb drum and bass sakura event jhin sanyi alienflybot absolute zero afk98 californian darknessofblue sinnoh piku p_i_k_u benny- bennybananas ponchiwi celerih hareimu f_d_flourite fdflourite sorcerer tomthewizard spectator kyuare kin kinzo koliron
BeatmapID:1473992
BeatmapSetID:695308

[Difficulty]
HPDrainRate:6
CircleSize:3.7
OverallDifficulty:9
ApproachRate:9
SliderMultiplier:1.7
SliderTickRate:2

[Events]
//Background and Video events
0,0,"epksy1ypx5yz.jpg",0,0
//Break Periods
//Storyboard Layer 0 (Background)
//Storyboard Layer 1 (Fail)
//Storyboard Layer 2 (Pass)
//Storyboard Layer 3 (Foreground)
//Storyboard Sound Samples

[TimingPoints]
1460,375,4,2,21,30,1,0
13460,-100,4,2,21,34,0,0
24006,-100,4,2,21,10,0,0
26772,-100,4,2,21,10,0,0
26960,348.837209302326,4,2,22,38,1,0
27047,-100,4,2,22,40,0,0
27134,-100,4,2,22,42,0,0
27221,-100,4,2,22,44,0,0
27308,-100,4,2,22,46,0,0
27396,-100,4,2,22,48,0,0
27483,-100,4,2,22,50,0,0
27570,-100,4,2,22,52,0,0
27657,-100,4,2,22,54,0,0
27744,-100,4,2,22,56,0,0
27832,-100,4,2,22,58,0,0
27919,-100,4,2,22,60,0,0
28006,-100,4,2,22,62,0,0
28093,-100,4,2,22,64,0,0
28180,-100,4,2,22,66,0,0
28268,-100,4,2,22,68,0,0
28355,-83.3333333333333,4,2,22,70,0,1
29576,-83.3333333333333,4,2,22,70,0,1
29925,-83.3333333333333,4,2,22,70,0,1
31146,-83.3333333333333,4,2,22,70,0,1
31320,-83.3333333333333,4,2,22,70,0,1
32366,-83.3333333333333,4,2,22,70,0,1
32715,-83.3333333333333,4,2,22,70,0,1
32890,-83.3333333333333,4,2,22,70,0,1
35157,-83.3333333333333,4,2,22,70,0,1
35419,-83.3333333333333,4,2,22,70,0,1
36553,-83.3333333333333,4,2,22,70,0,1
36727,-83.3333333333333,4,2,22,74,0,1
37250,-83.3333333333333,4,2,22,74,0,1
37599,-83.3333333333333,4,2,22,70,0,1
37686,-83.3333333333333,4,2,21,5,0,1
37773,-83.3333333333333,4,2,22,78,0,1
38122,-83.3333333333333,4,2,22,60,0,1
38820,-83.3333333333333,4,2,22,70,0,1
39430,-83.3333333333333,4,2,22,70,0,1
39692,-83.3333333333333,4,2,22,60,0,1
39866,-83.3333333333333,4,2,22,70,0,1
40215,-83.3333333333333,4,2,22,70,0,1
40739,-83.3333333333333,4,2,22,70,0,1
41000,-83.3333333333333,4,2,22,70,0,1
42308,-83.3333333333333,4,2,22,70,0,1
42483,-83.3333333333333,4,2,22,70,0,1
43529,-83.3333333333333,4,2,22,70,0,1
43878,-83.3333333333333,4,2,22,70,0,1
45099,-83.3333333333333,4,2,22,70,0,1
45273,-83.3333333333333,4,2,22,70,0,1
46320,-83.3333333333333,4,2,22,70,0,1
46669,-83.3333333333333,4,2,22,70,0,1
47715,-83.3333333333333,4,2,22,74,0,1
48413,-83.3333333333333,4,2,22,74,0,1
48762,-83.3333333333333,4,2,22,70,0,1
48849,-83.3333333333333,4,2,21,5,0,1
48936,-83.3333333333333,4,2,22,78,0,1
49285,-83.3333333333333,4,2,22,70,0,1
50680,-100,4,2,21,40,0,0
51553,-100,4,2,21,40,0,0
51901,-100,4,2,21,40,0,0
53297,-100,4,2,21,40,0,0
54692,-100,4,2,21,40,0,0
56087,-100,4,2,21,40,0,0
57483,-100,4,2,21,40,0,0
60448,-100,4,2,21,30,0,0
61843,-100,4,2,21,20,0,0
63239,-100,4,2,21,10,0,0

[Colours]
Combo1 : 0,128,192
Combo2 : 64,0,255
Combo3 : 255,0,0
Combo4 : 192,192,192

[HitObjects]
112,192,1460,6,0,L|304:188,1,170,2|8,0:1|0:0,0:0:0:0:
432,192,2210,1,8,0:0:0:0:
280,128,2585,1,8,0:0:0:0:
232,204,2772,1,8,0:0:0:0:
444,200,2960,6,0,P|496:160|424:108,1,170,2|8,0:0|0:0,0:0:0:0:
248,192,3522,2,0,L|60:192,1,170,2|2,0:0|0:0,0:0:0:0:
336,128,4460,5,2,0:0:0:0:
128,200,5210,1,8,0:0:0:0:
212,176,5397,1,8,0:0:0:0:
396,152,5585,1,2,0:0:0:0:
300,156,5772,1,2,0:0:0:0:
384,236,5960,6,0,L|196:216,1,170,8|2,0:0|0:0,0:0:0:0:
396,240,6710,1,8,0:0:0:0:
444,160,6897,1,8,0:0:0:0:
240,196,7085,1,2,0:0:0:0:
64,152,7460,6,0,L|256:148,1,170,2|2,0:0|0:0,0:0:0:0:
336,152,8022,1,2,0:0:0:0:
216,124,8210,1,8,0:0:0:0:
360,152,8397,2,0,P|400:80|340:28,1,170,2|2,0:0|0:0,0:0:0:0:
138,52,8960,6,0,L|308:64,1,170,8|2,0:0|0:0,0:0:0:0:
120,48,9710,1,2,0:0:0:0:
92,128,9897,1,2,0:0:0:0:
288,88,10085,1,8,0:0:0:0:
456,120,10460,6,0,L|268:108,1,170,8|2,0:0|0:0,0:0:0:0:
192,112,11022,1,2,0:0:0:0:
296,112,11210,1,0,0:0:0:0:
168,112,11397,2,0,L|136:288,1,170,2|0,0:0|0:0,0:0:0:0:
372,132,11960,6,0,L|192:120,1,170,2|0,0:0|0:0,0:0:0:0:
108,124,12522,1,2,0:0:0:0:
304,184,12710,1,2,0:0:0:0:
120,272,13460,6,0,L|312:268,1,170,2|8,0:1|0:0,0:0:0:0:
460,192,14210,1,2,0:0:0:0:
292,120,14585,1,2,0:0:0:0:
192,112,14772,1,2,0:0:0:0:
380,244,14960,6,0,P|420:216|344:140,1,170,8|8,0:0|0:0,0:0:0:0:
176,128,15522,2,0,P|136:156|212:232,1,170,8|8,0:0|0:0,0:0:0:0:
400,192,16460,5,2,0:0:0:0:
144,308,17022,1,0,0:0:0:0:
80,264,17210,1,8,0:0:0:0:
76,184,17397,1,8,0:0:0:0:
128,124,17585,1,2,0:0:0:0:
328,100,17772,1,2,0:0:0:0:
432,192,18710,5,2,0:0:0:0:
248,160,19085,1,8,0:0:0:0:
444,192,19460,2,0,P|336:188|260:216,1,170,8|2,0:0|0:0,0:0:0:0:
184,204,20022,1,8,0:0:0:0:
332,300,20210,2,0,L|316:104,1,170,8|0,0:0|0:0,0:0:0:0:
72,192,20960,6,0,L|252:180,1,170,2|8,0:0|0:0,0:0:0:0:
396,284,21710,1,2,0:0:0:0:
216,212,22085,1,8,0:0:0:0:
256,124,22272,1,0,0:0:0:0:
440,116,22460,6,0,L|80:80,1,340,2|2,0:0|0:0,0:0:0:0:
348,192,23960,5,6,0:1:0:0:
256,192,24147,12,0,26772,0:0:0:0:
260,224,26960,5,0,1:3:0:0:
252,200,27047,1,0,1:3:0:0:
244,176,27134,1,0,1:3:0:0:
236,152,27221,1,0,1:3:0:0:
348,96,27308,1,0,1:0:0:0:
388,136,27396,1,0,1:0:0:0:
392,196,27483,1,0,1:0:0:0:
348,232,27570,1,0,1:0:0:0:
184,208,27657,5,0,1:0:0:0:
228,176,27744,1,0,1:0:0:0:
276,144,27832,1,0,1:0:0:0:
128,156,27919,1,0,1:0:0:0:
168,128,28006,1,0,1:0:0:0:
208,100,28094,1,0,1:0:0:0:
368,152,28180,1,0,1:0:0:0:
424,152,28268,1,0,1:0:0:0:
208,76,28355,6,0,L|76:76,1,101.999996887207,12|0,3:2|3:2,0:0:0:0:
420,120,28704,2,0,L|448:8,1,101.999996887207,10|2,0:2|0:2,0:0:0:0:
104,304,29053,2,0,L|92:176,1,101.999996887207,2|0,3:2|0:2,0:0:0:0:
148,180,29314,1,2,0:2:0:0:
52,160,29401,1,8,0:2:0:0:
416,136,29576,6,0,P|484:176|400:240,1,203.999993774414,2|2,3:1|3:2,0:0:0:0:
72,96,30099,2,0,L|176:80,1,101.999996887207,10|2,0:2|0:2,0:0:0:0:
408,100,30448,1,2,3:2:0:0:
444,144,30535,1,8,0:2:0:0:
392,152,30622,1,0,3:2:0:0:
340,156,30710,1,2,0:2:0:0:
136,192,30797,2,0,L|16:172,1,101.999996887207,8|2,0:2|0:2,0:0:0:0:
460,160,31146,6,0,L|472:56,1,101.999996887207,4|0,3:2|0:2,0:0:0:0:
288,200,31494,2,0,L|392:184,1,101.999996887207,10|2,0:2|0:2,0:0:0:0:
76,116,31843,1,2,3:2:0:0:
256,280,32018,1,0,0:2:0:0:
204,272,32105,1,2,0:2:0:0:
152,264,32192,1,8,0:0:0:0:
464,232,32366,6,0,B|464:132|464:132|348:104,1,203.999993774414,2|2,3:2|3:2,0:0:0:0:
40,232,32890,2,0,L|172:224,1,101.999996887207,10|0,0:2|0:0,0:0:0:0:
340,208,33239,1,10,0:2:0:0:
160,144,33413,1,2,3:2:0:0:
196,108,33500,1,10,0:2:0:0:
392,180,33675,1,10,0:2:0:0:
408,132,33762,1,0,0:2:0:0:
388,180,33849,1,2,0:2:0:0:
192,280,33936,6,0,L|72:264,1,101.999996887207,6|2,3:2|0:2,0:0:0:0:
336,192,34285,2,0,L|484:184,1,101.999996887207,10|2,0:2|0:2,0:0:0:0:
92,184,34634,2,0,L|84:56,1,101.999996887207,2|0,3:2|0:2,0:0:0:0:
128,52,34895,1,2,0:2:0:0:
32,40,34982,1,8,0:0:0:0:
376,208,35157,6,0,P|456:144|416:56,1,203.999993774414,2|2,3:1|3:2,0:0:0:0:
64,284,35680,2,0,L|168:276,1,101.999996887207,10|2,0:2|0:2,0:0:0:0:
408,100,36029,1,2,3:2:0:0:
444,144,36116,1,10,0:2:0:0:
392,152,36203,1,0,3:2:0:0:
340,156,36291,1,2,0:2:0:0:
152,148,36378,1,10,0:2:0:0:
140,96,36465,1,0,0:2:0:0:
336,228,36553,1,2,3:2:0:0:
388,220,36640,1,2,0:2:0:0:
168,296,36727,6,0,L|64:276,1,101.999996887207,6|2,0:0|0:0,0:0:0:0:
188,288,37076,1,8,0:0:0:0:
468,152,37250,2,0,P|400:160|472:224,1,203.999993774414,6|10,3:2|0:2,0:0:0:0:
80,188,37773,6,0,P|188:112|72:56,1,305.999990661621,6|0,3:2|3:2,0:0:0:0:
396,192,38471,2,0,L|512:172,1,101.999996887207,10|0,0:2|0:2,0:0:0:0:
84,168,38820,1,0,1:2:0:0:
132,156,38907,1,0,1:2:0:0:
180,144,38994,1,0,1:2:0:0:
380,288,39169,1,2,1:2:0:0:
412,248,39256,1,2,1:2:0:0:
408,196,39343,1,2,1:2:0:0:
372,160,39430,1,2,0:2:0:0:
120,112,39692,5,2,0:2:0:0:
464,120,39866,2,0,L|452:12,1,101.999996887207,14|2,0:2|0:2,0:0:0:0:
144,328,40215,2,0,L|164:204,1,101.999996887207,2|0,3:2|0:2,0:0:0:0:
216,196,40477,1,2,0:2:0:0:
104,160,40564,1,8,0:2:0:0:
384,288,40739,6,0,B|424:224|424:224|368:92,1,203.999993774414,2|2,3:1|3:2,0:0:0:0:
64,208,41262,2,0,L|56:104,1,101.999996887207,10|2,0:2|0:2,0:0:0:0:
312,88,41611,1,2,3:2:0:0:
372,128,41698,1,10,0:2:0:0:
356,176,41785,1,0,3:2:0:0:
336,224,41873,1,2,0:2:0:0:
184,156,41960,1,10,0:2:0:0:
240,148,42047,1,0,0:2:0:0:
296,144,42134,1,2,0:2:0:0:
52,264,42309,6,0,L|36:152,1,101.999996887207,6|0,3:2|0:2,0:0:0:0:
280,256,42657,2,0,L|396:240,1,101.999996887207,8|2,0:2|0:2,0:0:0:0:
64,312,43006,1,2,3:2:0:0:
244,316,43181,1,0,0:2:0:0:
288,324,43268,1,2,0:0:0:0:
332,332,43355,1,8,0:0:0:0:
48,200,43529,6,0,B|30:119|30:119|126:31,1,203.999993774414,2|2,3:2|3:2,0:0:0:0:
452,232,44053,2,0,L|320:224,1,101.999996887207,10|2,0:2|0:2,0:0:0:0:
60,252,44402,1,10,0:2:0:0:
340,164,44576,1,2,3:2:0:0:
292,152,44663,1,10,0:2:0:0:
120,224,44838,1,10,0:2:0:0:
172,216,44925,1,0,0:2:0:0:
224,208,45012,1,2,0:2:0:0:
388,208,45099,6,0,L|408:80,1,101.999996887207,6|2,3:2|0:2,0:0:0:0:
168,160,45448,2,0,L|48:140,1,101.999996887207,10|2,0:2|0:2,0:0:0:0:
388,316,45797,2,0,L|400:188,1,101.999996887207,2|0,3:2|0:2,0:0:0:0:
348,192,46058,1,2,0:2:0:0:
456,160,46145,1,8,0:0:0:0:
112,200,46320,6,0,P|72:280|168:328,1,203.999993774414,2|0,3:1|3:2,0:0:0:0:
472,216,46843,2,0,L|368:208,1,101.999996887207,10|2,0:2|0:2,0:0:0:0:
104,100,47192,1,2,3:2:0:0:
64,144,47279,1,10,0:2:0:0:
64,200,47366,1,0,3:2:0:0:
98,243,47454,1,2,0:2:0:0:
280,180,47541,1,10,2:2:0:0:
292,128,47628,1,0,0:2:0:0:
80,260,47716,1,2,0:2:0:0:
28,252,47803,1,2,0:2:0:0:
240,320,47890,6,0,L|384:296,1,101.999996887207,4|2,3:2|0:2,0:0:0:0:
464,320,48239,1,10,0:2:0:0:
116,200,48413,2,0,P|48:152|128:96,1,203.999993774414,6|10,3:2|0:2,0:0:0:0:
448,272,48936,6,0,L|228:256,1,203.999993774414,6|8,0:2|0:2,0:0:0:0:
428,184,49460,1,0,3:2:0:0:
176,124,49634,2,0,L|64:132,1,101.999996887207,8|0,0:2|3:2,0:0:0:0:
380,240,49983,2,0,L|492:248,1,101.999996887207,8|0,0:2|3:2,0:0:0:0:
420,196,50244,1,8,0:2:0:0:
224,172,50332,1,0,3:2:0:0:
165,206,50419,1,10,3:2:0:0:
157,274,50506,1,10,0:2:0:0:
207,321,50593,1,0,0:2:0:0:
400,288,50680,6,0,L|508:280,2,85,6|8|8,3:2|0:0|0:0,0:0:0:0:
304,300,51204,2,0,P|280:224|296:128,1,170,2|2,0:0|0:0,0:0:0:0:
388,128,51727,1,0,3:0:0:0:
136,108,51901,1,2,3:2:0:0:
136,52,52773,1,8,0:1:0:0:
292,192,53297,1,2,0:0:0:0:
304,148,53384,1,2,0:0:0:0:
188,192,53471,6,0,L|80:184,2,85,2|8|8,3:2|0:0|0:0,0:0:0:0:
276,312,53995,2,0,P|316:264|240:208,1,170,2|2,0:0|0:0,0:0:0:0:
152,208,54518,1,0,3:0:0:0:
400,184,54692,1,2,3:2:0:0:
392,96,55564,1,8,2:1:0:0:
120,196,56087,1,2,0:0:0:0:
108,148,56174,1,2,0:0:0:0:
224,192,56262,6,0,L|308:172,2,85,2|8|8,3:2|0:0|0:0,0:0:0:0:
124,216,56785,2,0,L|296:192,1,170,2|2,0:0|0:0,0:0:0:0:
392,208,57308,1,0,3:0:0:0:
136,140,57483,1,2,3:2:0:0:
320,248,58180,1,2,0:0:0:0:
328,200,58268,1,2,0:0:0:0:
219,155,58355,6,0,L|111:135,1,85,10|2,0:1|0:0,0:0:0:0:
48,252,58704,2,0,L|148:236,1,85,2|2,0:0|0:0,0:0:0:0:
368,132,59053,1,6,3:1:0:0:
256,192,59227,12,0,63239,0:0:0:0:
