osu file format v14

[General]
AudioFilename: audio.mp3
AudioLeadIn: 0
PreviewTime: 28268
Countdown: 0
SampleSet: Soft
StackLeniency: 0.7
Mode: 2
LetterboxInBreaks: 0
WidescreenStoryboard: 0

[Editor]
DistanceSpacing: 0.8
BeatDivisor: 4
GridSize: 32
TimelineZoom: 1

[Metadata]
Title:Hanami ON THE RIFT (PV ver.)
TitleUnicode:花見 ON THE RIFT (PV ver.)
Artist:League of Legends
ArtistUnicode:リーグ・オブ・レジェンド
Creator:Ascendance
Version:Sinnoh's Rain
Source:League of Legends
Tags:riot games japan dnb drum and bass sakura event jhin sanyi alienflybot absolute zero afk98 californian darknessofblue sinnoh piku p_i_k_u benny- bennybananas ponchiwi celerih hareimu f_d_flourite fdflourite sorcerer tomthewizard spectator kyuare kin kinzo koliron
BeatmapID:1473425
BeatmapSetID:695308

[Difficulty]
HPDrainRate:6
CircleSize:4.1
OverallDifficulty:9
ApproachRate:9
SliderMultiplier:2
SliderTickRate:2

[Events]
//Background and Video events
0,0,"epksy1ypx5yz.jpg",0,0
//Break Periods
//Storyboard Layer 0 (Background)
//Storyboard Layer 1 (Fail)
//Storyboard Layer 2 (Pass)
//Storyboard Layer 3 (Foreground)
//Storyboard Sound Samples

[TimingPoints]
1460,375,4,2,21,30,1,0
13460,-100,4,2,21,34,0,0
24006,-100,4,2,21,10,0,0
26960,348.837209302326,4,2,22,38,1,0
27047,-100,4,2,22,40,0,0
27134,-100,4,2,22,42,0,0
27221,-100,4,2,22,44,0,0
27308,-100,4,2,22,46,0,0
27396,-100,4,2,22,48,0,0
27483,-100,4,2,22,50,0,0
27570,-100,4,2,22,52,0,0
27657,-100,4,2,22,54,0,0
27744,-100,4,2,22,56,0,0
27832,-100,4,2,22,58,0,0
27919,-100,4,2,22,60,0,0
28006,-100,4,2,22,62,0,0
28093,-100,4,2,22,64,0,0
28180,-100,4,2,22,66,0,0
28268,-100,4,2,22,68,0,0
28355,-90.9090909090909,4,2,22,70,0,1
29576,-90.9090909090909,4,2,22,70,0,1
29925,-90.9090909090909,4,2,22,70,0,1
31146,-90.9090909090909,4,2,22,70,0,1
31320,-90.9090909090909,4,2,22,70,0,1
32366,-90.9090909090909,4,2,22,70,0,1
32715,-90.9090909090909,4,2,22,70,0,1
32890,-90.9090909090909,4,2,22,70,0,1
35157,-90.9090909090909,4,2,22,70,0,1
35419,-90.9090909090909,4,2,22,70,0,1
36553,-90.9090909090909,4,2,22,70,0,1
36727,-90.9090909090909,4,2,22,74,0,1
37250,-90.9090909090909,4,2,22,74,0,1
37599,-90.9090909090909,4,2,22,70,0,1
37686,-90.9090909090909,4,2,21,5,0,1
37773,-90.9090909090909,4,2,22,78,0,1
38122,-90.9090909090909,4,2,22,60,0,1
38820,-90.9090909090909,4,2,22,70,0,1
39430,-90.9090909090909,4,2,22,70,0,1
39692,-90.9090909090909,4,2,22,60,0,1
39866,-90.9090909090909,4,2,22,70,0,1
40215,-90.9090909090909,4,2,22,70,0,1
40739,-90.9090909090909,4,2,22,70,0,1
41000,-90.9090909090909,4,2,22,70,0,1
42308,-90.9090909090909,4,2,22,70,0,1
42483,-90.9090909090909,4,2,22,70,0,1
43529,-90.9090909090909,4,2,22,70,0,1
43878,-90.9090909090909,4,2,22,70,0,1
45099,-90.9090909090909,4,2,22,70,0,1
45273,-90.9090909090909,4,2,22,70,0,1
46320,-90.9090909090909,4,2,22,70,0,1
46669,-90.9090909090909,4,2,22,70,0,1
47715,-90.9090909090909,4,2,22,74,0,1
48413,-90.9090909090909,4,2,22,74,0,1
48762,-90.9090909090909,4,2,22,70,0,1
48849,-90.9090909090909,4,2,21,5,0,1
48936,-90.9090909090909,4,2,22,78,0,1
49285,-90.9090909090909,4,2,22,70,0,1
50680,-100,4,2,21,40,0,0
51553,-100,4,2,21,40,0,0
51901,-100,4,2,21,40,0,0
53297,-100,4,2,21,40,0,0
54692,-100,4,2,21,40,0,0
56087,-100,4,2,21,40,0,0
57483,-100,4,2,21,40,0,0
60448,-100,4,2,21,30,0,0
61843,-100,4,2,21,20,0,0
63239,-100,4,2,21,10,0,0

[Colours]
Combo1 : 0,128,192
Combo2 : 64,0,255
Combo3 : 255,0,0
Combo4 : 192,192,192

[HitObjects]
415,250,1460,6,0,L|216:136,2,200,2|8|8,0:1|0:0|0:0,0:0:0:0:
234,328,2585,2,0,L|222:205,1,100,8|8,0:0|0:0,0:0:0:0:
99,239,2960,6,0,P|47:210|112:113,1,200,2|8,0:0|0:0,0:0:0:0:
209,121,3522,2,0,L|24:8,1,200,2|2,0:0|0:0,0:0:0:0:
376,370,4460,6,0,L|345:65,1,300,2|0,0:0|0:0,0:0:0:0:
482,205,5210,2,0,L|470:66,1,100,8|8,0:0|0:0,0:0:0:0:
311,58,5585,2,0,L|424:59,1,100,2|2,0:0|0:0,0:0:0:0:
276,283,5960,6,0,P|201:253|177:138,1,200,8|2,0:0|0:0,0:0:0:0:
406,102,6710,2,0,L|287:84,2,100,8|8|2,0:0|0:0|0:0,0:0:0:0:
125,226,7460,6,0,L|317:162,1,200,2|2,0:0|0:0,0:0:0:0:
211,125,8022,2,0,L|19:61,2,200,2|2|2,0:0|0:0|0:0,0:0:0:0:
19,307,8960,6,0,L|12:93,1,200,8|2,0:0|0:0,0:0:0:0:
224,68,9709,2,0,L|96:57,2,100,2|2|8,0:0|0:0|0:0,0:0:0:0:
487,88,10460,6,0,L|253:17,1,200,8|2,0:0|0:0,0:0:0:0:
420,252,11022,2,0,P|473:227|392:149,1,200,2|2,0:0|0:0,0:0:0:0:
128,329,11959,6,0,P|114:220|227:72,1,300,2|2,0:0|0:0,0:0:0:0:
320,65,12710,2,0,L|100:40,1,200,2|0,0:0|0:0,0:0:0:0:
456,268,13460,6,0,L|458:57,1,200,2|8,0:1|0:0,0:0:0:0:
270,257,14210,2,0,L|58:141,1,200,2|2,0:0|0:0,0:0:0:0:
325,199,14960,6,0,P|322:118|205:80,1,200,8|8,0:0|0:0,0:0:0:0:
122,200,15522,2,0,P|134:105|224:74,1,200,8|8,0:0|0:0,0:0:0:0:
488,289,16459,6,0,L|200:140,1,300,2|0,0:0|0:0,0:0:0:0:
332,122,17210,2,0,L|429:172,1,100,8|8,0:0|0:0,0:0:0:0:
268,242,17585,2,0,L|171:292,1,100,2|2,0:0|0:0,0:0:0:0:
308,342,17960,6,0,P|358:322|286:234,1,200,8|0,0:0|0:0,0:0:0:0:
89,268,18710,2,0,P|67:200|88:62,1,200,2|8,0:0|0:0,0:0:0:0:
390,121,19460,6,0,L|175:49,1,200,8|2,0:0|0:0,0:0:0:0:
379,278,20210,2,0,P|433:242|351:161,1,200,8|0,0:0|0:0,0:0:0:0:
171,169,20960,6,0,L|358:40,2,200,2|8|2,0:0|0:0|0:0,0:0:0:0:
344,319,22085,2,0,L|348:206,1,100,8|0,0:0|0:0,0:0:0:0:
195,229,22460,6,0,P|129:172|207:80,1,200,2|8,0:0|0:0,0:0:0:0:
337,298,23210,2,0,P|366:229|323:92,1,200,2|0,0:0|0:0,0:0:0:0:
197,156,23960,6,0,L|195:118,1,33.3333333333333,6|2,0:1|0:0,0:0:0:0:
256,192,24147,12,0,26585,0:0:0:0:
355,253,26960,6,0,L|366:188,3,50,0|0|0|0,1:3|1:3|1:3|1:3,0:0:0:0:
265,195,27308,6,0,L|202:158,3,50,0|0|0|0,1:0|1:0|1:0|1:0,0:0:0:0:
76,228,27657,2,0,L|52:165,1,50,0|0,1:0|1:0,0:0:0:0:
212,92,27832,2,0,L|280:70,1,50,0|0,1:0|1:0,0:0:0:0:
241,50,28006,2,0,L|193:66,1,50,0|0,1:0|1:0,0:0:0:0:
42,51,28180,2,0,L|125:41,1,50,0|0,1:0|1:0,0:0:0:0:
327,113,28355,6,0,L|443:114,1,110.000003356934,6|2,3:2|0:0,0:0:0:0:
288,197,28704,2,0,L|168:199,1,110.000003356934,10|2,0:2|0:2,0:0:0:0:
447,197,29053,2,0,L|205:195,1,220.000006713867,2|8,3:2|0:2,0:0:0:0:
458,255,29576,6,0,P|503:135|441:80,1,220.000006713867,2|2,3:1|3:2,0:0:0:0:
134,180,30099,2,0,L|127:57,1,110.000003356934,10|2,0:2|0:2,0:0:0:0:
270,124,30448,2,0,L|303:67,2,55.0000016784668,2|8|0,3:2|0:2|3:2,0:0:0:0:
140,150,30797,2,0,L|8:193,1,110.000003356934,8|2,0:2|0:2,0:0:0:0:
375,227,31146,6,0,L|460:228,2,55.0000016784668,4|0|0,3:2|0:0|0:2,0:0:0:0:
241,133,31494,2,0,L|365:66,1,110.000003356934,10|2,0:2|0:2,0:0:0:0:
38,221,31843,2,0,L|32:88,1,110.000003356934,2|0,3:2|0:2,0:0:0:0:
89,103,32105,2,0,L|85:43,1,55.0000016784668,2|8,0:2|0:0,0:0:0:0:
324,269,32366,6,0,P|327:197|186:134,1,220.000006713867,2|2,3:2|3:2,0:0:0:0:
490,204,32890,2,0,L|491:86,1,110.000003356934,10|0,0:2|0:0,0:0:0:0:
174,173,33239,2,0,L|135:95,2,55.0000016784668,10|0|2,0:2|0:0|3:2,0:0:0:0:
325,147,33500,2,0,L|379:144,1,55.0000016784668,10|0,0:2|0:0,0:0:0:0:
156,275,33675,2,0,L|117:197,2,55.0000016784668,10|0|2,0:2|0:2|0:2,0:0:0:0:
358,288,33936,6,0,L|467:286,1,110.000003356934,6|2,3:2|0:2,0:0:0:0:
301,216,34285,2,0,L|191:218,1,110.000003356934,10|2,0:2|0:2,0:0:0:0:
485,229,34634,2,0,P|479:133|344:115,1,220.000006713867,2|8,3:2|0:0,0:0:0:0:
142,216,35157,6,0,P|149:128|269:74,1,220.000006713867,2|2,3:1|3:2,0:0:0:0:
23,187,35680,2,0,L|22:75,1,110.000003356934,10|2,0:2|0:2,0:0:0:0:
180,88,36029,2,0,L|230:32,1,55.0000016784668,2|10,3:2|0:2,0:0:0:0:
159,32,36204,2,0,L|15:29,1,110.000003356934,0|10,3:2|0:2,0:0:0:0:
162,196,36553,2,0,L|233:177,1,55.0000016784668,2|2,3:2|0:2,0:0:0:0:
436,113,36727,6,0,L|330:38,2,110.000003356934,6|2|8,3:2|0:2|0:2,0:0:0:0:
182,281,37250,2,0,P|107:237|197:162,1,220.000006713867,6|10,3:2|0:2,0:0:0:0:
481,245,37773,2,0,P|396:183|478:1,1,330.000010070801,6|0,3:2|3:2,0:0:0:0:
225,234,38471,2,0,L|221:120,1,110.000003356934,10|0,0:2|0:2,0:0:0:0:
378,107,38820,6,0,L|401:50,2,55.0000016784668,0|0|0,1:2|1:2|1:2,0:0:0:0:
119,145,39169,2,0,L|105:81,2,55.0000016784668,2|2|2,1:2|1:2|1:2,0:0:0:0:
200,270,39430,2,0,L|197:103,1,165.000005035401,2|2,0:2|0:2,0:0:0:0:
466,67,39866,6,0,L|320:64,1,110.000003356934,14|2,0:2|0:2,0:0:0:0:
221,139,40215,2,0,L|341:139,1,110.000003356934,2|0,3:2|0:2,0:0:0:0:
381,143,40477,2,0,L|450:138,1,55.0000016784668,2|8,0:2|0:2,0:0:0:0:
204,281,40739,6,0,P|174:200|269:123,1,220.000006713867,2|2,3:1|3:2,0:0:0:0:
19,261,41262,2,0,L|16:138,1,110.000003356934,10|2,0:2|0:2,0:0:0:0:
159,136,41611,2,0,L|230:125,1,55.0000016784668,2|10,3:2|0:2,0:0:0:0:
259,54,41785,2,0,L|138:30,2,110.000003356934,0|10|2,3:2|0:2|0:2,0:0:0:0:
497,121,42308,6,0,L|505:47,2,55.0000016784668,6|0|0,3:2|0:0|0:2,0:0:0:0:
353,141,42657,2,0,L|472:141,1,110.000003356934,8|2,0:2|0:2,0:0:0:0:
176,249,43006,2,0,P|159:188|173:115,1,110.000003356934,2|0,3:2|0:2,0:0:0:0:
218,116,43268,2,0,L|275:62,1,55.0000016784668,2|8,0:2|0:0,0:0:0:0:
26,309,43529,6,0,L|15:190,1,110.000003356934,2|0,3:2|0:0,0:0:0:0:
250,197,43878,2,0,L|99:198,1,110.000003356934,2|10,3:2|0:2,0:0:0:0:
259,121,44227,2,0,L|300:55,1,55.0000016784668,2|2,0:2|0:2,0:0:0:0:
110,79,44401,2,0,L|72:25,2,55.0000016784668,10|0|2,0:2|0:2|3:2,0:0:0:0:
265,125,44663,2,0,L|293:73,1,55.0000016784668,10|0,0:2|0:2,0:0:0:0:
84,187,44837,2,0,L|50:123,2,55.0000016784668,10|0|2,0:2|0:2|0:2,0:0:0:0:
340,192,45099,6,0,L|457:194,1,110.000003356934,6|2,3:2|0:2,0:0:0:0:
305,86,45448,2,0,L|422:88,1,110.000003356934,10|2,0:2|0:2,0:0:0:0:
159,269,45797,2,0,P|102:233|179:124,1,220.000006713867,2|8,3:2|0:0,0:0:0:0:
394,116,46320,6,0,L|161:34,1,220.000006713867,2|0,3:1|3:2,0:0:0:0:
476,239,46843,2,0,L|480:108,1,110.000003356934,10|2,0:2|0:2,0:0:0:0:
330,132,47192,2,0,L|234:132,1,55.0000016784668,2|10,3:2|0:2,0:0:0:0:
213,92,47366,2,0,L|365:91,1,110.000003356934,0|10,3:2|2:2,0:0:0:0:
419,33,47715,2,0,L|354:36,1,55.0000016784668,2|2,0:2|0:2,0:0:0:0:
96,120,47890,6,0,L|215:45,2,110.000003356934,4|2|10,3:2|0:2|0:2,0:0:0:0:
328,112,48413,2,0,L|130:252,1,220.000006713867,6|10,3:2|0:2,0:0:0:0:
381,303,48936,2,0,P|438:258|357:155,1,220.000006713867,6|8,0:2|0:2,0:0:0:0:
265,101,49460,6,0,L|388:98,1,110.000003356934,0|8,3:2|0:2,0:0:0:0:
245,26,49809,2,0,L|361:23,1,110.000003356934,0|8,3:2|0:2,0:0:0:0:
238,155,50157,2,0,L|310:156,1,55.0000016784668,0|8,3:2|0:2,0:0:0:0:
60,165,50419,2,0,L|52:90,1,55.0000016784668,10|10,3:2|0:2,0:0:0:0:
344,257,50680,6,0,L|455:256,2,100,6|8|8,3:2|0:0|0:0,0:0:0:0:
217,247,51204,2,0,L|207:141,1,100,2|8,0:0|0:1,0:0:0:0:
331,145,51553,2,0,L|342:17,1,100,2|0,0:0|3:0,0:0:0:0:
93,271,51901,6,0,P|23:232|130:67,1,300,2|0,3:2|0:0,0:0:0:0:
255,144,52773,2,0,L|52:55,1,200,8|0,0:1|0:0,0:0:0:0:
217,124,53297,2,0,L|215:63,1,50,2|2,0:0|0:0,0:0:0:0:
368,50,53471,6,0,L|486:50,2,100,2|8|8,3:2|0:0|0:0,0:0:0:0:
255,232,53994,2,0,L|372:229,1,100,2|8,0:0|0:1,0:0:0:0:
451,164,54343,2,0,L|334:157,1,100,2|0,0:0|3:0,0:0:0:0:
115,285,54692,6,0,P|78:239|235:147,1,300,2|0,3:2|0:0,0:0:0:0:
425,271,55564,2,0,L|426:44,1,200,8|0,2:1|0:0,0:0:0:0:
310,85,56087,2,0,L|313:18,1,50,2|2,0:0|0:0,0:0:0:0:
158,48,56262,6,0,L|20:51,2,100,2|8|8,3:2|0:0|0:0,0:0:0:0:
294,233,56785,2,0,L|298:102,1,100,2|8,0:0|0:1,0:0:0:0:
158,133,57134,2,0,L|62:85,1,100,2|0,0:0|3:0,0:0:0:0:
348,289,57483,6,0,P|406:266|311:112,1,300,2|0,3:2|0:0,0:0:0:0:
199,176,58180,2,0,L|191:90,1,50,2|2,0:0|0:0,0:0:0:0:
268,108,58355,2,0,L|395:73,1,100,10|2,0:1|0:0,0:0:0:0:
240,65,58704,2,0,L|136:43,2,100,2|2|6,0:0|0:0|3:1,0:0:0:0:
256,192,59227,12,0,63239,0:0:0:0:
