osu file format v14

[General]
AudioFilename: audio.mp3
AudioLeadIn: 0
PreviewTime: 28268
Countdown: 0
SampleSet: Soft
StackLeniency: 0.7
Mode: 2
LetterboxInBreaks: 0
WidescreenStoryboard: 0

[Editor]
DistanceSpacing: 0.8
BeatDivisor: 4
GridSize: 32
TimelineZoom: 1

[Metadata]
Title:Hanami ON THE RIFT (PV ver.)
TitleUnicode:花見 ON THE RIFT (PV ver.)
Artist:League of Legends
ArtistUnicode:リーグ・オブ・レジェンド
Creator:Ascendance
Version:Sanyi's Cup
Source:League of Legends
Tags:riot games japan dnb drum and bass sakura event jhin sanyi alienflybot absolute zero afk98 californian darknessofblue sinnoh piku p_i_k_u benny- bennybananas ponchiwi celerih hareimu f_d_flourite fdflourite sorcerer tomthewizard spectator kyuare kin kinzo koliron
BeatmapID:1474716
BeatmapSetID:695308

[Difficulty]
HPDrainRate:3
CircleSize:2
OverallDifficulty:6
ApproachRate:6
SliderMultiplier:1.3
SliderTickRate:1

[Events]
//Background and Video events
0,0,"epksy1ypx5yz.jpg",0,0
//Break Periods
//Storyboard Layer 0 (Background)
//Storyboard Layer 1 (Fail)
//Storyboard Layer 2 (Pass)
//Storyboard Layer 3 (Foreground)
//Storyboard Sound Samples

[TimingPoints]
1460,375,4,2,21,30,1,0
13460,-100,4,2,21,34,0,0
24006,-100,4,2,21,10,0,0
26960,348.837209302326,4,2,22,38,1,0
27047,-100,4,2,22,40,0,0
27134,-100,4,2,22,42,0,0
27221,-100,4,2,22,44,0,0
27308,-100,4,2,22,46,0,0
27396,-100,4,2,22,48,0,0
27483,-100,4,2,22,50,0,0
27570,-100,4,2,22,52,0,0
27657,-100,4,2,22,54,0,0
27744,-100,4,2,22,56,0,0
27832,-100,4,2,22,58,0,0
27919,-100,4,2,22,60,0,0
28006,-100,4,2,22,62,0,0
28093,-100,4,2,22,64,0,0
28180,-100,4,2,22,66,0,0
28268,-100,4,2,22,68,0,0
28355,-90.9090909090909,4,2,22,70,0,1
29576,-90.9090909090909,4,2,22,70,0,1
29925,-90.9090909090909,4,2,22,70,0,1
31146,-90.9090909090909,4,2,22,70,0,1
31320,-90.9090909090909,4,2,22,70,0,1
32366,-90.9090909090909,4,2,22,70,0,1
32715,-90.9090909090909,4,2,22,70,0,1
32890,-90.9090909090909,4,2,22,70,0,1
35157,-90.9090909090909,4,2,22,70,0,1
35419,-90.9090909090909,4,2,22,70,0,1
36553,-90.9090909090909,4,2,22,70,0,1
36727,-90.9090909090909,4,2,22,74,0,1
37250,-90.9090909090909,4,2,22,74,0,1
37599,-90.9090909090909,4,2,22,70,0,1
37686,-90.9090909090909,4,2,21,5,0,1
37773,-90.9090909090909,4,2,22,78,0,1
38122,-90.9090909090909,4,2,22,60,0,1
38820,-90.9090909090909,4,2,22,70,0,1
39430,-90.9090909090909,4,2,22,70,0,1
39692,-90.9090909090909,4,2,22,60,0,1
39866,-90.9090909090909,4,2,22,70,0,1
40215,-90.9090909090909,4,2,22,70,0,1
40739,-90.9090909090909,4,2,22,70,0,1
41000,-90.9090909090909,4,2,22,70,0,1
42308,-90.9090909090909,4,2,22,70,0,1
42483,-90.9090909090909,4,2,22,70,0,1
43529,-90.9090909090909,4,2,22,70,0,1
43878,-90.9090909090909,4,2,22,70,0,1
45099,-90.9090909090909,4,2,22,70,0,1
45273,-90.9090909090909,4,2,22,70,0,1
46320,-90.9090909090909,4,2,22,70,0,1
46669,-90.9090909090909,4,2,22,70,0,1
47715,-90.9090909090909,4,2,22,74,0,1
48413,-90.9090909090909,4,2,22,74,0,1
48762,-90.9090909090909,4,2,22,70,0,1
48849,-90.9090909090909,4,2,21,5,0,1
48936,-90.9090909090909,4,2,22,78,0,1
49285,-90.9090909090909,4,2,22,70,0,1
50680,-100,4,2,21,40,0,0
51553,-100,4,2,21,40,0,0
51901,-100,4,2,21,40,0,0
53297,-100,4,2,21,40,0,0
54692,-100,4,2,21,40,0,0
56087,-100,4,2,21,40,0,0
57483,-100,4,2,21,40,0,0
60448,-100,4,2,21,30,0,0
61843,-100,4,2,21,20,0,0
63239,-100,4,2,21,10,0,0

[Colours]
Combo1 : 0,128,192
Combo2 : 64,0,255
Combo3 : 255,0,0
Combo4 : 192,192,192

[HitObjects]
304,304,1460,6,0,P|376:272|384:216,2,130,2|8|8,0:1|0:0|0:0,0:0:0:0:
200,256,2585,2,0,L|64:256,1,130,8|2,0:0|0:0,0:0:0:0:
224,144,3335,6,0,L|288:144,1,65,8|2,0:0|0:0,0:0:0:0:
400,144,3897,1,2,0:0:0:0:
152,144,4460,5,2,0:0:0:0:
384,256,5210,2,0,P|432:168|416:120,1,130,8|2,0:0|0:0,0:0:0:0:
392,80,5772,1,2,0:0:0:0:
240,64,6335,5,2,0:0:0:0:
120,288,6710,2,0,L|256:288,1,130,8|2,0:0|0:0,0:0:0:0:
432,152,7460,5,2,0:0:0:0:
312,160,7835,2,0,P|233:165|208:45,1,195,2|2,0:0|0:0,0:0:0:0:
312,64,8772,1,2,0:0:0:0:
416,64,8960,5,8,0:0:0:0:
312,296,9335,1,2,0:0:0:0:
208,296,9710,2,0,P|136:280|120:224,1,130,2|8,0:0|0:0,0:0:0:0:
312,184,10460,5,8,0:0:0:0:
432,168,10835,2,0,P|464:240|360:304,1,195,2|2,0:0|0:0,0:0:0:0:
144,280,11960,5,2,0:0:0:0:
376,280,12522,1,2,0:0:0:0:
376,192,12710,1,2,0:0:0:0:
168,296,13460,6,0,P|96:264|88:208,2,130,2|8|2,0:1|0:0|0:0,0:0:0:0:
312,256,14585,2,0,L|448:256,1,130,2|8,0:0|0:0,0:0:0:0:
272,144,15335,6,0,L|208:144,1,65,8|8,0:0|0:0,0:0:0:0:
72,144,15897,1,8,0:0:0:0:
328,144,16460,5,2,0:0:0:0:
112,312,17210,2,0,L|272:312,1,130,8|2,0:0|0:0,0:0:0:0:
304,312,17772,1,2,0:0:0:0:
408,80,18335,5,0,0:0:0:0:
232,80,18710,2,0,L|88:80,1,130,2|8,0:0|0:0,0:0:0:0:
272,232,19460,5,8,0:0:0:0:
104,232,19835,2,0,L|32:232,1,65,2|8,0:0|0:0,0:0:0:0:
176,128,20585,1,0,0:0:0:0:
32,320,20960,5,2,0:0:0:0:
152,320,21335,1,8,0:0:0:0:
272,320,21710,1,2,0:0:0:0:
392,320,22085,1,8,0:0:0:0:
224,56,22460,5,2,0:0:0:0:
464,304,23960,5,6,0:1:0:0:
256,192,24335,12,0,28006,1:0:0:0:
360,64,28355,5,12,3:2:0:0:
200,304,28704,1,10,0:2:0:0:
360,304,29053,2,0,P|416:248|432:176,1,143.000004364014,2|8,3:2|0:2,0:0:0:0:
336,96,29576,5,2,3:1:0:0:
176,192,29925,1,2,3:2:0:0:
80,192,30099,2,0,P|48:104|96:72,1,143.000004364014,10|2,0:2|3:2,0:0:0:0:
304,160,31146,5,4,3:2:0:0:
464,160,31494,1,10,0:2:0:0:
304,248,31843,2,0,L|160:248,1,143.000004364014,2|0,3:2|0:0,0:0:0:0:
88,248,32366,5,2,3:2:0:0:
248,96,32715,1,2,3:2:0:0:
344,152,32890,2,0,P|376:64|328:32,1,143.000004364014,10|10,0:2|0:2,0:0:0:0:
120,64,33936,5,6,3:2:0:0:
280,304,34285,1,10,0:2:0:0:
120,304,34634,2,0,P|64:248|48:176,1,143.000004364014,2|0,3:2|0:0,0:0:0:0:
144,96,35157,5,2,3:1:0:0:
304,192,35506,1,2,3:2:0:0:
400,192,35680,2,0,P|432:104|384:72,1,143.000004364014,10|2,0:2|3:2,0:0:0:0:
176,288,36727,5,6,0:0:0:0:
344,288,37076,2,0,L|344:216,1,71.5000021820069,8|6,0:0|3:2,0:0:0:0:
176,288,37599,2,0,L|176:208,1,71.5000021820069,10|6,0:2|3:2,0:0:0:0:
464,232,38471,5,10,0:2:0:0:
392,144,38820,2,0,L|320:144,1,71.5000021820069,0|0,1:2|1:2,0:0:0:0:
248,144,39169,2,0,L|168:144,1,71.5000021820069,2|2,1:2|1:2,0:0:0:0:
336,304,39866,5,14,0:2:0:0:
176,304,40215,2,0,P|120:248|104:176,1,143.000004364014,2|8,3:2|0:2,0:0:0:0:
200,96,40739,5,2,3:1:0:0:
360,192,41087,1,2,3:2:0:0:
448,192,41262,2,0,P|480:104|432:72,1,143.000004364014,10|2,0:2|3:2,0:0:0:0:
224,136,42308,5,6,3:2:0:0:
64,136,42657,1,8,0:2:0:0:
224,312,43006,2,0,L|376:312,1,143.000004364014,2|0,3:2|0:0,0:0:0:0:
440,312,43529,5,2,3:2:0:0:
280,104,43878,1,2,3:2:0:0:
184,160,44053,2,0,P|152:72|200:40,1,143.000004364014,10|10,0:2|0:2,0:0:0:0:
408,64,45099,5,6,3:2:0:0:
248,304,45448,1,10,0:2:0:0:
408,304,45797,2,0,P|464:248|480:176,1,143.000004364014,2|0,3:2|0:0,0:0:0:0:
384,96,46320,5,2,3:1:0:0:
224,192,46669,1,0,3:2:0:0:
128,192,46843,2,0,P|96:104|144:72,1,143.000004364014,10|2,0:2|3:2,0:0:0:0:
352,312,47890,5,4,3:2:0:0:
184,312,48239,2,0,L|184:240,1,71.5000021820069,10|6,0:2|3:2,0:0:0:0:
352,312,48762,2,0,L|352:240,1,71.5000021820069,10|6,0:2|0:2,0:0:0:0:
168,208,49285,2,0,L|312:208,1,143.000004364014,8|8,0:2|0:2,0:0:0:0:
448,136,49983,5,8,0:2:0:0:
288,136,50332,2,0,L|288:64,1,71.5000021820069,0|10,3:2|0:2,0:0:0:0:
376,328,50680,6,0,P|432:232|384:176,1,195,6|2,3:2|0:0,0:0:0:0:
240,176,51553,1,2,0:0:0:0:
376,56,51901,5,2,3:2:0:0:
128,64,52773,1,8,0:1:0:0:
272,288,53297,1,2,0:0:0:0:
360,296,53471,6,0,P|416:200|368:144,1,195,2|2,3:2|0:0,0:0:0:0:
224,184,54343,1,2,0:0:0:0:
72,184,54692,5,2,3:2:0:0:
320,56,55564,1,8,2:1:0:0:
176,320,56087,1,2,0:0:0:0:
88,320,56262,6,0,P|32:224|80:168,1,195,2|2,3:2|0:0,0:0:0:0:
224,168,57134,1,2,0:0:0:0:
72,48,57483,5,2,3:2:0:0:
344,312,58180,2,0,P|416:200|336:128,1,260,2|2,0:0|0:0,0:0:0:0:
264,128,59053,1,6,3:1:0:0:
256,192,59401,12,0,63239,0:0:0:0:
