osu file format v14

[General]
AudioFilename: audio.mp3
AudioLeadIn: 0
PreviewTime: 28268
Countdown: 0
SampleSet: Soft
StackLeniency: 0.7
Mode: 2
LetterboxInBreaks: 0
WidescreenStoryboard: 0

[Editor]
DistanceSpacing: 0.8
BeatDivisor: 4
GridSize: 32
TimelineZoom: 1

[Metadata]
Title:Hanami ON THE RIFT (PV ver.)
TitleUnicode:花見 ON THE RIFT (PV ver.)
Artist:League of Legends
ArtistUnicode:リーグ・オブ・レジェンド
Creator:Ascendance
Version:Salad
Source:League of Legends
Tags:riot games japan dnb drum and bass sakura event jhin sanyi alienflybot absolute zero afk98 californian darknessofblue sinnoh piku p_i_k_u benny- bennybananas ponchiwi celerih hareimu f_d_flourite fdflourite sorcerer tomthewizard spectator kyuare kin kinzo koliron
BeatmapID:1477171
BeatmapSetID:695308

[Difficulty]
HPDrainRate:4
CircleSize:2.7
OverallDifficulty:7
ApproachRate:7
SliderMultiplier:1.6
SliderTickRate:2

[Events]
//Background and Video events
0,0,"epksy1ypx5yz.jpg",0,0
//Break Periods
//Storyboard Layer 0 (Background)
//Storyboard Layer 1 (Fail)
//Storyboard Layer 2 (Pass)
//Storyboard Layer 3 (Foreground)
//Storyboard Sound Samples

[TimingPoints]
1460,375,4,2,21,30,1,0
1460,-133.333333333333,4,2,21,30,0,0
1835,-133.333333333333,4,2,21,30,0,0
2210,-133.333333333333,4,2,21,30,0,0
2772,-133.333333333333,4,2,21,30,0,0
2960,-133.333333333333,4,2,21,30,0,0
3335,-133.333333333333,4,2,21,30,0,0
3522,-133.333333333333,4,2,21,30,0,0
3897,-133.333333333333,4,2,21,30,0,0
4460,-133.333333333333,4,2,21,30,0,0
4835,-133.333333333333,4,2,21,30,0,0
5210,-133.333333333333,4,2,21,30,0,0
5397,-133.333333333333,4,2,21,30,0,0
5585,-133.333333333333,4,2,21,30,0,0
5772,-133.333333333333,4,2,21,30,0,0
5960,-133.333333333333,4,2,21,30,0,0
6897,-133.333333333333,4,2,21,30,0,0
7085,-133.333333333333,4,2,21,30,0,0
7460,-133.333333333333,4,2,21,30,0,0
7835,-133.333333333333,4,2,21,30,0,0
8022,-133.333333333333,4,2,21,30,0,0
8397,-133.333333333333,4,2,21,30,0,0
8772,-133.333333333333,4,2,21,30,0,0
8960,-133.333333333333,4,2,21,30,0,0
9335,-133.333333333333,4,2,21,30,0,0
9710,-133.333333333333,4,2,21,30,0,0
9897,-133.333333333333,4,2,21,30,0,0
10085,-133.333333333333,4,2,21,30,0,0
10460,-133.333333333333,4,2,21,30,0,0
10835,-133.333333333333,4,2,21,30,0,0
11022,-133.333333333333,4,2,21,30,0,0
11397,-133.333333333333,4,2,21,30,0,0
11960,-133.333333333333,4,2,21,30,0,0
12335,-133.333333333333,4,2,21,30,0,0
12710,-133.333333333333,4,2,21,30,0,0
13085,-133.333333333333,4,2,21,30,0,0
13460,-133.333333333333,4,2,21,34,0,0
13835,-133.333333333333,4,2,21,34,0,0
14210,-133.333333333333,4,2,21,34,0,0
14960,-133.333333333333,4,2,21,34,0,0
15335,-133.333333333333,4,2,21,34,0,0
15522,-133.333333333333,4,2,21,34,0,0
15897,-133.333333333333,4,2,21,34,0,0
16460,-133.333333333333,4,2,21,34,0,0
16835,-133.333333333333,4,2,21,34,0,0
17210,-133.333333333333,4,2,21,34,0,0
17397,-133.333333333333,4,2,21,34,0,0
17585,-133.333333333333,4,2,21,34,0,0
17772,-133.333333333333,4,2,21,34,0,0
18147,-133.333333333333,4,2,21,34,0,0
18710,-133.333333333333,4,2,21,34,0,0
19085,-133.333333333333,4,2,21,34,0,0
19460,-133.333333333333,4,2,21,34,0,0
19835,-133.333333333333,4,2,21,34,0,0
20022,-133.333333333333,4,2,21,34,0,0
20210,-133.333333333333,4,2,21,34,0,0
20585,-133.333333333333,4,2,21,34,0,0
20960,-133.333333333333,4,2,21,34,0,0
21335,-133.333333333333,4,2,21,34,0,0
21710,-133.333333333333,4,2,21,34,0,0
22085,-133.333333333333,4,2,21,34,0,0
22272,-133.333333333333,4,2,21,34,0,0
22460,-133.333333333333,4,2,21,34,0,0
22835,-133.333333333333,4,2,21,34,0,0
23210,-133.333333333333,4,2,21,34,0,0
23585,-133.333333333333,4,2,21,34,0,0
23960,-133.333333333333,4,2,21,34,0,0
24006,-133.333333333333,4,2,21,10,0,0
24710,-133.333333333333,4,2,21,10,0,0
25460,-133.333333333333,4,2,21,10,0,0
26210,-133.333333333333,4,2,21,10,0,0
26585,-133.333333333333,4,2,21,10,0,0
26960,348.837209302326,4,2,22,38,1,0
27047,-100,4,2,22,40,0,0
27134,-100,4,2,22,42,0,0
27221,-100,4,2,22,44,0,0
27308,-100,4,2,22,46,0,0
27396,-100,4,2,22,48,0,0
27483,-100,4,2,22,50,0,0
27570,-100,4,2,22,52,0,0
27657,-100,4,2,22,54,0,0
27744,-100,4,2,22,56,0,0
27832,-100,4,2,22,58,0,0
27919,-100,4,2,22,60,0,0
28006,-100,4,2,22,62,0,0
28093,-100,4,2,22,64,0,0
28180,-100,4,2,22,66,0,0
28268,-100,4,2,22,68,0,0
28355,-100,4,2,22,70,0,1
28529,-100,4,2,22,70,0,1
30448,-100,4,2,22,70,0,1
30797,-100,4,2,22,70,0,1
31146,-100,4,2,22,70,0,1
31320,-100,4,2,22,70,0,1
33936,-100,4,2,22,70,0,1
34111,-100,4,2,22,70,0,1
36029,-100,4,2,22,70,0,1
36378,-100,4,2,22,70,0,1
36727,-100,4,2,22,74,0,1
36901,-100,4,2,22,74,0,1
37250,-100,4,2,22,74,0,1
37424,-100,4,2,22,74,0,1
37599,-100,4,2,22,70,0,1
37686,-100,4,2,21,5,0,1
37773,-100,4,2,22,78,0,1
37947,-100,4,2,22,78,0,1
38122,-100,4,2,22,60,0,1
38820,-100,4,2,22,70,0,1
39518,-100,4,2,22,70,0,1
39692,-100,4,2,22,60,0,1
39866,-100,4,2,22,70,0,1
40040,-100,4,2,22,70,0,1
41611,-100,4,2,22,70,0,1
41960,-100,4,2,22,70,0,1
42308,-100,4,2,22,70,0,1
42482,-100,4,2,22,70,0,1
45099,-100,4,2,22,70,0,1
45273,-100,4,2,22,70,0,1
47192,-100,4,2,22,70,0,1
47541,-100,4,2,22,70,0,1
47715,-100,4,2,22,74,0,1
47890,-100,4,2,22,74,0,1
48064,-100,4,2,22,74,0,1
48413,-100,4,2,22,74,0,1
48587,-100,4,2,22,74,0,1
48762,-100,4,2,22,70,0,1
48849,-100,4,2,21,5,0,1
48936,-100,4,2,22,78,0,1
49110,-100,4,2,22,78,0,1
49285,-100,4,2,22,70,0,1
50680,-100,4,2,21,40,0,0
50855,-100,4,2,21,40,0,0
51378,-100,4,2,21,40,0,0
51727,-100,4,2,21,40,0,0
52076,-100,4,2,21,40,0,0
52773,-100,4,2,21,40,0,0
52948,-100,4,2,21,40,0,0
53471,-100,4,2,21,40,0,0
53820,-100,4,2,21,40,0,0
54169,-100,4,2,21,40,0,0
54518,-100,4,2,21,40,0,0
54867,-100,4,2,21,40,0,0
55564,-100,4,2,21,40,0,0
55739,-100,4,2,21,40,0,0
56262,-100,4,2,21,40,0,0
56611,-100,4,2,21,40,0,0
56960,-100,4,2,21,40,0,0
57308,-100,4,2,21,40,0,0
57657,-100,4,2,21,40,0,0
58355,-100,4,2,21,40,0,0
58530,-100,4,2,21,40,0,0
59053,-100,4,2,21,40,0,0
59750,-100,4,2,21,40,0,0
60448,-100,4,2,21,30,0,0
61146,-100,4,2,21,30,0,0
61843,-100,4,2,21,20,0,0
62541,-100,4,2,21,20,0,0
63239,-100,4,2,21,10,0,0

[Colours]
Combo1 : 0,128,192
Combo2 : 64,0,255
Combo3 : 255,0,0
Combo4 : 192,192,192

[HitObjects]
116,330,1460,6,0,L|102:187,1,120.000004577637,2|8,0:1|0:0,0:0:0:0:
278,158,2210,1,8,0:0:0:0:
90,79,2585,1,8,0:0:0:0:
434,265,2960,2,0,P|464:184|386:118,1,180.000006866455,2|2,0:0|0:0,0:0:0:0:
219,132,3897,1,2,0:0:0:0:
431,314,4460,6,0,L|362:193,1,120.000004577637,2|0,0:0|0:0,0:0:0:0:
163,230,5210,2,0,L|161:149,1,60.0000022888184,8|8,0:0|0:0,0:0:0:0:
255,135,5585,1,2,0:0:0:0:
468,236,5772,2,0,P|491:132|332:48,1,300.000011444092,2|8,0:0|0:0,0:0:0:0:
151,85,7085,1,2,0:0:0:0:
337,289,7460,6,0,P|368:213|297:140,1,180.000006866455,2|2,0:0|0:0,0:0:0:0:
132,123,8397,2,0,L|266:105,1,120.000004577637,2|2,0:0|0:0,0:0:0:0:
448,224,8960,2,0,L|455:93,1,120.000004577637,8|2,0:0|0:0,0:0:0:0:
257,293,9710,2,0,L|398:308,1,120.000004577637,2|8,0:0|0:0,0:0:0:0:
55,346,10460,6,0,P|38:258|114:187,1,180.000006866455,8|2,0:0|0:0,0:0:0:0:
288,277,11397,2,0,L|301:139,1,120.000004577637,2|0,0:0|0:0,0:0:0:0:
91,186,11960,2,0,P|70:124|191:19,1,240.000009155274,2|2,0:0|0:0,0:0:0:0:
412,258,13460,6,0,L|424:124,1,120.000004577637,2|8,0:1|0:0,0:0:0:0:
237,182,14210,1,2,0:0:0:0:
435,45,14585,1,2,0:0:0:0:
110,308,14960,2,0,P|91:226|177:157,1,180.000006866455,8|8,0:0|0:0,0:0:0:0:
334,108,15897,2,0,L|190:95,1,120.000004577637,8|0,0:0|0:0,0:0:0:0:
377,230,16460,6,0,L|385:93,1,120.000004577637,2|0,0:0|0:0,0:0:0:0:
191,225,17210,2,0,L|123:230,2,60.0000022888184,8|8|2,0:0|0:0|0:0,0:0:0:0:
368,307,17772,2,0,P|395:201|292:134,1,240.000009155274,2|0,0:0|0:0,0:0:0:0:
200,208,18710,2,0,L|182:72,1,120.000004577637,2|8,0:0|0:0,0:0:0:0:
426,34,19460,6,0,L|244:57,2,180.000006866455,8|8|0,0:0|0:0|0:0,0:0:0:0:
257,198,20960,2,0,L|240:75,1,120.000004577637,2|8,0:0|0:0,0:0:0:0:
438,206,21710,2,0,L|427:332,1,120.000004577637,2|8,0:0|0:0,0:0:0:0:
237,278,22460,6,0,P|143:260|32:353,1,240.000009155274,2|2,0:0|0:0,0:0:0:0:
474,354,23960,1,6,0:1:0:0:
256,192,24335,12,0,28006,1:0:0:0:
123,322,28355,6,0,L|115:229,1,80,12|0,3:2|3:2,0:0:0:0:
236,192,28704,1,10,0:2:0:0:
59,119,29053,2,0,L|225:94,1,160,2|8,3:2|0:2,0:0:0:0:
406,121,29576,6,0,P|445:176|395:272,1,160,2|2,3:1|3:2,0:0:0:0:
309,279,30099,1,10,0:2:0:0:
150,338,30448,2,0,L|306:337,2,120,2|2|2,3:2|0:2|0:2,0:0:0:0:
332,365,31146,6,0,L|359:198,1,160,4|10,3:2|0:2,0:0:0:0:
186,247,31843,2,0,P|170:181|245:110,1,160,2|0,3:2|0:0,0:0:0:0:
411,183,32366,2,0,P|454:105|382:50,1,160,2|2,3:2|3:2,0:0:0:0:
330,49,32890,1,10,0:2:0:0:
164,35,33239,2,0,L|32:40,2,120,10|10|0,0:2|0:2|0:2,0:0:0:0:
331,104,33936,6,0,L|412:112,2,80,6|2|10,3:2|0:2|0:2,0:0:0:0:
161,239,34634,2,0,L|321:234,1,160,2|0,3:2|0:0,0:0:0:0:
166,314,35157,6,0,P|151:244|224:178,1,160,2|2,3:1|3:2,0:0:0:0:
326,177,35680,1,10,0:2:0:0:
148,137,36029,2,0,L|15:137,2,120,2|2|2,3:2|0:2|3:2,0:0:0:0:
323,271,36727,6,0,P|363:203|292:148,1,160,6|8,0:0|0:0,0:0:0:0:
195,177,37250,2,0,P|159:113|224:46,1,160,6|10,3:2|0:2,0:0:0:0:
406,26,37773,2,0,P|465:89|330:241,1,320,6|10,3:2|0:2,0:0:0:0:
172,296,38820,2,0,P|119:189|285:83,1,320,0|0,1:2|0:0,0:0:0:0:
406,93,39866,5,14,0:2:0:0:
260,175,40215,2,0,L|76:175,1,160,2|8,3:2|0:2,0:0:0:0:
233,257,40739,6,0,L|403:257,1,160,2|2,3:1|3:2,0:0:0:0:
311,298,41262,1,10,0:2:0:0:
126,326,41611,2,0,L|-3:327,2,120,2|2|2,3:2|0:2|0:2,0:0:0:0:
306,364,42308,6,0,P|326:272|271:232,1,160,6|8,3:2|0:2,0:0:0:0:
118,275,43006,2,0,P|108:214|186:154,1,160,2|0,3:2|0:0,0:0:0:0:
364,221,43529,6,0,P|402:139|293:42,1,240,2|10,3:2|0:2,0:0:0:0:
164,44,44401,2,0,L|33:53,2,120,10|10|0,0:2|0:2|0:2,0:0:0:0:
331,117,45099,6,0,L|413:124,2,80,6|2|10,3:2|0:2|0:2,0:0:0:0:
157,146,45797,2,0,P|122:204|175:282,1,160,2|0,3:2|0:0,0:0:0:0:
371,357,46320,2,0,P|392:266|272:195,1,240,2|10,3:1|0:2,0:0:0:0:
164,217,47192,2,0,L|29:231,2,120,2|2|2,3:2|0:2|0:2,0:0:0:0:
368,292,47890,6,0,P|409:198|352:149,1,160,4|10,3:2|0:2,0:0:0:0:
258,127,48413,2,0,L|91:127,1,160,6|10,3:2|0:2,0:0:0:0:
245,207,48936,6,0,P|331:176|235:35,1,320,6|8,0:2|0:2,0:0:0:0:
68,37,49983,2,0,L|195:37,2,120,8|8|10,0:2|0:2|0:2,0:0:0:0:
245,99,50680,6,0,P|297:157|220:276,1,240,6|2,3:2|0:0,0:0:0:0:
32,291,51553,2,0,L|209:292,1,160,2|2,0:0|3:2,0:0:0:0:
438,295,52773,1,8,0:1:0:0:
207,295,53297,1,2,0:0:0:0:
397,353,53471,6,0,P|425:262|321:171,1,240,2|2,3:2|0:0,0:0:0:0:
184,125,54343,2,0,L|352:107,1,160,2|2,0:0|3:2,0:0:0:0:
78,63,55564,1,8,2:1:0:0:
313,65,56087,1,2,0:0:0:0:
141,62,56262,6,0,P|98:124|208:244,1,240,2|2,3:2|0:0,0:0:0:0:
379,347,57134,2,0,L|386:168,1,160,2|2,0:0|3:2,0:0:0:0:
210,279,58180,2,0,L|154:285,2,40,2|2|10,0:0|0:0|0:1,0:0:0:0:
333,328,58529,2,0,L|338:219,1,80,2|2,0:0|0:0,0:0:0:0:
226,178,58878,1,2,0:0:0:0:
427,126,59053,5,6,3:1:0:0:
256,192,59401,12,0,63239,0:0:0:0:
