osu file format v14

[General]
AudioFilename: audio.mp3
AudioLeadIn: 0
PreviewTime: 28268
Countdown: 0
SampleSet: Soft
StackLeniency: 0.7
Mode: 2
LetterboxInBreaks: 0
WidescreenStoryboard: 0

[Editor]
Bookmarks: 63239
DistanceSpacing: 1
BeatDivisor: 4
GridSize: 4
TimelineZoom: 2.999999

[Metadata]
Title:Hanami ON THE RIFT (PV ver.)
TitleUnicode:花見 ON THE RIFT (PV ver.)
Artist:League of Legends
ArtistUnicode:リーグ・オブ・レジェンド
Creator:Ascendance
Version:Reimu's Rain
Source:League of Legends
Tags:riot games japan dnb drum and bass sakura event jhin sanyi alienflybot absolute zero afk98 californian darknessofblue sinnoh piku p_i_k_u benny- bennybananas ponchiwi celerih hareimu f_d_flourite fdflourite sorcerer tomthewizard spectator kyuare kin kinzo koliron
BeatmapID:1473350
BeatmapSetID:695308

[Difficulty]
HPDrainRate:6
CircleSize:4.4
OverallDifficulty:9
ApproachRate:9
SliderMultiplier:1.8
SliderTickRate:2

[Events]
//Background and Video events
0,0,"epksy1ypx5yz.jpg",0,0
//Break Periods
//Storyboard Layer 0 (Background)
//Storyboard Layer 1 (Fail)
//Storyboard Layer 2 (Pass)
//Storyboard Layer 3 (Foreground)
//Storyboard Sound Samples

[TimingPoints]
1460,375,4,2,21,30,1,0
13460,-100,4,2,21,34,0,0
24006,-100,4,2,21,10,0,0
26960,348.837209302326,4,2,22,38,1,0
27047,-100,4,2,22,40,0,0
27134,-100,4,2,22,42,0,0
27221,-100,4,2,22,44,0,0
27308,-100,4,2,22,46,0,0
27396,-100,4,2,22,48,0,0
27483,-100,4,2,22,50,0,0
27570,-100,4,2,22,52,0,0
27657,-100,4,2,22,54,0,0
27744,-100,4,2,22,56,0,0
27832,-100,4,2,22,58,0,0
27919,-100,4,2,22,60,0,0
28006,-100,4,2,22,62,0,0
28093,-100,4,2,22,64,0,0
28180,-100,4,2,22,66,0,0
28268,-100,4,2,22,68,0,0
28355,-100,4,2,22,70,0,1
36727,-100,4,2,22,74,0,1
37599,-100,4,2,22,70,0,1
37686,-100,4,2,21,5,0,1
37773,-100,4,2,22,78,0,1
38122,-100,4,2,22,60,0,1
38820,-100,4,2,22,70,0,1
39169,-66.6666666666667,4,2,22,70,0,1
39430,-100,4,2,22,70,0,1
39692,-100,4,2,22,60,0,1
39866,-100,4,2,22,70,0,1
47715,-100,4,2,22,74,0,1
48762,-100,4,2,22,70,0,1
48849,-100,4,2,21,5,0,1
48936,-100,4,2,22,78,0,1
49285,-100,4,2,22,70,0,1
50680,-100,4,2,21,40,0,0
60448,-100,4,2,21,30,0,0
61843,-100,4,2,21,20,0,0
62541,-100,4,2,21,10,0,0
63239,-100,4,2,21,5,0,0

[Colours]
Combo1 : 0,128,192
Combo2 : 64,0,255
Combo3 : 255,0,0
Combo4 : 192,192,192

[HitObjects]
329,321,1460,6,0,L|357:143,1,180,2|8,0:1|0:0,0:0:0:0:
176,146,2210,1,8,0:0:0:0:
357,144,2585,2,0,L|370:232,1,90,8|8,0:0|0:0,0:0:0:0:
189,237,2960,2,0,P|140:191|206:112,1,180,2|8,0:0|0:0,0:0:0:0:
105,109,3522,2,0,P|59:179|117:239,1,180,2|2,0:0|0:0,0:0:0:0:
459,236,4460,6,0,L|273:236,1,180,2|0,0:0|0:0,0:0:0:0:
368,238,5022,1,0,0:0:0:0:
232,238,5210,2,0,L|219:150,1,90,8|8,0:0|0:0,0:0:0:0:
417,143,5585,1,2,0:0:0:0:
218,148,5772,1,2,0:0:0:0:
127,148,5960,6,0,L|99:326,1,180,0|2,0:0|0:0,0:0:0:0:
369,326,6710,2,0,L|488:325,2,90,8|8|2,0:0|0:0|0:0,0:0:0:0:
54,246,7460,6,0,L|250:246,1,180,2|2,0:0|0:0,0:0:0:0:
413,244,8022,2,0,L|232:244,1,180,2|2,0:0|0:0,0:0:0:0:
53,244,8772,1,2,0:0:0:0:
141,131,8960,2,0,L|169:309,1,180,8|2,0:0|0:0,0:0:0:0:
439,309,9710,2,0,L|452:221,1,90,2|2,0:0|0:0,0:0:0:0:
361,218,10085,1,8,0:0:0:0:
46,142,10460,6,0,L|74:320,1,180,8|2,0:0|0:0,0:0:0:0:
254,315,11022,2,0,P|271:232|202:184,1,180,2|2,0:0|0:0,0:0:0:0:
472,51,11960,2,0,P|480:181|366:248,1,270,2|2,0:0|0:0,0:0:0:0:
191,246,12710,2,0,L|385:246,1,180,2|0,0:0|0:0,0:0:0:0:
101,324,13460,6,0,L|73:146,1,180,2|0,0:1|0:0,0:0:0:0:
253,146,14210,1,2,0:0:0:0:
73,146,14585,2,0,L|86:234,1,90,2|2,0:0|0:0,0:0:0:0:
266,238,14960,2,0,P|317:175|255:121,1,180,8|8,0:0|0:0,0:0:0:0:
166,112,15522,2,0,L|370:112,1,180,8|8,0:0|0:0,0:0:0:0:
75,101,16460,6,0,P|42:169|123:236,1,180,2|0,0:0|0:0,0:0:0:0:
196,237,17022,1,0,0:0:0:0:
106,235,17210,2,0,L|119:147,1,90,8|8,0:0|0:0,0:0:0:0:
317,146,17585,1,2,0:0:0:0:
119,145,17772,1,2,0:0:0:0:
209,145,17960,6,0,L|237:323,1,180
417,323,18710,1,2,0:0:0:0:
237,321,19085,1,8,0:0:0:0:
455,315,19460,6,0,L|483:137,1,180,8|2,0:0|0:0,0:0:0:0:
393,138,20022,2,0,P|349:229|455:334,1,270,8|0,0:0|0:0,0:0:0:0:
185,330,20960,6,0,L|157:152,1,180,2|0,0:0|0:0,0:0:0:0:
327,330,21710,2,0,L|428:180,1,180,2|0,0:0|0:0,0:0:0:0:
157,152,22460,6,0,L|185:330,1,180,2|0,0:0|0:0,0:0:0:0:
276,327,23022,2,0,L|318:59,1,270
48,63,23960,1,6,0:1:0:0:
256,192,24335,12,0,26585,0:0:0:0:
294,123,26960,5,0,1:3:0:0:
332,145,27047,1,0,1:3:0:0:
343,188,27134,1,0,1:3:0:0:
332,145,27221,1,0,1:3:0:0:
294,123,27308,1,0,1:0:0:0:
256,148,27396,1,0,1:0:0:0:
263,192,27483,1,0,1:0:0:0:
330,193,27570,1,0,1:0:0:0:
151,72,27657,5,0,1:0:0:0:
95,79,27744,1,0,1:0:0:0:
62,111,27831,1,0,1:0:0:0:
51,154,27918,1,0,0:0:0:0:
62,111,28005,1,0,1:0:0:0:
95,79,28092,1,0,0:0:0:0:
151,72,28180,1,0,1:0:0:0:
218,72,28268,1,0,1:0:0:0:
439,287,28355,6,0,L|446:179,1,90,6|2,3:2|0:0,0:0:0:0:
197,251,28704,2,0,L|79:250,1,90,10|2,0:2|0:2,0:0:0:0:
355,101,29053,2,0,L|189:100,1,135,2|2,3:2|0:2,0:0:0:0:
175,99,29401,1,8,0:2:0:0:
427,95,29576,6,0,P|463:154|386:215,1,180,2|2,3:1|3:2,0:0:0:0:
143,165,30099,2,0,L|52:164,1,90,10|2,0:2|0:2,0:0:0:0:
305,165,30448,2,0,L|312:106,1,45,2|8,3:2|0:2,0:0:0:0:
174,118,30710,2,0,L|167:177,1,45,2|8,0:2|0:2,0:0:0:0:
34,165,30971,1,2,0:2:0:0:
348,164,31146,5,4,3:2:0:0:
392,164,31233,1,0,0:0:0:0:
348,164,31320,1,0,0:2:0:0:
101,174,31494,2,0,L|224:175,1,90,10|2,0:2|0:2,0:0:0:0:
370,175,31843,2,0,L|475:176,1,90,2|0,3:2|0:2,0:0:0:0:
414,174,32105,1,2,0:2:0:0:
346,174,32192,1,8,0:2:0:0:
99,254,32366,6,0,P|50:184|109:120,1,180,2|2,3:2|3:2,0:0:0:0:
374,256,32890,2,0,P|404:199|323:125,1,180,10|10,0:2|0:2,0:0:0:0:
288,123,33326,1,0,0:0:0:0:
333,124,33413,1,2,3:2:0:0:
153,125,33500,2,0,L|83:125,1,45,10|0,0:2|0:0,0:0:0:0:
333,124,33675,1,10,0:2:0:0:
385,149,33762,1,0,0:2:0:0:
396,192,33849,1,2,0:2:0:0:
171,198,33936,6,0,L|54:198,1,90,6|2,3:2|0:2,0:0:0:0:
329,89,34285,2,0,L|428:88,1,90,10|2,0:2|0:2,0:0:0:0:
373,90,34547,1,0,0:2:0:0:
148,292,34634,2,0,L|314:293,1,135,2|2,3:2|0:2,0:0:0:0:
328,294,34983,1,8,0:2:0:0:
57,305,35157,6,0,P|23:226|88:157,1,180,2|2,3:1|3:2,0:0:0:0:
347,160,35680,2,0,P|441:202|466:295,1,180,10|2,0:2|3:2,0:0:0:0:
240,269,36116,2,0,L|137:268,1,90,10|2,0:2|0:2,0:0:0:0:
331,140,36378,2,0,L|434:139,1,90,10|2,0:2|3:2,0:0:0:0:
375,139,36640,1,2,0:2:0:0:
195,140,36727,6,0,L|75:139,2,90,6|2|8,3:2|0:2|0:2,0:0:0:0:
443,247,37250,2,0,L|455:128,1,90,6|0,3:2|0:0,0:0:0:0:
361,159,37599,1,10,0:2:0:0:
91,161,37773,6,0,P|43:278|143:353,1,270,6|0,3:2|3:2,0:0:0:0:
414,353,38471,2,0,L|314:353,1,90,10|0,0:2|0:2,0:0:0:0:
76,141,38820,2,0,L|176:141,1,90,8|0,1:2|1:2,0:0:0:0:
211,140,39082,1,0,1:2:0:0:
390,142,39169,2,0,L|458:141,2,67.5000025749208,10|2|2,1:2|1:2|1:2,0:0:0:0:
457,141,39430,2,0,P|486:198|417:239,1,135,2|2,0:2|0:2,0:0:0:0:
124,161,39866,6,0,L|107:249,1,90,14|2,0:2|0:2,0:0:0:0:
354,100,40215,2,0,P|407:138|394:200,1,135,2|2,3:2|0:2,0:0:0:0:
354,219,40564,1,8,0:2:0:0:
85,94,40739,6,0,P|51:171|129:229,1,180,2|2,3:1|3:2,0:0:0:0:
362,231,41262,2,0,L|272:231,1,90,10|2,0:2|0:2,0:0:0:0:
24,242,41611,2,0,L|29:197,1,45,2|10,3:2|0:2,0:0:0:0:
164,190,41872,2,0,L|171:131,1,45,2|10,0:2|0:2,0:0:0:0:
34,139,42134,1,2,0:2:0:0:
305,112,42308,5,6,3:2:0:0:
260,112,42396,1,0,0:0:0:0:
215,113,42483,1,0,0:2:0:0:
462,283,42657,2,0,L|339:284,1,90,8|2,0:2|0:2,0:0:0:0:
124,103,43006,2,0,L|19:104,1,90,2|0,3:2|0:2,0:0:0:0:
80,102,43268,1,2,0:2:0:0:
148,102,43355,1,8,0:2:0:0:
418,109,43529,6,0,P|449:186|382:236,1,180,2|2,3:2|3:2,0:0:0:0:
109,235,44053,2,0,L|241:235,1,90,10|2,0:2|0:2,0:0:0:0:
243,233,44314,1,2,0:2:0:0:
64,151,44401,5,10,0:2:0:0:
18,151,44489,1,0,0:2:0:0:
64,151,44576,1,2,3:2:0:0:
289,148,44663,1,10,0:2:0:0:
345,132,44750,1,0,0:2:0:0:
119,78,44837,1,10,0:2:0:0:
55,78,44925,1,0,0:2:0:0:
119,78,45012,1,2,0:2:0:0:
343,79,45099,6,0,L|452:78,1,90,6|2,3:2|0:2,0:0:0:0:
185,131,45448,1,10,0:2:0:0:
129,147,45535,1,0,0:2:0:0:
96,178,45622,1,2,0:2:0:0:
84,222,45710,1,0,0:2:0:0:
267,224,45797,2,0,L|357:223,1,90,2|0,3:2|0:0,0:0:0:0:
123,165,46058,2,0,L|79:166,1,45,2|8,0:2|0:2,0:0:0:0:
352,178,46320,6,0,P|445:228|467:315,1,180,2|0,3:1|3:2,0:0:0:0:
160,178,46843,1,10,0:2:0:0:
122,202,46930,1,0,0:0:0:0:
129,246,47017,1,2,0:2:0:0:
181,258,47104,1,2,0:2:0:0:
362,257,47192,2,0,L|435:257,1,45,2|10,3:2|0:2,0:0:0:0:
271,256,47454,2,0,L|198:256,1,45,2|10,0:2|2:2,0:0:0:0:
473,149,47715,2,0,L|481:204,1,45,2|2,0:2|0:2,0:0:0:0:
252,203,47890,6,0,L|138:202,1,90,4|2,3:2|0:2,0:0:0:0:
320,144,48239,1,10,0:2:0:0:
75,225,48413,2,0,P|34:152|95:93,1,180,6|10,3:2|0:2,0:0:0:0:
369,118,48936,6,0,L|489:118,1,90,6|0,0:2|0:0,0:0:0:0:
188,109,49285,2,0,L|63:109,1,90,8|0,0:2|3:2,0:0:0:0:
278,274,49634,2,0,L|151:274,1,90,8|0,0:2|3:2,0:0:0:0:
368,277,49983,2,0,L|379:171,1,90,8|0,0:2|3:2,0:0:0:0:
197,187,50244,2,0,L|192:134,1,45,8|0,0:2|3:2,0:0:0:0:
374,135,50419,2,0,L|426:135,1,45,10|10,3:2|0:2,0:0:0:0:
106,151,50680,6,0,L|100:253,1,90,6|8,3:2|0:0,0:0:0:0:
191,142,51029,1,8,0:0:0:0:
100,240,51204,2,0,L|213:241,1,90,2|8,0:0|0:1,0:0:0:0:
280,242,51553,1,2,0:0:0:0:
118,49,51727,1,0,3:0:0:0:
365,92,51901,6,0,L|379:192,1,90,2|0,3:2|0:0,0:0:0:0:
287,184,52250,2,0,L|273:284,1,90,0|0,0:0|0:0,0:0:0:0:
184,273,52599,1,0,0:0:0:0:
346,277,52773,2,0,L|358:187,1,90,8|0,0:1|0:0,0:0:0:0:
449,188,53122,1,0,0:0:0:0:
358,189,53297,2,0,L|292:189,1,45,2|2,0:0|0:0,0:0:0:0:
133,192,53471,6,0,L|252:192,1,90,2|8,3:2|0:0,0:0:0:0:
132,84,53820,1,8,0:0:0:0:
222,85,53994,2,0,L|346:84,1,90,2|8,0:0|0:1,0:0:0:0:
222,191,54343,1,2,0:0:0:0:
384,192,54518,1,0,3:0:0:0:
137,247,54692,6,0,L|40:247,2,90,2|0|0,3:2|0:0|0:0,0:0:0:0:
227,247,55215,2,0,L|122:248,1,90
315,80,55564,2,0,L|303:170,1,90,8|0,2:1|0:0,0:0:0:0:
212,172,55913,1,0,0:0:0:0:
122,213,56087,2,0,L|192:213,1,45,2|2,0:0|0:0,0:0:0:0:
348,216,56262,6,0,L|450:216,1,90,2|8,3:2|0:0,0:0:0:0:
347,216,56611,1,8,0:0:0:0:
436,217,56785,2,0,L|426:120,1,90,2|8,0:0|0:1,0:0:0:0:
336,127,57134,1,2,0:0:0:0:
156,128,57308,1,0,3:0:0:0:
404,173,57483,6,0,L|415:273,1,90,2|0,3:2|0:0,0:0:0:0:
323,262,57832,2,0,L|312:162,1,90,0|0,0:0|0:0,0:0:0:0:
223,171,58180,1,2,0:0:0:0:
268,171,58268,1,2,0:0:0:0:
380,169,58355,1,10,0:1:0:0:
290,64,58529,2,0,L|199:64,1,90,2|2,0:0|0:0,0:0:0:0:
290,319,58878,1,2,0:0:0:0:
42,209,59053,1,6,3:1:0:0:
256,192,59227,12,0,63239,0:0:0:0:
