osu file format v14

[General]
AudioFilename: audio.mp3
AudioLeadIn: 0
PreviewTime: 28268
Countdown: 0
SampleSet: Soft
StackLeniency: 0.7
Mode: 2
LetterboxInBreaks: 0
WidescreenStoryboard: 0

[Editor]
DistanceSpacing: 0.8
BeatDivisor: 4
GridSize: 32
TimelineZoom: 1

[Metadata]
Title:Hanami ON THE RIFT (PV ver.)
TitleUnicode:花見 ON THE RIFT (PV ver.)
Artist:League of Legends
ArtistUnicode:リーグ・オブ・レジェンド
Creator:Ascendance
Version:Ponchi's Rain
Source:League of Legends
Tags:riot games japan dnb drum and bass sakura event jhin sanyi alienflybot absolute zero afk98 californian darknessofblue sinnoh piku p_i_k_u benny- bennybananas ponchiwi celerih hareimu f_d_flourite fdflourite sorcerer tomthewizard spectator kyuare kin kinzo koliron
BeatmapID:1474822
BeatmapSetID:695308

[Difficulty]
HPDrainRate:6
CircleSize:4
OverallDifficulty:9
ApproachRate:9
SliderMultiplier:1.8
SliderTickRate:2

[Events]
//Background and Video events
0,0,"epksy1ypx5yz.jpg",0,0
//Break Periods
//Storyboard Layer 0 (Background)
//Storyboard Layer 1 (Fail)
//Storyboard Layer 2 (Pass)
//Storyboard Layer 3 (Foreground)
//Storyboard Sound Samples

[TimingPoints]
1460,375,4,2,21,30,1,0
13460,-100,4,2,21,30,0,0
24006,-100,4,2,21,30,0,0
26772,-100,4,2,21,5,0,0
26960,348.837209302326,4,2,22,38,1,0
27047,-100,4,2,22,40,0,0
27134,-100,4,2,22,42,0,0
27221,-100,4,2,22,44,0,0
27308,-100,4,2,22,46,0,0
27396,-100,4,2,22,48,0,0
27483,-100,4,2,22,50,0,0
27570,-100,4,2,22,52,0,0
27657,-100,4,2,22,54,0,0
27744,-100,4,2,22,56,0,0
27832,-100,4,2,22,58,0,0
27919,-100,4,2,22,60,0,0
28006,-100,4,2,22,62,0,0
28093,-100,4,2,22,64,0,0
28180,-100,4,2,22,66,0,0
28268,-100,4,2,22,68,0,0
28355,-100,4,2,22,70,0,1
29576,-100,4,2,22,70,0,1
29925,-100,4,2,22,70,0,1
31146,-100,4,2,22,70,0,1
31320,-100,4,2,22,70,0,1
32366,-100,4,2,22,70,0,1
32715,-100,4,2,22,70,0,1
32890,-100,4,2,22,70,0,1
35157,-100,4,2,22,70,0,1
35419,-100,4,2,22,70,0,1
36553,-100,4,2,22,70,0,1
36727,-100,4,2,22,74,0,1
37250,-100,4,2,22,74,0,1
37599,-100,4,2,22,70,0,1
37686,-100,4,2,21,5,0,1
37773,-100,4,2,22,78,0,1
38122,-100,4,2,22,60,0,1
38820,-100,4,2,22,70,0,1
39430,-100,4,2,22,70,0,1
39692,-100,4,2,22,60,0,1
39866,-100,4,2,22,70,0,1
40215,-100,4,2,22,70,0,1
40739,-100,4,2,22,70,0,1
41000,-100,4,2,22,70,0,1
42308,-100,4,2,22,70,0,1
42483,-100,4,2,22,70,0,1
43529,-100,4,2,22,70,0,1
43878,-100,4,2,22,70,0,1
45099,-100,4,2,22,70,0,1
45273,-100,4,2,22,70,0,1
46320,-100,4,2,22,70,0,1
46669,-100,4,2,22,70,0,1
47715,-100,4,2,22,74,0,1
48413,-100,4,2,22,74,0,1
48762,-100,4,2,22,70,0,1
48849,-100,4,2,21,5,0,1
48936,-100,4,2,22,78,0,1
49285,-100,4,2,22,70,0,1
50680,-100,4,2,21,40,0,0
51553,-100,4,2,21,40,0,0
51901,-100,4,2,21,40,0,0
53297,-100,4,2,21,40,0,0
54692,-100,4,2,21,40,0,0
56087,-100,4,2,21,40,0,0
57483,-100,4,2,21,40,0,0
60448,-100,4,2,21,30,0,0
61843,-100,4,2,21,20,0,0
63239,-100,4,2,21,10,0,0

[Colours]
Combo1 : 0,128,192
Combo2 : 64,0,255
Combo3 : 255,0,0
Combo4 : 192,192,192

[HitObjects]
176,320,1460,6,0,P|112:288|112:160,1,180,2|8,0:1|0:0,0:0:0:0:
320,64,2210,2,0,P|416:96|384:160,1,180,8|8,0:0|0:0,0:0:0:0:
320,256,2772,1,8,0:0:0:0:
128,160,2960,2,0,P|128:256|224:288,1,180,2|8,0:0|0:0,0:0:0:0:
352,288,3522,2,0,P|448:256|448:160,1,180,2|2,0:0|0:0,0:0:0:0:
384,96,4085,1,0,0:0:0:0:
96,192,4460,6,0,P|62:115|160:96,1,180,2|0,0:0|0:0,0:0:0:0:
256,64,5022,1,0,0:0:0:0:
384,256,5210,2,0,L|288:224,2,90,8|8|2,0:0|0:0|0:0,0:0:0:0:
256,320,5772,1,2,0:0:0:0:
424,160,5960,6,0,P|424:64|360:64,1,180,8|2,0:0|0:0,0:0:0:0:
144,112,6710,1,8,0:0:0:0:
240,160,6897,2,0,L|320:96,1,90,8|2,0:0|0:0,0:0:0:0:
64,272,7460,6,0,P|64:208|160:208,1,180,2|2,0:0|0:0,0:0:0:0:
304,320,8022,2,0,P|368:288|352:192,1,180,2|2,0:0|0:0,0:0:0:0:
208,112,8772,1,2,0:0:0:0:
56,192,8960,6,0,P|40:272|120:304,1,180,8|2,0:0|0:0,0:0:0:0:
336,160,9710,1,2,0:0:0:0:
432,256,9897,2,0,L|336:320,1,90,2|8,0:0|0:0,0:0:0:0:
80,208,10460,6,0,P|80:160|192:112,1,180,8|2,0:0|0:0,0:0:0:0:
320,208,11022,2,0,P|320:288|208:288,1,180,2|2,0:0|0:0,0:0:0:0:
464,144,11960,2,0,P|320:176|320:96,1,270,2|2,0:0|0:0,0:0:0:0:
208,192,12710,2,0,P|96:128|93:240,1,270,2|0,0:0|0:0,0:0:0:0:
272,320,13460,6,0,P|361:261|345:181,1,180,2|8,0:1|0:0,0:0:0:0:
256,80,14210,1,2,0:0:0:0:
128,256,14585,2,0,L|240:256,1,90,2|2,0:0|0:0,0:0:0:0:
64,160,14960,2,0,B|32:160|32:160|192:160,1,180,8|8,0:0|0:0,0:0:0:0:
320,160,15522,2,0,P|352:96|272:48,1,180,8|8,0:0|0:0,0:0:0:0:
400,256,16085,1,0,0:0:0:0:
176,320,16460,6,0,P|144:256|240:240,1,180,2|0,0:0|0:0,0:0:0:0:
128,224,17022,1,0,0:0:0:0:
225,225,17210,2,0,L|305:145,1,90,8|8,0:0|0:0,0:0:0:0:
192,128,17585,2,0,L|128:192,1,90,2|2,0:0|0:0,0:0:0:0:
288,224,17960,6,0,B|336:224|336:224|176:224,1,180,8|0,0:0|0:0,0:0:0:0:
352,112,18710,1,2,0:0:0:0:
144,112,19085,1,8,0:0:0:0:
384,224,19460,6,0,P|400:160|320:80,1,180,8|2,0:0|0:0,0:0:0:0:
192,160,20022,2,0,P|176:118|192:77,1,90,8|8,0:0|0:0,0:0:0:0:
352,288,20585,1,0,0:0:0:0:
112,176,20960,6,0,P|96:128|208:96,1,180,2|8,0:0|0:0,0:0:0:0:
352,320,21710,2,0,L|160:320,1,180,2|8,0:0|0:0,0:0:0:0:
368,64,22460,2,0,P|400:96|320:160,1,180,2|0,0:0|0:0,0:0:0:0:
96,304,23210,2,0,P|96:240|192:240,1,180,0|0,0:0|0:0,0:0:0:0:
432,288,23960,5,6,0:1:0:0:
256,192,24147,12,0,26772,0:0:0:0:
176,320,26960,5,0,1:3:0:0:
116,288,27047,1,0,1:3:0:0:
100,228,27134,1,0,1:3:0:0:
124,168,27221,1,0,1:3:0:0:
320,56,27308,1,0,1:0:0:0:
376,88,27396,1,0,1:0:0:0:
392,152,27483,1,0,1:0:0:0:
356,200,27570,1,0,0:0:0:0:
160,328,27657,5,0,1:0:0:0:
88,304,27744,1,0,1:0:0:0:
48,240,27831,1,0,1:0:0:0:
48,160,27918,1,0,0:0:0:0:
80,96,28005,1,0,1:0:0:0:
144,56,28093,1,0,1:0:0:0:
356,200,28180,1,0,1:0:0:0:
400,256,28267,1,0,1:0:0:0:
176,304,28355,6,0,L|136:224,1,90,6|2,3:2|0:0,0:0:0:0:
368,48,28704,2,0,L|408:152,1,90,10|2,0:2|0:2,0:0:0:0:
216,200,29053,2,0,B|192:240|192:240|296:240,1,135,2|2,3:2|0:2,0:0:0:0:
216,200,29401,1,8,0:2:0:0:
456,80,29576,6,0,B|480:128|480:128|328:128,1,180,2|2,3:1|3:2,0:0:0:0:
80,320,30099,2,0,B|40:280|40:280|164:280,1,180,10|2,0:2|3:2,0:0:0:0:
312,200,30535,2,0,L|368:200,2,45,8|0|2,0:2|3:2|0:2,0:0:0:0:
120,192,30797,2,0,L|56:288,1,90,8|2,0:2|0:2,0:0:0:0:
304,128,31146,6,0,L|376:40,1,90,4|0,3:2|0:0,0:0:0:0:
232,80,31494,2,0,L|120:80,1,90,10|2,0:2|0:2,0:0:0:0:
288,320,31843,2,0,L|198:320,1,90,2|0,3:2|0:2,0:0:0:0:
128,256,32105,1,2,0:2:0:0:
192,256,32192,1,8,0:0:0:0:
424,160,32366,6,0,P|440:112|344:112,1,180,2|2,3:2|3:2,0:0:0:0:
104,232,32890,2,0,P|112:320|192:320,1,180,10|10,0:2|0:2,0:0:0:0:
248,320,33326,1,0,0:0:0:0:
304,320,33413,1,2,3:2:0:0:
136,120,33500,2,0,L|64:120,1,45,10|0,0:2|0:0,0:0:0:0:
344,80,33675,2,0,L|400:80,1,45,10|0,0:2|0:0,0:0:0:0:
344,80,33849,1,2,0:2:0:0:
176,240,33936,6,0,L|58:240,2,90,6|2|10,3:2|0:2|0:2,0:0:0:0:
96,160,34460,1,2,0:2:0:0:
264,296,34634,2,0,B|320:296|320:296|208:296,1,135,2|2,3:2|0:2,0:0:0:0:
176,296,34983,1,8,0:0:0:0:
456,160,35157,6,0,P|448:104|320:96,1,180,2|2,3:1|3:2,0:0:0:0:
88,328,35680,2,0,P|30:287|108:208,1,180,10|2,0:2|3:2,0:0:0:0:
256,192,36116,1,10,0:2:0:0:
304,160,36204,1,0,3:2:0:0:
296,104,36291,1,2,0:2:0:0:
72,200,36378,2,0,L|48:112,1,90,10|2,0:2|3:2,0:0:0:0:
112,96,36640,1,2,0:2:0:0:
344,320,36727,6,0,L|448:320,2,90,6|2|8,3:2|0:2|0:2,0:0:0:0:
88,240,37250,2,0,B|64:208|64:208|208:208,1,180,6|10,3:2|0:2,0:0:0:0:
448,104,37773,6,0,B|272:104|272:104|376:104|376:104|376:104,1,270,6|0,0:0|0:0,0:0:0:0:
96,336,38471,2,0,L|32:240,1,90,10|0,0:2|0:2,0:0:0:0:
336,136,38820,1,0,1:2:0:0:
392,160,38907,1,0,0:0:0:0:
400,216,38994,1,0,1:2:0:0:
352,264,39082,1,0,0:0:0:0:
112,208,39169,1,2,1:2:0:0:
88,144,39257,1,2,1:2:0:0:
136,96,39344,1,2,1:2:0:0:
240,152,39430,6,0,B|288:152|288:152|184:152,1,135,2|2,0:2|0:2,0:0:0:0:
464,104,39866,2,0,L|360:104,1,90,14|2,0:2|0:2,0:0:0:0:
256,304,40215,2,0,L|408:304,1,135,2|0,3:2|0:0,0:0:0:0:
320,304,40564,1,8,0:2:0:0:
80,256,40739,6,0,P|24:200|64:104,1,180,2|2,3:1|3:2,0:0:0:0:
296,104,41262,2,0,P|344:104|176:104,1,180,10|2,0:2|3:2,0:0:0:0:
376,184,41698,2,0,L|456:184,2,45,10|0|2,0:2|3:2|0:2,0:0:0:0:
176,184,41960,2,0,L|88:184,2,45,10|0|2,0:2|0:2|0:2,0:0:0:0:
424,288,42308,6,0,L|328:288,1,90,6|0,3:2|0:0,0:0:0:0:
88,128,42657,2,0,L|192:128,1,90,8|2,0:2|0:2,0:0:0:0:
312,224,43005,2,0,L|208:224,1,90,2|0,3:2|0:2,0:0:0:0:
280,224,43268,1,2,0:2:0:0:
336,224,43355,1,8,0:0:0:0:
72,104,43529,6,0,P|24:152|96:240,1,180,2|2,3:2|3:2,0:0:0:0:
328,224,44052,2,0,L|439:224,1,90,10|0,0:2|0:0,0:0:0:0:
128,104,44401,2,0,L|240:104,1,90,10|2,0:2|3:2,0:0:0:0:
416,112,44662,2,0,L|408:168,1,45,0|0,0:0|0:2,0:0:0:0:
152,184,44837,1,10,0:2:0:0:
128,240,44925,1,0,0:2:0:0:
152,288,45012,1,2,0:2:0:0:
368,320,45099,6,0,L|480:320,2,90,6|2|10,3:2|0:2|0:2,0:0:0:0:
272,320,45622,1,2,0:2:0:0:
80,320,45796,2,0,P|64:256|144:224,1,135,2|2,3:2|0:2,0:0:0:0:
208,160,46145,1,8,0:0:0:0:
456,64,46320,6,0,P|472:144|368:144,1,180,2|0,3:1|3:2,0:0:0:0:
128,224,46843,2,0,P|112:288|227:283,1,180,10|2,0:2|3:2,0:0:0:0:
320,320,47278,2,0,L|384:288,1,45,10|0,0:2|3:2,0:0:0:0:
176,112,47540,2,0,L|80:128,1,90,10|2,2:2|0:2,0:0:0:0:
136,120,47802,1,2,0:2:0:0:
336,192,47890,6,0,L|240:208,1,90,4|2,3:2|0:2,0:0:0:0:
128,232,48238,1,10,0:2:0:0:
432,248,48413,2,0,B|464:280|464:280|328:320,1,180,6|10,3:2|0:2,0:0:0:0:
88,176,48936,6,0,B|64:152|64:152|224:152,1,180,6|8,0:2|0:2,0:0:0:0:
336,152,49460,1,0,3:2:0:0:
64,256,49634,2,0,L|159:295,1,90,8|0,0:2|3:2,0:0:0:0:
424,288,49983,2,0,L|328:336,1,90,8|0,0:2|3:2,0:0:0:0:
152,136,50244,2,0,L|112:112,1,45,8|0,0:2|3:2,0:0:0:0:
336,112,50419,2,0,L|400:112,1,45,10|10,3:2|0:2,0:0:0:0:
336,112,50593,1,0,0:2:0:0:
128,328,50680,5,6,3:2:0:0:
48,256,50855,1,8,0:0:0:0:
64,136,51029,1,8,0:0:0:0:
160,72,51204,1,2,0:0:0:0:
272,112,51378,1,8,0:1:0:0:
112,224,51553,1,2,0:0:0:0:
184,304,51727,1,0,3:0:0:0:
416,192,51901,6,0,P|464:128|320:112,1,270,2|0,3:2|0:0,0:0:0:0:
224,160,52599,1,0,0:0:0:0:
464,288,52948,1,0,0:0:0:0:
256,320,53297,2,0,L|224:288,1,45,2|2,0:0|0:0,0:0:0:0:
384,64,53471,5,2,3:2:0:0:
480,160,53646,1,8,0:0:0:0:
448,288,53820,1,8,0:0:0:0:
256,288,53994,1,2,0:0:0:0:
192,192,54169,1,8,0:1:0:0:
256,96,54343,1,2,0:0:0:0:
368,96,54518,1,0,3:0:0:0:
88,328,54692,6,0,P|48:200|304:128,1,450,2|8,3:2|2:1,0:0:0:0:
136,296,56087,2,0,L|115:225,1,45,2|2,0:0|0:0,0:0:0:0:
304,176,56262,6,0,L|403:171,2,90,2|8|8,3:2|0:0|0:0,0:0:0:0:
176,112,56785,1,2,0:0:0:0:
280,104,56960,1,8,0:1:0:0:
152,200,57134,1,2,0:0:0:0:
72,208,57308,1,0,3:0:0:0:
368,160,57483,2,0,P|392:288|216:272,1,360,2|2,3:2|0:0,0:0:0:0:
192,208,58268,1,2,0:0:0:0:
264,120,58355,2,0,L|160:120,2,90,10|2|2,0:1|0:0|0:0,0:0:0:0:
344,120,58878,1,2,0:0:0:0:
88,120,59053,5,6,3:1:0:0:
256,192,59227,12,0,63239,0:0:0:0:
