osu file format v14

[General]
AudioFilename: audio.mp3
AudioLeadIn: 0
PreviewTime: 28268
Countdown: 0
SampleSet: Soft
StackLeniency: 0.7
Mode: 2
LetterboxInBreaks: 0
WidescreenStoryboard: 0

[Editor]
Bookmarks: 63239
DistanceSpacing: 1
BeatDivisor: 6
GridSize: 8
TimelineZoom: 2.699999

[Metadata]
Title:Hanami ON THE RIFT (PV ver.)
TitleUnicode:花見 ON THE RIFT (PV ver.)
Artist:League of Legends
ArtistUnicode:リーグ・オブ・レジェンド
Creator:Ascendance
Version:Piku's Rain
Source:League of Legends
Tags:riot games japan dnb drum and bass sakura event jhin sanyi alienflybot absolute zero afk98 californian darknessofblue sinnoh piku p_i_k_u benny- bennybananas ponchiwi celerih hareimu f_d_flourite fdflourite sorcerer tomthewizard spectator kyuare kin kinzo koliron
BeatmapID:1473993
BeatmapSetID:695308

[Difficulty]
HPDrainRate:7
CircleSize:4
OverallDifficulty:9
ApproachRate:9
SliderMultiplier:1.6
SliderTickRate:2

[Events]
//Background and Video events
0,0,"epksy1ypx5yz.jpg",0,0
//Break Periods
//Storyboard Layer 0 (Background)
//Storyboard Layer 1 (Fail)
//Storyboard Layer 2 (Pass)
//Storyboard Layer 3 (Foreground)
//Storyboard Sound Samples

[TimingPoints]
1460,375,4,2,21,30,1,0
1460,-86.9565217391304,4,2,21,30,0,0
13460,-86.9565217391304,4,2,21,35,0,0
22460,-133.333333333333,4,2,21,35,0,0
23585,-86.9565217391304,4,2,21,35,0,0
24006,-86.9565217391304,4,2,21,10,0,0
26960,348.837209302326,4,2,22,40,1,0
27047,-100,4,2,22,40,0,0
27134,-100,4,2,22,42,0,0
27221,-100,4,2,22,44,0,0
27308,-100,4,2,22,46,0,0
27396,-100,4,2,22,48,0,0
27483,-100,4,2,22,50,0,0
27570,-100,4,2,22,52,0,0
27657,-100,4,2,22,54,0,0
27744,-100,4,2,22,56,0,0
27832,-100,4,2,22,58,0,0
27919,-100,4,2,22,60,0,0
28006,-100,4,2,22,62,0,0
28093,-100,4,2,22,64,0,0
28180,-100,4,2,22,66,0,0
28268,-100,4,2,22,68,0,0
28355,-100,4,2,22,70,0,1
36727,-100,4,2,22,75,0,1
37599,-100,4,2,22,60,0,1
38122,-100,4,2,22,60,0,1
38820,-100,4,2,22,70,0,1
39692,-100,4,2,22,60,0,1
39866,-100,4,2,22,70,0,1
48413,-100,4,2,22,75,0,1
48762,-100,4,2,22,70,0,1
50680,-100,4,2,21,40,0,0
60448,-100,4,2,21,30,0,0
61843,-100,4,2,21,20,0,0
63239,-100,4,2,21,10,0,0

[Colours]
Combo1 : 84,110,122
Combo2 : 189,189,189
Combo3 : 120,144,156

[HitObjects]
104,288,1460,6,0,L|112:104,1,184.000003509522,2|0,0:0|0:0,0:0:0:0:
296,224,2210,2,0,L|288:40,1,184.000003509522
192,56,2772,1,0,0:0:0:0:
376,304,2960,6,0,L|192:304,1,184.000003509522,2|0,0:0|0:0,0:0:0:0:
56,216,3522,2,0,L|240:216,1,184.000003509522,2|2,0:0|0:0,0:0:0:0:
376,136,4085,2,0,L|472:136,1,92.0000017547608
288,160,4460,6,0,P|224:112|288:64,1,184.000003509522,2|0,0:0|0:0,0:0:0:0:
384,32,5022,1,0,0:0:0:0:
200,336,5210,2,0,L|208:240,1,92.0000017547608,0|2,0:0|0:0,0:0:0:0:
376,256,5585,2,0,L|368:160,1,92.0000017547608,2|2,0:0|0:0,0:0:0:0:
232,112,5960,6,0,L|48:112,2,184.000003509522
416,112,6897,2,0,L|408:16,1,92.0000017547608,0|2,0:0|0:0,0:0:0:0:
72,240,7460,6,0,L|256:240,1,184.000003509522,2|0,0:0|0:0,0:0:0:0:
392,208,8022,2,0,L|384:112,1,92.0000017547608,2|0,0:0|0:0,0:0:0:0:
248,48,8397,2,0,L|344:48,1,92.0000017547608,2|0,0:0|0:0,0:0:0:0:
432,56,8772,1,2,0:0:0:0:
248,312,8960,2,0,P|184:264|248:216,1,184.000003509522,2|0,0:0|0:0,0:0:0:0:
432,144,9710,5,0,0:0:0:0:
344,136,9897,1,0,0:0:0:0:
256,128,10085,1,2,0:0:0:0:
32,192,10460,6,0,L|216:192,1,184.000003509522,2|2,0:0|0:0,0:0:0:0:
400,56,11022,2,0,L|304:56,2,92.0000017547608,2|0|2,0:0|0:0|0:0,0:0:0:0:
304,312,11585,2,0,L|312:232,1,80
472,160,11960,1,2,0:0:0:0:
200,136,12522,5,2,0:0:0:0:
384,192,12710,2,0,P|448:144|384:96,1,184.000003509522,2|0,0:0|0:0,0:0:0:0:
104,216,13460,6,0,L|288:216,2,184.000003509522,2|0|0,0:0|0:0|0:0,0:0:0:0:
384,120,14585,2,0,L|480:120,1,92.0000017547608,2|0,0:0|0:0,0:0:0:0:
296,312,14960,2,0,L|112:312,1,184.000003509522,2|0,0:0|0:0,0:0:0:0:
296,208,15522,2,0,L|480:208,1,184.000003509522,2|0,0:0|0:0,0:0:0:0:
336,64,16085,2,0,L|240:64,1,92.0000017547608
56,144,16460,6,0,L|240:144,1,184.000003509522,2|0,0:0|0:0,0:0:0:0:
152,224,17022,1,0,0:0:0:0:
288,232,17210,2,0,L|384:232,2,92.0000017547608
104,328,17772,2,0,L|288:328,1,184.000003509522
424,152,18335,2,0,L|328:152,1,92.0000017547608
152,64,18710,2,0,L|336:64,1,184.000003509522,2|2,0:0|0:0,0:0:0:0:
152,200,19460,6,0,L|336:200,1,184.000003509522,2|2,0:0|0:0,0:0:0:0:
200,304,20022,1,2,0:0:0:0:
384,320,20210,2,0,P|448:272|384:224,1,184.000003509522,2|0,0:0|0:0,0:0:0:0:
296,144,20772,1,0,0:0:0:0:
112,176,20960,6,0,L|296:176,2,184.000003509522,2|0|2,0:0|0:0|0:0,0:0:0:0:
296,88,22085,1,0,0:0:0:0:
112,312,22460,2,0,B|16:216|176:128|176:128|56:128|56:128|120:128,1,420.000016021729
280,224,23960,2,0,L|321:223,1,30.6666672515869,4|0,0:1|0:0,0:0:0:0:
256,192,24147,12,0,26772,0:0:0:0:
296,320,26960,5,0,0:0:0:0:
328,296,27047,1,0,0:0:0:0:
352,264,27134,1,0,0:0:0:0:
368,224,27221,1,0,0:0:0:0:
368,184,27308,1,0,0:0:0:0:
352,144,27396,1,0,0:0:0:0:
328,112,27483,1,0,0:0:0:0:
296,88,27570,1,0,0:0:0:0:
216,88,27657,6,0,L|176:88,1,40,0|0,1:0|0:0,0:0:0:0:
96,152,27832,2,0,L|152:152,1,40,0|0,0:0|1:0,0:0:0:0:
216,168,28006,2,0,L|256:168,1,40
176,240,28180,2,0,L|128:240,1,40,0|0,1:0|0:0,0:0:0:0:
336,272,28355,6,0,L|416:272,1,80,4|0,3:2|0:0,0:0:0:0:
256,88,28704,2,0,L|176:88,1,80,8|0,0:0|0:0,0:0:0:0:
416,168,29053,2,0,L|296:168,1,120,0|0,3:0|0:0,0:0:0:0:
256,168,29401,1,8,0:0:0:0:
16,240,29576,6,0,L|176:240,1,160,0|0,3:0|3:0,0:0:0:0:
416,272,30099,2,0,L|336:272,1,80,8|0,0:0|0:0,0:0:0:0:
176,120,30448,2,0,L|136:120,2,40,0|8|0,3:0|0:0|3:0,0:0:0:0:
416,80,30797,2,0,L|336:80,1,80,8|2,0:0|0:0,0:0:0:0:
96,48,31146,5,4,3:2:0:0:
264,192,31320,2,0,L|344:192,2,80,0|8|0,0:0|0:0|0:0,0:0:0:0:
24,184,31843,2,0,L|104:184,1,80,0|0,3:0|0:0,0:0:0:0:
264,120,32105,2,0,L|304:120,2,40,0|8|0,0:0|0:0|0:0,0:0:0:0:
104,312,32366,6,0,P|56:256|104:200,1,160,0|0,3:0|3:0,0:0:0:0:
264,48,32890,2,0,L|184:48,1,80,8|0,0:0|0:0,0:0:0:0:
424,280,33239,2,0,L|464:280,2,40,8|0|0,0:0|0:0|3:0,0:0:0:0:
264,256,33500,2,0,L|216:256,1,40,8|0,0:0|3:0,0:0:0:0:
384,200,33675,2,0,L|424:200,2,40,8|0|0,0:0|0:0|0:0,0:0:0:0:
224,120,33936,6,0,L|304:120,1,80,4|0,3:2|0:0,0:0:0:0:
144,168,34285,2,0,L|64:168,1,80,8|0,0:0|0:0,0:0:0:0:
304,264,34634,2,0,P|344:232|304:192,1,120,0|0,3:0|0:0,0:0:0:0:
264,136,34983,1,8,0:0:0:0:
24,72,35157,2,0,L|184:72,1,160,0|0,3:0|3:0,0:0:0:0:
424,144,35680,6,0,L|416:64,1,80,8|0,0:0|0:0,0:0:0:0:
176,296,36029,1,0,3:0:0:0:
216,296,36116,1,8,0:0:0:0:
256,296,36204,1,0,3:0:0:0:
136,216,36378,1,8,0:0:0:0:
296,208,36553,2,0,L|344:208,1,40
176,96,36727,6,0,L|96:96,2,80,4|0|8,3:2|0:0|0:0,0:0:0:0:
416,96,37250,2,0,L|336:96,2,80,4|0|8,3:2|0:0|0:0,0:0:0:0:
176,232,37773,2,0,L|344:232,1,160,4|0,3:2|0:0,0:0:0:0:
216,88,38297,1,0,3:0:0:0:
376,24,38471,1,8,0:0:0:0:
264,32,38646,1,0,3:0:0:0:
424,96,38820,6,0,L|288:96,1,120,8|0,0:0|0:0,0:0:0:0:
144,184,39169,2,0,L|104:184,1,40,8|8,0:0|0:0,0:0:0:0:
264,240,39343,2,0,L|424:240,1,160,0|0,3:0|0:0,0:0:0:0:
184,184,39866,6,0,L|104:184,1,80,14|0,0:0|0:0,0:0:0:0:
344,320,40215,2,0,L|224:320,1,120,0|0,3:0|0:0,0:0:0:0:
184,256,40564,1,8,0:0:0:0:
424,160,40739,6,0,P|471:104|424:48,1,160,0|0,3:0|3:0,0:0:0:0:
184,96,41262,2,0,L|264:96,1,80,8|0,0:0|0:0,0:0:0:0:
104,232,41611,2,0,L|96:192,1,40,0|8,3:0|0:0,0:0:0:0:
336,224,41872,2,0,L|344:184,1,40,0|8,3:0|0:0,0:0:0:0:
200,168,42134,1,2,0:0:0:0:
440,128,42308,6,0,L|480:128,2,40,4|0|0,3:2|0:0|0:0,0:0:0:0:
280,112,42657,2,0,L|360:112,1,80,8|0,0:0|0:0,0:0:0:0:
120,296,43006,2,0,L|40:296,1,80,0|0,3:0|0:0,0:0:0:0:
96,216,43268,1,0,0:0:0:0:
136,216,43355,1,8,0:0:0:0:
176,216,43442,1,0,0:0:0:0:
336,248,43529,6,0,P|392:208|336:168,1,160,0|0,3:0|3:0,0:0:0:0:
176,48,44053,1,8,0:0:0:0:
336,88,44227,2,0,L|384:88,1,40
216,280,44401,2,0,L|176:280,2,40,8|0|0,0:0|0:0|3:0,0:0:0:0:
376,48,44663,2,0,L|416:48,1,40,8|0,0:0|3:0,0:0:0:0:
256,112,44837,2,0,L|208:112,2,40,8|0|0,0:0|0:0|0:0,0:0:0:0:
416,248,45099,6,0,L|440:168,1,80,4|0,3:2|0:0,0:0:0:0:
280,304,45448,2,0,L|256:224,1,80,8|0,0:0|0:0,0:0:0:0:
416,48,45797,2,0,L|296:48,1,120,0|0,3:0|0:0,0:0:0:0:
256,112,46146,1,8,0:0:0:0:
16,128,46320,6,0,L|176:128,1,160,0|0,3:0|3:0,0:0:0:0:
416,192,46843,2,0,L|256:192,1,160,8|0,0:0|3:0,0:0:0:0:
104,48,47279,2,0,L|56:48,2,40,8|0|0,0:0|3:0|3:0,0:0:0:0:
264,56,47541,2,0,L|352:56,1,80,8|0,0:0|0:0,0:0:0:0:
384,120,47803,1,0,0:0:0:0:
224,280,47890,6,0,L|144:280,2,80,0|0|8,3:0|0:0|0:0,0:0:0:0:
464,232,48413,2,0,L|288:232,1,160,0|8,3:0|0:0,0:0:0:0:
64,184,48936,2,0,L|184:184,1,120,0|0,3:0|0:0,0:0:0:0:
264,112,49285,6,0,L|184:112,1,80,8|0,0:0|3:0,0:0:0:0:
424,112,49634,2,0,L|504:112,1,80,8|0,0:0|3:0,0:0:0:0:
264,264,49983,1,8,0:0:0:0:
136,192,50157,2,0,L|96:192,1,40,0|8,0:0|0:0,0:0:0:0:
336,192,50419,2,0,L|376:192,1,40,8|8,0:0|0:0,0:0:0:0:
136,320,50680,6,0,L|56:320,2,80,6|0|0,0:0|0:0|0:0,0:0:0:0:
296,192,51204,2,0,L|288:112,1,80,2|8,0:0|0:1,0:0:0:0:
128,208,51553,2,0,L|136:128,1,80,2|0,0:0|3:0,0:0:0:0:
296,40,51901,2,0,L|136:40,1,160,2|0,3:2|0:0,0:0:0:0:
216,272,52425,6,0,L|296:272,1,80
176,184,52773,2,0,L|256:184,2,80,8|0|0,0:1|0:0|0:0,0:0:0:0:
336,152,53297,2,0,L|280:112,1,40,2|2,0:0|0:0,0:0:0:0:
224,48,53471,6,0,L|304:48,2,80,2|0|0,3:2|0:0|0:0,0:0:0:0:
64,168,53994,2,0,L|72:88,1,80,2|8,0:0|0:1,0:0:0:0:
232,200,54343,2,0,L|224:120,1,80,2|0,0:0|3:0,0:0:0:0:
64,272,54692,6,0,L|224:272,1,160,2|0,3:2|0:0,0:0:0:0:
304,184,55215,2,0,L|216:184,1,80
104,120,55564,2,0,L|16:120,2,80,8|0|0,0:1|0:0|0:0,0:0:0:0:
264,88,56087,2,0,L|272:48,1,40,2|2,0:0|0:0,0:0:0:0:
192,120,56262,6,0,L|112:120,1,80,2|0,3:2|0:0,0:0:0:0:
32,192,56611,1,0,0:0:0:0:
192,296,56785,2,0,L|184:216,1,80,0|8,0:0|0:1,0:0:0:0:
24,344,57134,2,0,L|32:264,1,80,0|0,0:0|3:0,0:0:0:0:
192,120,57483,6,0,L|352:120,1,160,2|0,3:2|0:0,0:0:0:0:
272,208,58006,1,0,0:0:0:0:
432,216,58180,2,0,L|472:216,2,40,2|2|8,0:0|0:0|0:1,0:0:0:0:
312,296,58529,1,0,0:0:0:0:
472,312,58704,1,2,0:0:0:0:
312,296,58878,1,0,0:0:0:0:
72,192,59053,1,4,3:1:0:0:
256,192,59227,12,0,63239,0:0:0:0:
