osu file format v14

[General]
AudioFilename: audio.mp3
AudioLeadIn: 0
PreviewTime: 28268
Countdown: 0
SampleSet: Soft
StackLeniency: 0.7
Mode: 2
LetterboxInBreaks: 0
WidescreenStoryboard: 0

[Editor]
Bookmarks: 13460,63239
DistanceSpacing: 1
BeatDivisor: 6
GridSize: 8
TimelineZoom: 2.2

[Metadata]
Title:Hanami ON THE RIFT (PV ver.)
TitleUnicode:花見 ON THE RIFT (PV ver.)
Artist:League of Legends
ArtistUnicode:リーグ・オブ・レジェンド
Creator:Ascendance
Version:Kyuare's Overdose
Source:League of Legends
Tags:riot games japan dnb drum and bass sakura event jhin sanyi alienflybot absolute zero afk98 californian darknessofblue sinnoh piku p_i_k_u benny- bennybananas ponchiwi celerih hareimu f_d_flourite fdflourite sorcerer tomthewizard spectator kyuare kin kinzo koliron
BeatmapID:1476251
BeatmapSetID:695308

[Difficulty]
HPDrainRate:7
CircleSize:4.1
OverallDifficulty:9.1
ApproachRate:9.1
SliderMultiplier:1.92
SliderTickRate:2

[Events]
//Background and Video events
0,0,"epksy1ypx5yz.jpg",0,0
//Break Periods
//Storyboard Layer 0 (Background)
//Storyboard Layer 1 (Fail)
//Storyboard Layer 2 (Pass)
//Storyboard Layer 3 (Foreground)
//Storyboard Sound Samples

[TimingPoints]
1460,375,4,2,21,30,1,0
26772,-100,4,2,21,5,0,0
26960,348.837209302326,4,2,22,38,1,0
27047,-100,4,2,22,40,0,0
27134,-100,4,2,22,42,0,0
27221,-100,4,2,22,44,0,0
27308,-100,4,2,22,46,0,0
27396,-100,4,2,22,48,0,0
27483,-100,4,2,22,50,0,0
27570,-100,4,2,22,52,0,0
27657,-100,4,2,22,54,0,0
27744,-100,4,2,22,56,0,0
27832,-100,4,2,22,58,0,0
27919,-100,4,2,22,60,0,0
28006,-100,4,2,22,62,0,0
28093,-100,4,2,22,64,0,0
28180,-100,4,2,22,66,0,0
28268,-100,4,2,22,68,0,0
28355,-100,4,2,22,70,0,1
29576,-100,4,2,22,70,0,1
29925,-100,4,2,22,70,0,1
31146,-100,4,2,22,70,0,1
31320,-100,4,2,22,70,0,1
32366,-100,4,2,22,70,0,1
32715,-100,4,2,22,70,0,1
32890,-100,4,2,22,70,0,1
35157,-100,4,2,22,70,0,1
35419,-100,4,2,22,70,0,1
36553,-100,4,2,22,70,0,1
36727,-100,4,2,22,74,0,1
37250,-100,4,2,22,74,0,1
37599,-100,4,2,22,70,0,1
37686,-100,4,2,21,5,0,1
37773,-100,4,2,22,78,0,1
38122,-100,4,2,22,60,0,1
38820,-100,4,2,22,70,0,1
39430,-100,4,2,22,70,0,1
39692,-100,4,2,22,60,0,1
39866,-100,4,2,22,70,0,1
40215,-100,4,2,22,70,0,1
40739,-100,4,2,22,70,0,1
41000,-100,4,2,22,70,0,1
42308,-100,4,2,22,70,0,1
42483,-100,4,2,22,70,0,1
43529,-100,4,2,22,70,0,1
43878,-100,4,2,22,70,0,1
45099,-100,4,2,22,70,0,1
45273,-100,4,2,22,70,0,1
46320,-100,4,2,22,70,0,1
46669,-100,4,2,22,70,0,1
47715,-100,4,2,22,74,0,1
48413,-100,4,2,22,74,0,1
48762,-100,4,2,22,70,0,1
48849,-100,4,2,21,5,0,1
48936,-100,4,2,22,78,0,1
49285,-100,4,2,22,70,0,1
50680,-100,4,2,21,40,0,0
51553,-100,4,2,21,40,0,0
51901,-100,4,2,21,40,0,0
53297,-100,4,2,21,40,0,0
54692,-100,4,2,21,40,0,0
56087,-100,4,2,21,40,0,0
57483,-100,4,2,21,40,0,0
60448,-100,4,2,21,30,0,0
61843,-100,4,2,21,20,0,0
63239,-100,4,2,21,10,0,0

[Colours]
Combo1 : 0,128,192
Combo2 : 64,0,255
Combo3 : 255,0,0
Combo4 : 192,192,192

[HitObjects]
337,286,1460,6,0,P|416:232|383:158,1,192,2|0,0:0|0:0,0:0:0:0:
192,232,2210,2,0,P|113:178|146:104,1,192,2|0,0:0|0:0,0:0:0:0:
242,106,2772,1,0,0:0:0:0:
98,108,2960,2,0,B|33:178|33:178|100:250,1,192,2|0,0:0|0:0,0:0:0:0:
242,264,3522,2,0,L|243:158,1,96
387,159,3897,1,2,0:0:0:0:
100,81,4460,6,0,P|49:217|152:274,1,288,2|0,0:0|0:0,0:0:0:0:
297,278,5210,1,2,0:0:0:0:
200,193,5397,1,0,0:0:0:0:
344,180,5585,1,2,0:0:0:0:
247,95,5772,1,2,0:0:0:0:
391,73,5960,6,0,P|453:145|409:216,1,192,0|2,0:0|0:0,0:0:0:0:
200,193,6710,2,0,L|308:205,2,96,2|0|2,0:0|0:0|0:0,0:0:0:0:
488,275,7460,6,0,P|479:180|396:156,1,192,2|0,0:0|0:0,0:0:0:0:
253,193,8022,1,0,0:0:0:0:
349,171,8210,1,2,0:0:0:0:
205,131,8397,6,0,P|148:207|199:273,1,192,2|0,0:0|0:0,0:0:0:0:
344,283,8960,2,2,L|356:81,1,192
163,104,9710,1,2,0:0:0:0:
259,117,9897,1,0,0:0:0:0:
355,129,10085,1,2,0:0:0:0:
24,109,10460,6,0,P|33:204|116:228,1,192,2|0,0:0|0:0,0:0:0:0:
259,191,11022,1,0,0:0:0:0:
163,213,11210,1,2,0:0:0:0:
307,253,11397,6,0,P|364:177|313:111,1,192,2|0,0:0|0:0,0:0:0:0:
119,63,11960,2,0,P|36:182|121:266,1,288,2|0,0:0|0:0,0:0:0:0:
265,260,12710,1,2,0:0:0:0:
74,305,13460,6,0,P|42:130|208:71,1,384,2|0,0:0|0:0,0:0:0:0:
398,94,14585,1,0,0:0:0:0:
302,124,14772,1,0,0:0:0:0:
446,157,14960,2,0,L|446:353,1,192,2|0,0:0|0:0,0:0:0:0:
302,337,15522,2,2,L|301:137,1,192,2|0,0:0|0:0,0:0:0:0:
12,339,16460,6,0,P|39:201|164:149,1,288,2|0,0:0|0:0,0:0:0:0:
309,166,17210,1,2,0:0:0:0:
405,220,17397,1,0,0:0:0:0:
261,239,17585,1,2,0:0:0:0:
357,293,17772,1,2,0:0:0:0:
213,311,17960,6,2,P|128:268|148:189,1,192,2|0,0:0|0:0,0:0:0:0:
359,221,18710,2,2,P|444:178|424:99,1,192
153,99,19460,5,2,0:0:0:0:
384,189,19835,2,2,L|276:201,2,96
153,241,20585,1,0,0:0:0:0:
383,297,20960,6,2,L|178:321,3,192
288,309,22272,1,0,0:0:0:0:
144,323,22460,2,0,P|122:236|198:188,1,192
428,331,23210,2,0,P|479:155|332:62,1,384,0|2,0:0|0:0,0:0:0:0:
296,70,24022,1,0,0:0:0:0:
256,192,24147,12,0,26772,0:0:0:0:
410,328,26960,5,0,0:0:0:0:
441,313,27047,1,0,0:0:0:0:
466,283,27134,1,0,0:0:0:0:
472,246,27221,1,0,0:0:0:0:
454,204,27308,1,0,0:0:0:0:
419,179,27396,1,0,0:0:0:0:
379,165,27483,1,0,0:0:0:0:
316,159,27570,1,0,0:0:0:0:
165,168,27657,5,2,0:0:0:0:
104,154,27744,1,0,0:0:0:0:
165,168,27832,1,0,0:0:0:0:
308,72,27919,5,2,0:0:0:0:
370,93,28006,1,0,0:0:0:0:
308,72,28094,1,0,0:0:0:0:
165,168,28180,1,2,0:0:0:0:
104,154,28268,1,0,0:0:0:0:
296,172,28355,6,0,L|393:191,1,96,4|0,0:0|0:0,0:0:0:0:
226,250,28704,2,0,L|323:269,1,96,8|0,0:0|0:0,0:0:0:0:
79,315,29053,2,0,L|77:215,1,96,2|0,0:0|0:0,0:0:0:0:
149,221,29314,1,0,0:0:0:0:
307,227,29401,1,8,0:0:0:0:
66,272,29576,6,0,B|58:176|58:176|160:175,1,192,4|0,0:0|0:0,0:0:0:0:
394,198,30099,2,0,L|396:98,1,96,8|0,0:0|0:0,0:0:0:0:
232,106,30448,1,2,0:0:0:0:
390,124,30535,1,8,0:0:0:0:
457,140,30622,1,0,0:0:0:0:
390,124,30710,1,0,0:0:0:0:
232,106,30797,2,0,L|135:87,1,96,8|0,0:0|0:0,0:0:0:0:
398,66,31146,6,0,L|495:85,1,96,4|0,0:0|0:0,0:0:0:0:
329,115,31494,2,0,L|232:134,1,96,8|0,0:0|0:0,0:0:0:0:
476,153,31843,2,0,L|418:229,1,96,2|2,0:0|0:0,0:0:0:0:
345,251,32105,1,0,0:0:0:0:
503,273,32192,1,8,0:0:0:0:
264,318,32366,6,0,P|186:272|182:178,1,192,4|2,0:0|0:0,0:0:0:0:
424,201,32890,2,0,B|467:144|467:144|424:81,1,144,8|0,0:0|0:0,0:0:0:0:
256,68,33239,5,8,0:0:0:0:
189,82,33326,1,0,0:0:0:0:
342,116,33413,1,2,0:0:0:0:
189,82,33500,1,8,0:0:0:0:
122,96,33587,1,0,0:0:0:0:
272,170,33675,1,8,0:0:0:0:
339,186,33762,1,0,0:0:0:0:
272,170,33849,1,0,0:0:0:0:
441,254,33936,6,0,L|460:157,1,96,4|0,0:0|0:0,0:0:0:0:
296,196,34285,2,0,L|393:215,1,96,8|0,0:0|0:0,0:0:0:0:
149,320,34634,2,0,L|131:226,1,96,2|0,0:0|0:0,0:0:0:0:
203,212,34896,1,0,0:0:0:0:
361,224,34983,1,8,0:0:0:0:
122,125,35157,6,0,P|129:216|212:253,1,192,4|0,0:0|0:0,0:0:0:0:
455,214,35680,2,0,L|464:111,1,96,8|0,0:0|0:0,0:0:0:0:
391,113,35942,1,0,0:0:0:0:
223,144,36029,5,2,0:0:0:0:
381,185,36116,1,8,0:0:0:0:
391,113,36204,1,2,0:0:0:0:
401,41,36291,1,0,0:0:0:0:
223,144,36378,1,8,0:0:0:0:
345,270,36553,1,2,0:0:0:0:
355,198,36640,1,0,0:0:0:0:
140,296,36727,6,0,L|243:305,2,96,4|0|8,0:0|0:0|0:0,0:0:0:0:
430,211,37250,2,0,L|327:202,2,96,4|0|8,0:0|0:0|0:0,0:0:0:0:
141,71,37773,2,0,P|88:151|212:253,1,288,4|2,0:0|0:0,0:0:0:0:
376,214,38471,2,0,L|273:205,1,96,8|0,0:0|0:0,0:0:0:0:
444,137,38820,6,0,L|341:128,1,96,8|0,0:0|0:0,0:0:0:0:
276,123,39082,1,0,0:0:0:0:
444,137,39169,1,2,0:0:0:0:
451,203,39256,1,0,0:0:0:0:
423,262,39343,1,0,0:0:0:0:
351,281,39430,2,0,P|282:262|289:202,1,144,2|0,0:0|0:0,0:0:0:0:
28,150,39866,6,0,L|19:253,1,96,4|0,0:0|0:0,0:0:0:0:
183,261,40215,2,0,L|278:269,1,96,2|0,0:0|0:0,0:0:0:0:
264,178,40477,1,0,0:0:0:0:
106,115,40564,1,8,0:0:0:0:
348,184,40739,6,0,P|430:218|416:306,1,192,4|2,0:0|0:0,0:0:0:0:
175,239,41262,2,0,L|270:248,1,96,8|0,0:0|0:0,0:0:0:0:
282,315,41523,1,0,0:0:0:0:
122,329,41611,5,2,0:0:0:0:
55,338,41698,1,8,0:0:0:0:
122,329,41785,1,0,0:0:0:0:
280,177,41872,1,2,0:0:0:0:
347,168,41959,1,8,0:0:0:0:
280,177,42046,1,0,0:0:0:0:
122,329,42134,1,0,0:0:0:0:
361,296,42308,5,4,0:0:0:0:
433,264,42396,1,0,0:0:0:0:
429,178,42483,1,0,0:0:0:0:
267,138,42657,2,0,L|362:146,1,96,8|0,0:0|0:0,0:0:0:0:
122,259,43006,2,0,L|128:160,1,96,2|0,0:0|0:0,0:0:0:0:
199,131,43268,1,0,0:0:0:0:
41,142,43355,1,8,0:0:0:0:
280,304,43529,6,0,P|361:261|380:169,1,192,4|2,0:0|0:0,0:0:0:0:
138,180,44053,1,8,0:0:0:0:
42,258,44227,1,0,0:0:0:0:
108,265,44314,1,0,0:0:0:0:
275,68,44401,5,8,0:0:0:0:
342,82,44488,1,0,0:0:0:0:
189,116,44576,1,2,0:0:0:0:
342,82,44662,1,8,0:0:0:0:
409,96,44749,1,0,0:0:0:0:
259,170,44837,1,8,0:0:0:0:
192,186,44924,1,0,0:0:0:0:
259,170,45011,1,0,0:0:0:0:
56,212,45099,6,0,L|50:111,1,96,4|0,0:0|0:0,0:0:0:0:
214,65,45448,2,0,L|118:70,1,96,8|0,0:0|0:0,0:0:0:0:
359,76,45797,2,0,L|454:70,1,96,2|0,0:0|0:0,0:0:0:0:
383,123,46058,1,0,0:0:0:0:
223,160,46146,1,8,0:0:0:0:
462,273,46320,6,0,B|470:177|470:177|368:176,1,192,4|2,0:0|0:0,0:0:0:0:
133,207,46843,2,0,L|34:207,1,96,8|0,0:0|0:0,0:0:0:0:
110,196,47105,1,0,0:0:0:0:
268,181,47192,5,2,0:0:0:0:
110,196,47279,1,8,0:0:0:0:
103,130,47366,1,2,0:0:0:0:
96,64,47454,1,0,0:0:0:0:
254,57,47541,1,8,0:0:0:0:
135,222,47715,1,2,0:0:0:0:
128,156,47803,1,0,0:0:0:0:
343,301,47890,6,0,L|240:310,2,96,4|0|8,0:0|0:0|0:0,0:0:0:0:
53,216,48413,2,0,L|156:207,2,96,4|0|8,0:0|0:0|0:0,0:0:0:0:
295,96,48936,2,0,B|364:162|364:162|329:196,1,144,4|0,0:0|0:0,0:0:0:0:
159,168,49285,6,0,L|81:242,1,96,8|0,0:0|0:0,0:0:0:0:
253,246,49634,2,0,L|175:320,1,96,8|0,0:0|0:0,0:0:0:0:
424,307,49983,2,0,L|502:233,1,96,8|0,0:0|0:0,0:0:0:0:
335,211,50244,2,0,L|257:137,1,96,8|0,0:0|0:0,0:0:0:0:
425,124,50506,2,0,L|378:80,1,48,8|0,0:0|0:0,0:0:0:0:
232,69,50680,5,2,0:0:0:0:
144,92,50855,1,0,0:0:0:0:
100,154,51029,1,0,0:0:0:0:
104,224,51204,1,0,0:0:0:0:
268,276,51378,2,0,L|162:249,2,96,8|0|2,0:0|0:0|0:0,0:0:0:0:
104,224,51901,5,2,0:0:0:0:
408,224,52773,1,8,0:0:0:0:
104,224,53297,2,0,L|127:167,1,48
280,69,53471,5,2,0:0:0:0:
368,92,53646,1,0,0:0:0:0:
412,154,53820,1,0,0:0:0:0:
408,224,53995,1,0,0:0:0:0:
244,276,54169,2,0,L|350:249,2,96,8|0|2,0:0|0:0|0:0,0:0:0:0:
408,224,54692,5,2,0:0:0:0:
104,224,55564,1,8,0:0:0:0:
408,224,56087,2,0,L|385:167,1,48
232,69,56262,5,2,0:0:0:0:
136,100,56436,1,0,0:0:0:0:
232,69,56611,1,0,0:0:0:0:
136,100,56785,1,0,0:0:0:0:
300,144,56960,1,8,0:0:0:0:
300,144,57134,1,0,0:0:0:0:
136,100,57308,1,2,0:0:0:0:
300,144,57483,6,0,P|401:278|248:335,1,384,2|2,0:0|0:0,0:0:0:0:
185,302,58268,1,2,0:0:0:0:
343,313,58355,5,2,0:0:0:0:
439,271,58529,1,2,0:0:0:0:
450,166,58704,1,2,0:0:0:0:
376,96,58878,1,2,0:0:0:0:
135,95,59053,1,2,0:0:0:0:
256,192,59227,12,0,63239,0:0:0:0:
