osu file format v14

[General]
AudioFilename: audio.mp3
AudioLeadIn: 0
PreviewTime: 28268
Countdown: 0
SampleSet: Soft
StackLeniency: 0.7
Mode: 2
LetterboxInBreaks: 0
WidescreenStoryboard: 0

[Editor]
Bookmarks: 13460,63239
DistanceSpacing: 1
BeatDivisor: 4
GridSize: 8
TimelineZoom: 2.2

[Metadata]
Title:Hanami ON THE RIFT (PV ver.)
TitleUnicode:花見 ON THE RIFT (PV ver.)
Artist:League of Legends
ArtistUnicode:リーグ・オブ・レジェンド
Creator:Ascendance
Version:Koli's Overdose
Source:League of Legends
Tags:riot games japan dnb drum and bass sakura event jhin sanyi alienflybot absolute zero afk98 californian darknessofblue sinnoh piku p_i_k_u benny- bennybananas ponchiwi celerih hareimu f_d_flourite fdflourite sorcerer tomthewizard spectator kyuare kin kinzo koliron
BeatmapID:1492332
BeatmapSetID:695308

[Difficulty]
HPDrainRate:7
CircleSize:4.1
OverallDifficulty:9.1
ApproachRate:9.1
SliderMultiplier:1.92
SliderTickRate:2

[Events]
//Background and Video events
0,0,"epksy1ypx5yz.jpg",0,0
//Break Periods
//Storyboard Layer 0 (Background)
//Storyboard Layer 1 (Fail)
//Storyboard Layer 2 (Pass)
//Storyboard Layer 3 (Foreground)
//Storyboard Sound Samples

[TimingPoints]
1460,375,4,2,21,30,1,0
26772,-100,4,2,21,5,0,0
26960,348.837209302326,4,2,22,38,1,0
27047,-100,4,2,22,40,0,0
27134,-100,4,2,22,42,0,0
27221,-100,4,2,22,44,0,0
27308,-100,4,2,22,46,0,0
27396,-100,4,2,22,48,0,0
27483,-100,4,2,22,50,0,0
27570,-100,4,2,22,52,0,0
27657,-100,4,2,22,54,0,0
27744,-100,4,2,22,56,0,0
27832,-100,4,2,22,58,0,0
27919,-100,4,2,22,60,0,0
28006,-100,4,2,22,62,0,0
28093,-100,4,2,22,64,0,0
28180,-100,4,2,22,66,0,0
28268,-100,4,2,22,68,0,0
28355,-83.3333333333333,4,2,22,70,0,1
29576,-83.3333333333333,4,2,22,70,0,1
29925,-83.3333333333333,4,2,22,70,0,1
31146,-83.3333333333333,4,2,22,70,0,1
31320,-83.3333333333333,4,2,22,70,0,1
32366,-83.3333333333333,4,2,22,70,0,1
32715,-83.3333333333333,4,2,22,70,0,1
32890,-83.3333333333333,4,2,22,70,0,1
35157,-83.3333333333333,4,2,22,70,0,1
35419,-83.3333333333333,4,2,22,70,0,1
36553,-83.3333333333333,4,2,22,70,0,1
36727,-83.3333333333333,4,2,22,74,0,1
37250,-83.3333333333333,4,2,22,74,0,1
37599,-83.3333333333333,4,2,22,70,0,1
37686,-83.3333333333333,4,2,21,5,0,1
37773,-83.3333333333333,4,2,22,78,0,1
38122,-83.3333333333333,4,2,22,60,0,1
38820,-83.3333333333333,4,2,22,70,0,1
39430,-83.3333333333333,4,2,22,70,0,1
39692,-83.3333333333333,4,2,22,60,0,1
39866,-83.3333333333333,4,2,22,70,0,1
40215,-83.3333333333333,4,2,22,70,0,1
40739,-83.3333333333333,4,2,22,70,0,1
41000,-83.3333333333333,4,2,22,70,0,1
42308,-83.3333333333333,4,2,22,70,0,1
42483,-83.3333333333333,4,2,22,70,0,1
43529,-83.3333333333333,4,2,22,70,0,1
43878,-83.3333333333333,4,2,22,70,0,1
45099,-83.3333333333333,4,2,22,70,0,1
45273,-83.3333333333333,4,2,22,70,0,1
46320,-83.3333333333333,4,2,22,70,0,1
46669,-83.3333333333333,4,2,22,70,0,1
47715,-83.3333333333333,4,2,22,74,0,1
48413,-83.3333333333333,4,2,22,74,0,1
48762,-83.3333333333333,4,2,22,70,0,1
48849,-83.3333333333333,4,2,21,5,0,1
48936,-83.3333333333333,4,2,22,78,0,1
49285,-83.3333333333333,4,2,22,70,0,1
50680,-100,4,2,21,40,0,0
51553,-100,4,2,21,40,0,0
51901,-100,4,2,21,40,0,0
53297,-100,4,2,21,40,0,0
54692,-100,4,2,21,40,0,0
56087,-100,4,2,21,40,0,0
57483,-100,4,2,21,40,0,0
60448,-100,4,2,21,30,0,0
61843,-100,4,2,21,20,0,0
63239,-100,4,2,21,10,0,0

[Colours]
Combo1 : 0,128,192
Combo2 : 64,0,255
Combo3 : 255,0,0
Combo4 : 192,192,192

[HitObjects]
120,272,1460,6,0,L|96:80,1,192,2|8,0:1|0:0,0:0:0:0:
280,80,2210,1,8,0:0:0:0:
40,248,2585,1,8,0:0:0:0:
48,248,2772,1,8,0:0:0:0:
192,248,2960,5,2,0:0:0:0:
320,248,3335,1,8,0:0:0:0:
192,248,3522,2,0,L|168:56,1,192,2|2,0:0|0:0,0:0:0:0:
472,56,4460,5,2,0:0:0:0:
312,104,4835,2,0,L|304:200,1,96,0|0,0:0|0:0,0:0:0:0:
192,208,5210,2,0,L|184:304,1,96,8|8,0:0|0:0,0:0:0:0:
344,312,5585,1,2,0:0:0:0:
184,304,5772,1,2,0:0:0:0:
64,296,5960,6,0,L|240:184,1,192,8|2,0:0|0:0,0:0:0:0:
448,80,6710,2,0,L|472:184,2,96,8|8|2,0:0|0:0|0:0,0:0:0:0:
152,224,7460,6,0,L|313:120,1,192,2|2,0:0|0:0,0:0:0:0:
224,256,8022,2,0,L|216:360,1,96,2|8,0:0|0:0,0:0:0:0:
104,352,8397,1,2,0:0:0:0:
296,248,8772,1,2,0:0:0:0:
416,80,8960,6,0,L|254:183,1,192,8|2,0:0|0:0,0:0:0:0:
64,80,9710,2,0,L|40:184,2,96,2|2|8,0:0|0:0|0:0,0:0:0:0:
416,80,10460,6,0,L|254:183,1,192,8|2,0:0|0:0,0:0:0:0:
144,160,11022,1,2,0:0:0:0:
312,248,11210,1,0,0:0:0:0:
200,224,11397,1,2,0:0:0:0:
472,56,11960,6,0,L|472:344,1,288,2|2,0:0|0:0,0:0:0:0:
352,344,12710,2,0,L|144:344,1,192,2|0,0:0|0:0,0:0:0:0:
448,64,13460,6,0,P|360:88|312:208,2,192,2|8|2,0:1|0:0|0:0,0:0:0:0:
240,72,14585,2,0,L|224:176,1,96,2|2,0:0|0:0,0:0:0:0:
384,192,14960,5,8,0:0:0:0:
208,264,15335,1,8,0:0:0:0:
368,288,15522,1,8,0:0:0:0:
208,264,15897,2,0,P|160:200|224:104,1,192,8|0,0:0|0:0,0:0:0:0:
416,40,16460,6,0,L|440:336,1,288,2|0,0:0|0:0,0:0:0:0:
328,336,17210,2,0,L|320:232,1,96,8|8,0:0|0:0,0:0:0:0:
192,200,17585,1,2,0:0:0:0:
320,240,17772,1,2,0:0:0:0:
456,248,17960,6,0,P|448:168|336:96,1,192,8|0,0:0|0:0,0:0:0:0:
144,72,18710,1,2,0:0:0:0:
366,99,19085,1,8,0:0:0:0:
32,160,19460,5,8,0:0:0:0:
192,200,19835,2,0,L|88:200,1,96,2|8,0:0|0:0,0:0:0:0:
248,256,20210,2,0,L|448:256,1,192,8|0,0:0|0:0,0:0:0:0:
192,200,20960,5,2,0:0:0:0:
128,128,21335,1,8,0:0:0:0:
96,40,21710,1,2,0:0:0:0:
128,128,22085,1,8,0:0:0:0:
336,64,22460,6,0,P|464:240|248:88,1,768,2|6,0:0|0:1,0:0:0:0:
240,96,24022,1,2,0:0:0:0:
256,192,24335,12,0,26772,0:0:0:0:
336,64,26960,5,0,1:3:0:0:
378,82,27047,1,0,1:3:0:0:
395,126,27134,1,0,1:3:0:0:
376,169,27221,1,0,1:3:0:0:
319,182,27308,1,0,1:0:0:0:
300,225,27395,1,0,1:0:0:0:
317,269,27482,1,0,1:0:0:0:
360,288,27569,1,0,0:0:0:0:
440,288,27657,6,0,L|456:232,1,48,0|0,1:0|1:0,0:0:0:0:
304,112,27832,2,0,L|248:104,1,48,0|0,1:0|1:0,0:0:0:0:
104,88,28006,2,0,L|88:144,1,48,0|0,1:0|1:0,0:0:0:0:
320,224,28180,2,0,L|336:168,1,48,0|0,1:0|1:0,0:0:0:0:
96,240,28355,6,0,L|240:232,1,115.199996484375,6|2,3:2|0:0,0:0:0:0:
48,168,28704,2,0,L|32:40,1,115.199996484375,10|2,0:2|0:2,0:0:0:0:
312,72,29053,1,2,3:2:0:0:
366,89,29140,1,0,0:0:0:0:
402,132,29227,1,0,0:2:0:0:
410,188,29314,1,2,0:2:0:0:
264,208,29401,2,0,L|192:216,1,57.5999982421876,8|0,0:2|0:0,0:0:0:0:
48,336,29576,6,0,L|256:328,1,172.799994726563,2|0,3:1|0:0,0:0:0:0:
424,288,29925,2,0,L|432:224,1,57.5999982421876,2|0,3:2|0:0,0:0:0:0:
256,80,30099,1,10,0:2:0:0:
218,121,30186,1,0,0:0:0:0:
226,176,30273,1,2,0:2:0:0:
273,207,30360,1,2,0:2:0:0:
472,64,30448,5,2,3:2:0:0:
460,119,30535,1,8,0:2:0:0:
425,165,30622,1,0,3:2:0:0:
374,190,30709,1,2,0:2:0:0:
166,222,30797,2,0,L|223:222,1,57.5999982421876,8|0,0:2|0:2,0:0:0:0:
374,190,30971,2,0,L|316:190,1,57.5999982421876,2|0,0:2|0:2,0:0:0:0:
136,184,31146,5,4,3:2:0:0:
64,200,31233,2,0,L|48:336,1,115.199996484375,0|2,0:0|0:2,0:0:0:0:
282,290,31494,2,0,L|296:176,1,115.199996484375,10|2,0:2|0:2,0:0:0:0:
144,128,31843,2,0,L|272:120,1,115.199996484375,2|0,3:2|0:2,0:0:0:0:
280,72,32105,1,2,0:2:0:0:
112,200,32192,2,0,L|96:264,1,57.5999982421876,8|0,0:0|0:0,0:0:0:0:
320,280,32366,6,0,P|416:248|456:120,1,230.39999296875,2|2,3:2|3:2,0:0:0:0:
305,214,32890,2,0,L|472:127,1,172.799994726563,10|0,0:2|0:0,0:0:0:0:
264,152,33239,2,0,L|256:224,1,57.5999982421876,10|0,0:2|0:0,0:0:0:0:
456,272,33413,2,0,L|398:265,1,57.5999982421876,2|10,3:2|0:2,0:0:0:0:
240,304,33587,2,0,L|182:297,1,57.5999982421876,0|10,0:0|0:2,0:0:0:0:
39,208,33761,2,0,L|33:266,1,57.5999982421876,0|2,0:2|0:2,0:0:0:0:
256,64,33936,6,0,L|416:64,1,115.199996484375,6|2,3:2|0:2,0:0:0:0:
248,120,34285,2,0,L|88:120,1,115.199996484375,10|2,0:2|0:2,0:0:0:0:
272,200,34634,1,2,3:2:0:0:
318,231,34721,1,0,0:0:0:0:
326,286,34808,1,0,0:2:0:0:
290,329,34895,1,2,0:2:0:0:
64,160,34983,2,0,L|56:96,1,57.5999982421876,8|0,0:0|0:0,0:0:0:0:
256,200,35157,6,0,P|296:144|304:32,1,172.799994726563,2|0,3:1|0:0,0:0:0:0:
128,240,35506,2,0,L|200:248,1,57.5999982421876,2|0,3:2|0:0,0:0:0:0:
368,104,35680,1,10,0:2:0:0:
424,117,35767,1,0,0:0:0:0:
465,156,35854,1,2,0:2:0:0:
481,211,35941,1,2,0:2:0:0:
288,168,36029,6,0,L|230:162,1,57.5999982421876,2|10,3:2|0:2,0:0:0:0:
172,168,36204,2,0,L|230:162,1,57.5999982421876,0|2,3:2|0:2,0:0:0:0:
408,192,36378,2,0,L|416:256,1,57.5999982421876,10|0,0:2|0:2,0:0:0:0:
224,240,36553,2,0,L|144:240,1,57.5999982421876,2|2,3:2|0:2,0:0:0:0:
384,56,36727,6,0,L|400:184,1,115.199996484375,6|2,3:2|0:2,0:0:0:0:
136,192,37076,1,8,0:2:0:0:
416,88,37250,2,0,L|184:88,1,230.39999296875,6|10,3:2|0:2,0:0:0:0:
448,48,37773,6,0,P|480:128|312:336,1,345.599989453125,6|0,0:0|0:0,0:0:0:0:
120,136,38471,2,0,L|96:288,1,115.199996484375,10|0,0:2|0:2,0:0:0:0:
392,136,38820,2,0,L|416:288,1,115.199996484375,0|0,1:2|1:2,0:0:0:0:
256,192,39169,2,0,L|256:256,1,57.5999982421876,2|2,1:2|1:2,0:0:0:0:
320,304,39343,1,2,1:2:0:0:
480,272,39430,2,0,B|496:216|496:192|336:168,1,172.799994726563,2|2,0:2|0:2,0:0:0:0:
40,72,39866,6,0,L|184:72,1,115.199996484375,14|2,0:2|0:2,0:0:0:0:
296,136,40215,2,0,L|160:136,1,115.199996484375,2|0,3:2|0:2,0:0:0:0:
456,184,40564,1,8,0:2:0:0:
184,200,40739,6,0,P|112:224|80:336,1,172.799994726563,2|0,3:1|0:0,0:0:0:0:
304,320,41087,2,0,L|368:320,1,57.5999982421876,2|0,3:2|0:0,0:0:0:0:
184,184,41262,1,10,0:2:0:0:
129,171,41349,1,0,0:0:0:0:
89,131,41436,1,2,0:2:0:0:
75,75,41523,1,2,0:2:0:0:
328,64,41611,6,0,L|386:70,1,57.5999982421876,2|10,3:2|0:2,0:0:0:0:
328,64,41786,2,0,L|270:70,1,57.5999982421876,0|2,3:2|0:2,0:0:0:0:
120,256,41960,2,0,L|192:256,1,57.5999982421876,10|0,0:2|0:2,0:0:0:0:
368,152,42134,2,0,L|296:152,1,57.5999982421876,2|0,0:2|0:2,0:0:0:0:
112,272,42308,5,6,3:2:0:0:
64,240,42396,2,0,L|40:120,1,115.199996484375,0|2,0:0|0:2,0:0:0:0:
240,80,42657,2,0,L|360:64,1,115.199996484375,8|2,0:2|0:2,0:0:0:0:
240,80,43006,2,0,L|120:96,1,115.199996484375,2|0,3:2|0:2,0:0:0:0:
104,144,43268,1,2,0:2:0:0:
304,120,43355,2,0,L|320:184,1,57.5999982421876,8|0,0:0|0:0,0:0:0:0:
144,320,43529,6,0,P|249:280|283:174,1,230.39999296875,2|2,3:2|3:2,0:0:0:0:
130,254,44053,2,0,P|80:192|64:88,1,172.799994726563,10|2,0:2|0:2,0:0:0:0:
216,80,44401,2,0,L|280:80,1,57.5999982421876,10|0,0:2|0:2,0:0:0:0:
432,80,44576,2,0,L|448:168,1,57.5999982421876,2|10,3:2|0:2,0:0:0:0:
256,176,44750,2,0,L|240:264,1,57.5999982421876,0|10,0:2|0:2,0:0:0:0:
464,208,44925,2,0,L|480:296,1,57.5999982421876,0|2,0:2|0:2,0:0:0:0:
272,296,45099,6,0,L|136:288,1,115.199996484375,6|2,3:2|0:2,0:0:0:0:
304,224,45448,2,0,L|168:216,1,115.199996484375,10|2,0:2|0:2,0:0:0:0:
440,160,45797,1,2,3:2:0:0:
428,104,45884,1,0,0:0:0:0:
387,64,45971,1,0,0:2:0:0:
332,51,46058,1,2,0:2:0:0:
152,64,46146,2,0,L|136:128,1,57.5999982421876,8|0,0:0|0:0,0:0:0:0:
328,232,46320,6,0,B|416:232|416:232|328:232,1,172.799994726563,2|0,3:1|0:0,0:0:0:0:
112,200,46669,2,0,L|176:192,1,57.5999982421876,0|0,3:2|0:0,0:0:0:0:
368,64,46843,1,10,0:2:0:0:
423,79,46930,1,0,0:0:0:0:
459,123,47017,1,2,0:2:0:0:
463,179,47104,1,2,0:2:0:0:
272,200,47192,1,2,3:2:0:0:
215,189,47279,1,10,0:2:0:0:
158,179,47366,1,0,3:2:0:0:
101,169,47453,1,2,0:2:0:0:
272,112,47541,2,0,L|280:48,1,57.5999982421876,10|0,2:2|0:2,0:0:0:0:
128,104,47715,2,0,L|120:40,1,57.5999982421876,2|2,0:2|0:2,0:0:0:0:
336,160,47890,6,0,L|344:288,1,115.199996484375,4|2,3:2|0:2,0:0:0:0:
112,304,48239,1,10,0:2:0:0:
352,160,48413,2,0,L|360:288,1,115.199996484375,6|0,3:2|0:0,0:0:0:0:
128,304,48762,1,10,0:2:0:0:
372,96,48936,6,0,L|116:96,1,230.39999296875,6|8,0:2|0:2,0:0:0:0:
32,176,49460,1,0,3:2:0:0:
280,160,49634,1,8,0:2:0:0:
168,240,49808,1,0,3:2:0:0:
416,224,49983,1,8,0:2:0:0:
304,304,50157,1,0,3:2:0:0:
80,280,50244,2,0,L|64:192,1,57.5999982421876,8|0,0:2|3:2,0:0:0:0:
288,128,50419,2,0,L|376:120,2,57.5999982421876,10|10|0,3:2|0:2|0:2,0:0:0:0:
64,48,50680,6,0,L|48:168,1,96,6|8,3:2|0:0,0:0:0:0:
208,160,51029,1,8,0:0:0:0:
363,184,51204,2,0,L|375:279,1,96,2|8,0:0|0:1,0:0:0:0:
208,80,51553,2,0,L|224:200,1,96,2|0,0:0|3:0,0:0:0:0:
376,200,51902,1,2,3:2:0:0:
221,175,52076,5,0,0:0:0:0:
129,185,52250,1,0,0:0:0:0:
84,266,52424,1,0,0:0:0:0:
122,350,52599,1,0,0:0:0:0:
314,208,52773,1,8,0:1:0:0:
406,198,52947,1,0,0:0:0:0:
451,117,53121,1,0,0:0:0:0:
413,33,53296,1,2,0:0:0:0:
355,32,53384,1,2,0:0:0:0:
144,64,53471,6,0,L|128:168,1,96,2|8,3:2|0:0,0:0:0:0:
296,184,53820,1,8,0:0:0:0:
128,272,53994,2,0,L|232:272,1,96,2|8,0:0|0:1,0:0:0:0:
336,272,54343,1,2,0:0:0:0:
184,200,54518,1,0,3:0:0:0:
336,272,54692,1,2,3:2:0:0:
224,64,54866,6,0,L|216:168,1,96,0|0,0:0|0:0,0:0:0:0:
88,296,55215,2,0,L|96:192,1,96,0|0,0:0|0:0,0:0:0:0:
288,64,55564,2,0,L|296:168,1,96,8|0,2:1|0:0,0:0:0:0:
424,296,55913,2,0,L|416:192,1,96,0|2,0:0|0:0,0:0:0:0:
376,176,56175,1,2,0:0:0:0:
184,144,56262,6,0,L|72:136,1,96,2|8,3:2|0:0,0:0:0:0:
232,296,56611,1,8,0:0:0:0:
105,287,56786,2,0,L|96:192,1,96,2|8,0:0|0:1,0:0:0:0:
232,296,57134,1,2,0:0:0:0:
360,288,57308,1,0,3:0:0:0:
232,296,57483,1,2,3:2:0:0:
360,160,57657,6,0,L|400:48,1,96
223,138,58006,2,0,L|263:26,1,96,0|2,0:0|0:0,0:0:0:0:
312,48,58268,1,2,0:0:0:0:
368,48,58355,2,0,L|408:152,1,96,10|2,0:1|0:0,0:0:0:0:
256,208,58704,2,0,L|368:200,1,96,2|2,0:0|0:0,0:0:0:0:
32,232,59053,5,6,3:1:0:0:
256,192,59227,12,0,63239,0:0:0:0:
